osu file format v14

[General]
AudioFilename: audio.mp3
AudioLeadIn: 0
PreviewTime: 87626
Countdown: 0
SampleSet: Soft
StackLeniency: 0.4
Mode: 0
LetterboxInBreaks: 0
WidescreenStoryboard: 1

[Editor]
DistanceSpacing: 0.8
BeatDivisor: 4
GridSize: 8
TimelineZoom: 1.4

[Metadata]
Title:8th:Planet ~Re:search~
TitleUnicode:8th:Planet ~Re:search~
Artist:P4koo
ArtistUnicode:P4koo
Creator:Niva
Version:Normal
Source:MUSYNX
Tags:osu! featured artist fa mappers' guild mpg electronic instrumental 8thplanet research [re-search] bms ノンジャンル2 nongenre2 non-genre unlimited fighters space techno melodic trance musync
BeatmapID:2698961
BeatmapSetID:1295410

[Difficulty]
HPDrainRate:5
CircleSize:4
OverallDifficulty:5
ApproachRate:6
SliderMultiplier:1.4
SliderTickRate:1

[Events]
//Background and Video events
0,0,"teknologi.jpg",0,0
//Break Periods
//Storyboard Layer 0 (Background)
//Storyboard Layer 1 (Fail)
//Storyboard Layer 2 (Pass)
//Storyboard Layer 3 (Foreground)
//Storyboard Layer 4 (Overlay)
//Storyboard Sound Samples

[TimingPoints]
249,387.096774193548,4,2,77,50,1,0
1216,-250,4,2,77,50,0,0
1603,-250,4,2,77,5,0,0
1798,387.096774193548,4,2,77,50,1,0
1798,-153.846153846154,4,2,77,50,0,0
9927,-153.846153846154,4,2,77,50,0,0
10120,-153.846153846154,4,2,77,5,0,0
10314,-153.846153846154,4,2,77,50,0,0
11088,-153.846153846154,4,2,77,50,0,0
12636,-125,4,2,77,85,0,0
13797,-125,4,2,77,85,0,0
14088,-125,4,2,77,5,0,0
14185,-125,4,2,79,85,0,1
19604,-125,4,2,79,95,0,1
20378,-125,4,2,79,85,0,1
26475,-125,4,2,79,5,0,1
26572,-125,4,2,79,75,0,0
32668,-125,4,2,79,5,0,0
32765,-125,4,2,79,75,0,0
38185,-125,4,2,79,85,0,0
38959,-125,4,2,79,85,0,1
51346,-153.846153846154,4,2,79,85,0,0
51443,-153.846153846154,4,2,79,65,0,0
61023,-153.846153846154,4,2,79,70,0,0
61410,-153.846153846154,4,2,79,75,0,0
61797,-153.846153846154,4,2,79,80,0,0
62185,-153.846153846154,4,2,79,60,0,0
62862,-153.846153846154,4,2,79,5,0,0
62959,-153.846153846154,4,2,79,50,0,0
63152,-153.846153846154,4,2,79,60,0,0
63346,-153.846153846154,4,2,79,70,0,0
63539,-153.846153846154,4,2,79,80,0,0
63733,-125,4,2,79,85,0,1
75346,-125,4,2,79,95,0,1
76023,-125,4,2,79,95,0,0
76120,-125,4,2,79,85,0,1
81539,-125,4,2,79,95,0,1
82314,-125,4,2,79,85,0,1
86959,-153.846153846154,4,2,79,60,0,0
87636,-153.846153846154,4,2,79,5,0,0
87830,-125,4,2,79,60,0,0
88507,-125,4,2,79,80,0,1
100797,-125,4,2,79,80,0,0
100894,-125,4,2,79,80,0,1
110185,-125,4,2,79,80,0,0
111733,-125,4,2,79,80,0,0
112120,-125,4,2,79,80,0,0
112507,-125,4,2,79,80,0,0
112894,-125,4,2,79,80,0,0
113281,-125,4,2,79,80,0,0
113765,-125,4,2,79,5,0,0
113862,-125,4,2,79,80,0,0
114346,-125,4,2,79,5,0,0
114443,-125,4,2,79,80,0,0
115023,-125,4,2,79,75,0,0
115217,-125,4,2,79,70,0,0
115410,-125,4,2,79,65,0,0
115604,-125,4,2,79,60,0,0
115797,-125,4,2,79,55,0,0
115991,-125,4,2,79,50,0,0
116185,-125,4,2,79,45,0,0
116378,-125,4,2,79,40,0,0
116572,-125,4,2,79,35,0,0
116765,-125,4,2,79,30,0,0
116959,-125,4,2,79,25,0,0
117152,-125,4,2,79,20,0,0
117346,-125,4,2,79,15,0,0
117539,-125,4,2,79,10,0,0
117733,-125,4,2,79,5,0,0
117927,-125,4,2,79,5,0,0

[Colours]
Combo1 : 17,254,176
Combo2 : 173,255,95
Combo3 : 255,88,100
Combo4 : 255,94,55

[HitObjects]
114,74,1216,6,0,B|102:98|102:98|115:123,1,56,2|0,0:0|0:0,0:0:0:0:
110,169,1798,6,0,P|164:130|231:143,1,136.499993751526,4|0,1:2|0:0,0:0:0:0:
256,104,2572,1,8,0:0:0:0:
256,13,2959,1,8,0:0:0:0:
256,195,4120,5,8,0:0:0:0:
256,104,4507,1,8,0:0:0:0:
256,286,5668,5,8,0:0:0:0:
256,195,6055,1,8,0:0:0:0:
256,377,7217,5,8,0:0:0:0:
256,286,7604,1,8,0:0:0:0:
346,286,7991,6,0,P|415:284|436:227,1,136.499993751526,0|0,1:2|1:2,0:0:0:0:
407,192,8765,1,8,0:0:0:0:
316,192,9152,1,8,0:0:0:0:
45,192,9927,5,0,1:2:0:0:
135,192,10314,1,8,0:0:0:0:
225,192,10701,1,8,0:0:0:0:
297,247,11088,6,0,B|332:247|332:247|363:247|359:266|398:266|398:266|430:266,1,136.499993751526,0|0,1:2|1:2,0:0:0:0:
466,292,11862,1,8,0:0:0:0:
504,209,12249,1,8,0:0:0:0:
491,165,12443,1,8,0:0:0:0:
478,121,12636,6,0,B|425:139|425:139|377:103,1,112,8|8,0:3|0:3,0:0:0:0:
356,66,13217,2,0,L|350:177,1,112,0|0,1:2|1:2,0:0:0:0:
347,223,13797,1,4,3:0:0:0:
363,336,14185,6,0,P|318:303|261:307,1,112,4|8,1:2|0:0,0:0:0:0:
168,247,14959,2,0,L|110:247,2,56,2|0|10,1:2|0:0|0:0,0:0:0:0:
185,205,15539,1,2,0:0:0:0:
201,162,15733,2,0,P|255:173|297:140,1,112,0|8,1:2|0:0,0:0:0:0:
339,36,16507,2,0,L|397:36,2,56,2|0|10,1:2|0:0|0:0,0:0:0:0:
296,19,17088,1,2,0:0:0:0:
253,2,17281,6,0,L|265:122,1,112,0|8,1:2|0:0,0:0:0:0:
161,157,18056,2,0,L|116:108,2,56,2|0|10,1:2|0:0|0:0,0:0:0:0:
190,191,18636,1,2,0:0:0:0:
221,223,18830,2,0,P|195:269|136:267,1,112,2|12,1:2|0:0,0:0:0:0:
181,378,19604,2,0,L|238:366,1,56,2|2,1:2|0:0,0:0:0:0:
279,378,19991,2,0,L|336:366,1,56,0|4,1:2|3:3,0:0:0:0:
377,378,20378,6,0,B|414:339|414:339|473:347,1,112,4|8,1:2|0:0,0:0:0:0:
487,233,21152,2,0,P|519:243|539:234,2,56,2|0|10,1:2|0:0|0:0,0:0:0:0:
444,248,21733,1,2,0:0:0:0:
400,259,21927,2,0,B|350:259|350:259|338:251|338:251|286:251,1,112,0|8,1:2|0:0,0:0:0:0:
205,324,22701,2,0,P|214:352|204:381,2,56,2|0|10,1:2|0:0|0:0,0:0:0:0:
164,304,23281,1,2,0:0:0:0:
123,283,23475,6,0,P|70:289|28:253,1,112,0|8,1:2|0:0,0:0:0:0:
35,141,24249,2,0,P|8:151|-18:141,2,56,2|0|10,1:2|0:0|0:0,0:0:0:0:
75,160,24830,1,2,1:2:0:0:
116,141,25023,6,0,B|167:141|167:141|190:159|224:154,1,112,8|8,3:0|3:0,0:0:0:0:
248,192,25604,2,0,P|288:154|345:151,1,112,2|2,1:2|1:2,0:0:0:0:
362,109,26185,1,4,3:0:0:0:
290,20,26572,6,0,L|177:7,1,112,6|8,1:2|0:0,0:0:0:0:
133,1,27152,2,0,P|94:68|142:136,1,168,2|8,0:0|0:0,0:0:0:0:
125,178,27927,1,2,0:0:0:0:
107,219,28120,2,0,B|148:258|148:258|205:240,1,112,2|8,1:2|0:0,0:0:0:0:
308,209,28894,1,0,1:2:0:0:
384,294,29281,1,8,0:0:0:0:
365,335,29475,1,2,0:0:0:0:
343,374,29668,6,0,P|295:338|241:349,1,112,2|8,1:2|0:0,0:0:0:0:
207,321,30249,2,0,B|146:332|146:332|123:228,1,168,2|8,0:0|0:0,0:0:0:0:
133,184,31023,1,2,0:0:0:0:
143,139,31217,6,0,L|53:140,2,84,2|2|2,1:2|0:0|0:0,0:0:0:0:
178,110,31991,5,2,1:2:0:0:
243,182,32281,1,2,0:0:0:0:
314,110,32572,1,2,1:2:0:0:
314,110,32765,6,0,P|351:146|410:140,1,112,2|8,1:2|0:0,0:0:0:0:
439,108,33346,2,0,L|405:280,1,168,2|8,0:0|0:0,0:0:0:0:
397,317,34120,1,2,0:0:0:0:
388,361,34314,2,0,P|430:330|485:341,1,112,2|8,1:2|0:0,0:0:0:0:
512,232,35088,1,0,1:2:0:0:
414,173,35475,1,8,0:0:0:0:
370,186,35668,1,2,0:0:0:0:
327,201,35862,6,0,L|301:116,2,84,2|2|2,1:2|0:0|0:0,0:0:0:0:
278,305,36830,2,0,P|235:277|174:280,1,112,2|2,0:0|0:0,0:0:0:0:
162,236,37410,6,0,B|124:253|124:253|80:235,2,84,2|2|2,1:2|0:0|0:0,0:0:0:0:
151,191,38185,5,6,1:2:0:0:
247,157,38475,1,4,1:2:0:0:
345,195,38765,1,4,1:2:0:0:
345,195,38959,6,0,P|381:159|439:164,1,112,6|8,1:2|0:0,0:0:0:0:
445,49,39733,2,0,L|503:67,2,56,2|0|10,1:2|0:0|0:0,0:0:0:0:
401,34,40314,1,2,0:0:0:0:
357,21,40507,1,2,1:2:0:0:
280,104,40894,1,8,0:0:0:0:
345,195,41281,1,0,1:2:0:0:
268,279,41668,1,10,0:0:0:0:
264,324,41862,1,2,0:0:0:0:
260,369,42056,6,0,P|214:338|157:345,1,112,2|8,1:2|0:0,0:0:0:0:
70,274,42830,2,0,L|10:275,2,56,2|0|10,1:2|0:0|0:0,0:0:0:0:
74,229,43410,1,2,0:0:0:0:
77,183,43604,1,2,1:2:0:0:
184,212,43991,1,8,0:0:0:0:
287,170,44378,1,2,1:2:0:0:
307,59,44765,1,10,0:0:0:0:
269,35,44959,1,0,1:2:0:0:
230,11,45152,6,0,B|188:20|188:20|166:11|166:11|121:20,1,112,6|8,1:2|0:0,0:0:0:0:
78,128,45927,2,0,L|10:106,2,56,2|0|10,1:2|0:0|0:0,0:0:0:0:
88,171,46507,1,2,0:0:0:0:
99,214,46701,1,2,1:2:0:0:
209,196,47088,1,8,0:0:0:0:
233,305,47475,1,0,1:2:0:0:
343,284,47862,1,10,0:0:0:0:
354,327,48056,1,2,1:2:0:0:
365,370,48249,6,0,P|403:338|464:344,1,112,2|8,1:2|0:0,0:0:0:0:
490,308,48830,2,0,B|516:257|516:257|482:202,1,112,2|2,0:0|0:0,0:0:0:0:
392,231,49507,1,2,0:0:0:0:
313,174,49797,2,0,P|261:197|208:173,1,112,2|8,1:2|0:0,0:0:0:0:
103,143,50572,2,0,L|97:204,1,56,0|2,1:2|0:2,0:0:0:0:
59,222,50959,2,0,L|53:283,1,56,0|0,1:2|1:2,0:0:0:0:
50,327,51346,5,4,1:2:0:0:
144,358,51733,1,0,1:2:0:0:
239,327,52120,1,0,1:2:0:0:
333,358,52507,1,0,1:2:0:0:
428,327,52894,6,0,P|471:343|510:327,1,90.9999958343508,0|2,1:2|1:2,0:0:0:0:
508,227,53668,2,0,P|466:210|425:227,1,90.9999958343508,0|2,1:2|1:2,0:0:0:0:
428,327,54443,5,0,1:2:0:0:
333,358,54830,1,0,1:2:0:0:
239,327,55217,1,0,1:2:0:0:
144,358,55604,1,0,1:2:0:0:
50,327,55991,6,0,B|32:287|32:287|50:241,1,90.9999958343508,0|2,1:2|1:2,0:0:0:0:
149,243,56765,2,0,B|167:283|167:283|149:329,1,90.9999958343508,0|2,1:2|1:2,0:0:0:0:
194,349,57346,1,0,1:2:0:0:
240,366,57539,6,0,L|331:354,1,90.9999958343508,0|0,1:2|1:2,0:0:0:0:
426,383,58314,1,0,1:2:0:0:
484,302,58701,1,2,1:2:0:0:
434,215,59088,2,0,P|451:175|427:133,1,90.9999958343508,0|0,1:2|1:2,0:0:0:0:
332,155,59862,1,0,1:2:0:0:
234,175,60249,1,2,1:2:0:0:
133,173,60636,6,0,L|145:225,2,45.4999979171754,0|0|2,1:2|1:2|1:2,0:0:0:0:
84,85,61410,2,0,L|29:85,2,45.4999979171754,0|0|2,1:2|1:2|1:2,0:0:0:0:
165,23,62185,2,0,B|210:5|250:34|250:34|289:62|337:42,1,181.999991668702,2|0,3:0|1:2,0:0:0:0:
408,111,63346,1,2,1:2:0:0:
404,159,63539,1,2,1:2:0:0:
399,204,63733,6,0,B|346:220|346:220|299:185,1,112,6|8,1:2|0:0,0:0:0:0:
194,227,64507,2,0,L|186:171,2,56,2|2|10,1:2|0:0|0:0,0:0:0:0:
136,326,65281,1,2,1:2:0:0:
245,350,65668,1,8,0:0:0:0:
354,375,66056,2,0,L|413:365,1,56,2|2,1:2|0:0,0:0:0:0:
421,322,66443,2,0,L|476:312,1,56,10|2,0:0|0:0,0:0:0:0:
492,269,66830,6,0,P|516:224|487:171,1,112,2|8,1:2|0:0,0:0:0:0:
479,62,67604,2,0,L|522:18,2,56,2|2|10,1:2|0:0|0:0,0:0:0:0:
367,71,68378,1,2,1:2:0:0:
378,182,68765,1,8,0:0:0:0:
391,294,69152,2,0,L|447:294,2,56,2|2|10,1:2|0:0|0:0,0:0:0:0:
357,324,69733,1,2,1:2:0:0:
322,352,69927,6,0,P|281:319|224:324,1,112,2|8,1:2|0:0,0:0:0:0:
114,301,70701,2,0,L|120:361,2,56,2|2|10,1:2|0:0|0:0,0:0:0:0:
104,189,71475,1,2,1:2:0:0:
205,137,71862,1,8,0:0:0:0:
284,216,72249,2,0,L|342:210,1,56,2|2,1:2|0:0,0:0:0:0:
380,192,72636,2,0,L|390:266,1,56,10|2,0:0|0:0,0:0:0:0:
380,291,73023,6,0,P|434:284|479:318,1,112,2|8,1:2|0:0,0:0:0:0:
509,209,73797,2,0,L|526:156,2,56,2|2|10,1:2|0:0|0:0,0:0:0:0:
408,158,74572,1,2,1:2:0:0:
296,174,74959,1,8,0:0:0:0:
220,258,75346,2,0,P|169:269|124:235,1,112,2|2,1:2|1:2,0:0:0:0:
81,248,75927,1,2,1:2:0:0:
38,235,76120,6,0,B|13:187|13:187|37:134,1,112,6|8,1:2|0:0,0:0:0:0:
36,21,76894,2,0,L|-29:21,2,56,2|0|10,1:2|0:0|0:0,0:0:0:0:
76,39,77475,1,2,0:0:0:0:
118,53,77668,2,0,B|165:53|165:53|181:64|181:64|227:64,1,112,0|8,1:2|0:0,0:0:0:0:
337,87,78443,2,0,L|342:26,2,56,2|0|10,1:2|0:0|0:0,0:0:0:0:
359,125,79023,1,2,0:0:0:0:
385,161,79217,6,0,P|331:167|297:211,1,112,0|8,1:2|0:0,0:0:0:0:
187,175,79991,2,0,L|175:120,2,56,2|0|10,1:2|0:0|0:0,0:0:0:0:
173,217,80572,1,2,0:0:0:0:
153,257,80765,2,0,B|194:295|194:295|250:282,1,112,2|12,1:2|0:0,0:0:0:0:
344,346,81539,2,0,L|405:332,1,56,2|2,1:2|0:0,0:0:0:0:
439,353,81927,2,0,L|459:291,1,56,0|4,1:2|3:0,0:0:0:0:
495,277,82314,6,0,P|449:255|439:198,1,112,4|8,1:2|0:0,0:0:0:0:
486,89,83088,2,0,P|492:60|481:31,2,56,2|0|10,1:2|0:0|0:0,0:0:0:0:
443,101,83668,1,2,0:0:0:0:
399,113,83862,2,0,L|287:99,1,112,0|8,1:2|0:0,0:0:0:0:
204,179,84636,2,0,P|177:188|148:178,2,56,2|0|10,1:2|0:0|0:0,0:0:0:0:
227,216,85217,1,2,0:0:0:0:
253,251,85410,6,0,L|253:367,1,112,0|8,1:2|0:0,0:0:0:0:
140,352,86185,2,0,P|148:325|138:298,2,56,2|0|14,1:2|1:2|0:0,0:0:0:0:
95,358,86765,1,6,1:2:0:0:
49,367,86959,6,0,B|17:286|17:286|23:260|23:260|-9:174,1,204.749990627289,2|2,3:3|0:0,0:0:0:0:
121,3,88507,6,0,P|155:44|209:40,1,112,6|8,1:2|0:0,0:0:0:0:
245,66,89088,2,0,B|284:28|284:28|397:28,1,168,2|8,0:0|0:0,0:0:0:0:
416,68,89862,1,2,0:0:0:0:
436,107,90056,2,0,P|491:131|499:187,1,112,2|8,1:2|0:0,0:0:0:0:
491,221,90636,2,0,L|375:221,1,112,2|0,0:0|0:0,0:0:0:0:
343,247,91217,1,10,0:0:0:0:
279,156,91604,5,2,1:2:0:0:
211,243,91991,1,8,0:0:0:0:
211,243,92185,1,2,0:0:0:0:
277,332,92572,1,0,0:0:0:0:
277,332,92765,1,10,0:0:0:0:
385,303,93152,2,0,B|472:303|472:303|456:328,2,112,2|8|6,1:2|0:0|1:2,0:0:0:0:
277,332,94314,1,4,1:2:0:0:
235,316,94507,1,4,1:2:0:0:
193,299,94701,6,0,P|143:320|90:298,1,112,6|8,1:2|0:0,0:0:0:0:
58,329,95281,2,0,L|35:213,1,112,2|0,0:0|0:0,0:0:0:0:
28,174,95862,1,10,0:0:0:0:
109,97,96249,1,2,1:2:0:0:
158,195,96636,1,8,0:0:0:0:
158,195,96830,1,2,0:0:0:0:
209,301,97217,1,0,0:0:0:0:
209,301,97410,1,10,0:0:0:0:
306,238,97797,6,0,B|349:234|349:234|371:246|371:246|415:241,1,112,2|8,1:2|0:0,0:0:0:0:
449,268,98378,2,0,P|494:251|494:184,1,112,2|0,0:0|0:0,0:0:0:0:
473,157,98959,1,10,0:0:0:0:
367,118,99346,2,0,L|355:2,2,112,2|8|2,1:2|0:0|1:2,0:0:0:0:
320,225,100507,1,6,1:2:0:0:
324,269,100701,1,0,1:2:0:0:
328,313,100894,6,0,P|281:284|228:292,1,112,6|8,1:2|0:0,0:0:0:0:
195,261,101475,2,0,B|219:210|219:210|189:158,1,112,2|0,0:0|0:0,0:0:0:0:
164,125,102056,1,10,0:0:0:0:
53,151,102443,1,2,1:2:0:0:
0,258,102830,1,8,0:0:0:0:
0,258,103023,1,2,0:0:0:0:
24,374,103410,1,0,0:0:0:0:
24,374,103604,1,10,0:0:0:0:
138,353,103991,6,0,B|165:353|165:353|186:353|197:368|218:368|218:368|248:368,1,112,2|8,1:2|0:0,0:0:0:0:
288,384,104572,2,0,B|327:345|327:345|384:354,1,112,2|0,0:0|0:0,0:0:0:0:
401,313,105152,1,10,0:0:0:0:
506,276,105539,2,0,L|495:163,2,112,2|8|6,1:2|0:0|1:2,0:0:0:0:
401,313,106701,1,6,1:2:0:0:
357,301,106894,1,4,1:2:0:0:
313,290,107088,6,0,P|263:300|217:264,1,112,6|8,1:2|0:0,0:0:0:0:
186,296,107668,2,0,L|189:184,1,112,2|0,0:0|0:0,0:0:0:0:
191,139,108249,1,10,0:0:0:0:
87,180,108636,1,2,1:2:0:0:
21,96,109023,1,8,0:0:0:0:
21,96,109217,1,2,0:0:0:0:
81,0,109604,1,0,0:0:0:0:
81,0,109797,2,0,L|139:0,1,56,2|0,1:2|1:2,0:0:0:0:
153,40,110185,5,6,1:2:0:0:
258,2,110572,1,0,1:2:0:0:
367,27,110959,1,0,1:2:0:0:
423,123,111346,1,0,1:2:0:0:
414,234,111733,2,0,L|475:223,2,56,0|2|0,1:2|0:0|1:2,0:0:0:0:
307,200,112507,2,0,L|304:259,1,56,0|2,1:2|0:0,0:0:0:0:
259,261,112894,2,0,L|256:320,1,56,0|2,1:2|0:0,0:0:0:0:
227,351,113281,6,0,P|183:319|125:328,1,112,10|8,3:2|3:3,0:0:0:0:
95,356,113862,2,0,L|85:244,1,112,0|0,1:2|1:2,0:0:0:0:
81,199,114443,1,4,3:3:0:0:
77,154,114636,1,4,3:3:0:0:
256,192,114733,12,0,117927,2:0:0:0:
