osu file format v14

[General]
AudioFilename: audio.mp3
AudioLeadIn: 0
PreviewTime: 87626
Countdown: 0
SampleSet: Soft
StackLeniency: 0.4
Mode: 0
LetterboxInBreaks: 0
WidescreenStoryboard: 0

[Editor]
DistanceSpacing: 0.8
BeatDivisor: 4
GridSize: 8
TimelineZoom: 1.4

[Metadata]
Title:8th:Planet ~Re:search~
TitleUnicode:8th:Planet ~Re:search~
Artist:P4koo
ArtistUnicode:P4koo
Creator:Niva
Version:Chapter 1 : We Are Beyond Human
Source:MUSYNX
Tags:osu! featured artist fa mappers' guild mpg electronic instrumental 8thplanet research [re-search] bms ノンジャンル2 nongenre2 non-genre unlimited fighters space techno melodic trance musync
BeatmapID:2687876
BeatmapSetID:1295410

[Difficulty]
HPDrainRate:6
CircleSize:4
OverallDifficulty:8
ApproachRate:8
SliderMultiplier:1.4
SliderTickRate:1

[Events]
//Background and Video events
0,0,"teknologi.jpg",0,0
//Break Periods
//Storyboard Layer 0 (Background)
//Storyboard Layer 1 (Fail)
//Storyboard Layer 2 (Pass)
//Storyboard Layer 3 (Foreground)
//Storyboard Layer 4 (Overlay)
//Storyboard Sound Samples

[TimingPoints]
249,387.096774193548,4,2,77,50,1,0
1216,-333.333333333333,4,2,77,50,0,0
1603,-333.333333333333,4,2,77,5,0,0
1798,387.096774193548,4,2,77,50,1,0
1798,-125,4,2,77,50,0,0
9927,-333.333333333333,4,2,77,50,0,0
10120,-333.333333333333,4,2,77,5,0,0
10314,-333.333333333333,4,2,77,50,0,0
11088,-125,4,2,77,50,0,0
12636,-125,4,2,77,85,0,0
13797,-74.0740740740741,4,2,77,85,0,0
14088,-74.0740740740741,4,2,77,5,0,0
14185,-74.0740740740741,4,2,79,85,0,1
19604,-74.0740740740741,4,2,79,95,0,1
20378,-74.0740740740741,4,2,79,85,0,1
26475,-74.0740740740741,4,2,79,5,0,1
26572,-83.3333333333333,4,2,79,75,0,0
32668,-83.3333333333333,4,2,79,5,0,0
32765,-83.3333333333333,4,2,79,75,0,0
38185,-66.6666666666667,4,2,79,85,0,0
38959,-74.0740740740741,4,2,79,85,0,1
51346,-125,4,2,79,85,0,0
51443,-125,4,2,79,65,0,0
61023,-125,4,2,79,70,0,0
61410,-125,4,2,79,75,0,0
61797,-125,4,2,79,80,0,0
62185,-166.666666666667,4,2,79,60,0,0
62862,-166.666666666667,4,2,79,5,0,0
62959,-125,4,2,79,50,0,0
63152,-125,4,2,79,60,0,0
63346,-125,4,2,79,70,0,0
63539,-100,4,2,79,80,0,0
63733,-74.0740740740741,4,2,79,85,0,1
75346,-74.0740740740741,4,2,79,95,0,1
76023,-74.0740740740741,4,2,79,95,0,0
76120,-74.0740740740741,4,2,79,85,0,1
81539,-74.0740740740741,4,2,79,95,0,1
82314,-74.0740740740741,4,2,79,85,0,1
86378,-66.6666666666667,4,2,79,85,0,1
86572,-57.1428571428571,4,2,79,85,0,1
86765,-50,4,2,79,85,0,1
86959,-166.666666666667,4,2,79,60,0,0
87636,-166.666666666667,4,2,79,5,0,0
87830,-83.3333333333333,4,2,79,60,0,0
88410,-83.3333333333333,4,2,79,30,0,0
88507,-74.0740740740741,4,2,79,80,0,1
100797,-74.0740740740741,4,2,79,80,0,0
100894,-74.0740740740741,4,2,79,80,0,1
110185,-74.0740740740741,4,2,79,80,0,0
111733,-250,4,2,79,80,0,0
112120,-142.857142857143,4,2,79,80,0,0
112507,-100,4,2,79,80,0,0
112894,-76.9230769230769,4,2,79,80,0,0
113765,-76.9230769230769,4,2,79,5,0,0
113862,-76.9230769230769,4,2,79,80,0,0
114346,-76.9230769230769,4,2,79,5,0,0
114443,-76.9230769230769,4,2,79,80,0,0
115023,-76.9230769230769,4,2,79,75,0,0
115217,-76.9230769230769,4,2,79,70,0,0
115410,-76.9230769230769,4,2,79,65,0,0
115604,-76.9230769230769,4,2,79,60,0,0
115797,-76.9230769230769,4,2,79,55,0,0
115991,-76.9230769230769,4,2,79,50,0,0
116185,-76.9230769230769,4,2,79,45,0,0
116378,-76.9230769230769,4,2,79,40,0,0
116572,-76.9230769230769,4,2,79,35,0,0
116765,-76.9230769230769,4,2,79,30,0,0
116959,-76.9230769230769,4,2,79,25,0,0
117152,-76.9230769230769,4,2,79,20,0,0
117346,-76.9230769230769,4,2,79,15,0,0
117539,-76.9230769230769,4,2,79,10,0,0
117733,-76.9230769230769,4,2,79,5,0,0
117927,-76.9230769230769,4,2,79,5,0,0

[Colours]
Combo1 : 17,254,176
Combo2 : 173,255,95
Combo3 : 255,88,100
Combo4 : 255,94,55

[HitObjects]
415,80,1217,6,0,P|400:67|414:55,1,41.9999987182618,2|0,0:0|0:0,0:0:0:0:
465,172,1798,6,0,P|405:123|316:134,1,168,4|0,1:2|0:0,0:0:0:0:
256,65,2572,5,8,0:0:0:0:
256,51,2959,1,8,0:0:0:0:
256,161,4120,5,8,0:0:0:0:
256,147,4507,1,8,0:0:0:0:
256,249,5668,5,8,0:0:0:0:
256,235,6055,1,8,0:0:0:0:
256,323,7217,5,8,0:0:0:0:
256,309,7604,1,8,0:0:0:0:
360,384,7991,6,0,B|383:380|397:364|397:364|410:345|428:345|437:364|430:381|412:381|397:364|397:364|382:348|359:344,1,168,0|0,1:2|1:2,0:0:0:0:
256,309,8765,5,8,0:0:0:0:
256,323,9152,1,8,0:0:0:0:
164,244,9927,2,0,L|140:244,1,20.9999993591309,0|0,1:2|0:0,0:0:0:0:
256,235,10314,5,8,0:0:0:0:
256,249,10701,1,8,0:0:0:0:
350,155,11088,2,0,P|426:147|432:63,1,168,0|0,1:2|1:2,0:0:0:0:
256,161,11862,5,8,0:0:0:0:
256,147,12249,1,8,0:0:0:0:
243,246,12443,1,8,0:0:0:0:
227,352,12636,5,8,0:3:0:0:
198,325,12733,1,8,0:3:0:0:
158,320,12830,1,8,0:3:0:0:
121,333,12927,1,8,0:3:0:0:
100,366,13023,1,8,0:3:0:0:
16,211,13217,5,0,1:2:0:0:
48,203,13314,1,0,1:2:0:0:
80,195,13410,1,0,1:2:0:0:
112,187,13507,1,0,1:2:0:0:
145,180,13604,1,0,1:2:0:0:
221,50,13797,5,4,3:0:0:0:
188,42,13894,1,4,3:0:0:0:
155,34,13991,2,0,L|202:22,1,47.2500001802444,4|0,3:0|0:0,0:0:0:0:
387,189,14185,6,0,P|337:144|267:152,1,141.750000540733,4|2,1:2|0:0,0:0:0:0:
267,151,14572,1,8,0:0:0:0:
365,21,14765,1,2,0:0:0:0:
500,99,14959,1,2,1:2:0:0:
498,117,15056,1,0,0:0:0:0:
496,135,15152,1,0,0:0:0:0:
494,153,15249,1,0,0:0:0:0:
492,171,15346,2,0,L|546:170,3,47.2500001802444,10|0|2|0,0:0|0:0|0:0|0:0,0:0:0:0:
438,254,15733,6,0,B|372:254|372:254|345:280|302:267,1,141.750000540733,0|2,1:2|0:0,0:0:0:0:
301,266,16120,1,8,0:0:0:0:
207,384,16314,1,2,0:0:0:0:
148,242,16507,1,2,1:2:0:0:
151,223,16604,1,0,0:0:0:0:
155,204,16701,1,0,0:0:0:0:
158,185,16797,1,0,0:0:0:0:
161,166,16894,2,0,L|138:122,3,47.2500001802444,10|0|2|0,0:0|0:0|0:0|0:0,0:0:0:0:
164,305,17281,6,0,P|207:254|283:257,1,141.750000540733,0|2,1:2|0:0,0:0:0:0:
277,254,17668,1,8,0:0:0:0:
401,154,17862,1,2,0:0:0:0:
282,37,18056,1,2,1:2:0:0:
283,55,18152,1,0,0:0:0:0:
285,73,18249,1,0,0:0:0:0:
286,91,18346,1,0,0:0:0:0:
288,109,18443,2,0,L|294:164,3,47.2500001802444,10|0|2|0,0:0|0:0|0:0|0:0,0:0:0:0:
372,212,18830,6,0,L|413:190,1,47.2500001802444,2|0,1:2|0:0,0:0:0:0:
192,218,19023,2,0,L|237:231,1,47.2500001802444,2|0,0:0|0:0,0:0:0:0:
322,377,19217,2,0,P|261:345|191:355,1,141.750000540733,12|0,0:0|0:0,0:0:0:0:
112,317,19604,5,2,1:2:0:0:
94,324,19701,1,2,0:0:0:0:
76,330,19797,1,2,0:0:0:0:
58,336,19894,1,2,1:2:0:0:
45,355,19991,6,0,L|29:305,1,47.2500001802444,0|0,1:2|1:2,0:2:0:0:
139,178,20185,2,0,L|131:225,1,47.2500001802444,4|4,3:3|3:3,0:0:0:0:
256,322,20378,6,0,P|325:331|367:279,1,141.750000540733,4|2,1:2|0:0,0:0:0:0:
366,279,20765,1,8,0:0:0:0:
239,214,20959,1,2,0:0:0:0:
109,148,21152,1,2,1:2:0:0:
126,140,21249,1,0,0:0:0:0:
143,133,21346,1,0,0:0:0:0:
160,126,21443,1,0,0:0:0:0:
177,119,21539,2,0,P|161:104|179:91,3,47.2500001802444,10|0|2|0,0:0|0:0|0:0|0:0,0:0:0:0:
239,214,21927,6,0,B|290:193|290:193|319:200|319:200|372:178,1,141.750000540733,0|2,1:2|0:0,0:0:0:0:
371,178,22314,1,8,0:0:0:0:
498,270,22507,1,2,0:0:0:0:
512,117,22701,1,2,1:2:0:0:
509,98,22797,1,0,0:0:0:0:
506,79,22894,1,0,0:0:0:0:
503,60,22991,1,0,0:0:0:0:
499,41,23088,2,0,P|518:54|536:37,3,47.2500001802444,10|0|2|0,0:0|0:0|0:0|0:0,0:0:0:0:
512,180,23475,6,0,P|463:135|392:141,1,141.750000540733,0|2,1:2|0:0,0:0:0:0:
391,141,23862,1,8,0:0:0:0:
238,72,24056,1,2,0:0:0:0:
255,246,24249,1,2,1:2:0:0:
261,228,24346,1,0,0:0:0:0:
268,210,24443,1,0,0:0:0:0:
276,193,24539,1,0,0:0:0:0:
284,175,24636,2,0,L|222:175,1,47.2500001802444,10|0,0:0|0:0,0:0:0:0:
145,140,24830,2,0,L|116:197,1,47.2500001802444,2|0,1:2|0:0,0:0:0:0:
39,296,25023,5,8,3:0:0:0:
72,277,25120,1,8,3:0:0:0:
109,279,25217,1,8,3:0:0:0:
138,302,25314,1,8,3:0:0:0:
151,337,25410,1,8,3:0:0:0:
255,206,25604,5,0,1:2:0:0:
255,216,25701,1,0,1:2:0:0:
255,226,25798,1,2,1:2:0:0:
255,236,25894,1,0,1:2:0:0:
255,246,25991,1,2,1:2:0:0:
403,279,26185,5,4,3:0:0:0:
374,302,26282,1,4,3:0:0:0:
361,337,26378,2,0,L|410:336,1,47.2500001802444,4|0,3:0|0:0,0:0:0:0:
246,365,26572,6,0,P|197:329|136:337,1,125.999996154785,6|0,1:2|0:0,0:0:0:0:
135,337,26959,1,8,0:0:0:0:
65,237,27152,2,0,B|94:199|82:159|82:159|94:199|144:217,1,167.999994873047,2|0,0:0|0:0,0:0:0:0:
135,337,27733,1,8,0:0:0:0:
11,182,27927,1,2,0:0:0:0:
11,182,28023,1,2,0:0:0:0:
11,182,28120,6,0,P|91:190|152:129,1,167.999994873047,2|8,1:2|0:0,0:0:0:0:
263,168,28701,1,0,0:0:0:0:
374,204,28894,2,0,B|392:166|392:166|370:129,1,83.9999974365235,0|0,1:2|0:0,0:0:0:0:
263,168,29281,1,8,0:0:0:0:
152,206,29475,1,2,0:0:0:0:
136,212,29572,1,2,0:0:0:0:
121,219,29668,6,0,P|154:269|214:262,1,125.999996154785,2|0,1:2|0:0,0:0:0:0:
213,262,30056,1,8,0:0:0:0:
369,177,30249,2,0,L|334:346,1,167.999994873047,2|0,0:0|0:0,0:0:0:0:
256,270,30830,1,8,0:0:0:0:
463,223,31023,1,2,0:0:0:0:
463,223,31120,1,2,0:0:0:0:
463,223,31217,6,0,P|529:204|533:145,2,125.999996154785,2|2|2,1:2|0:0|0:0,0:0:0:0:
488,335,31991,5,2,1:2:0:0:
307,300,32281,1,2,0:0:0:0:
126,264,32572,2,0,L|171:258,1,41.9999987182618,2|0,1:2|0:0,0:0:0:0:
163,343,32765,6,0,P|114:306|46:315,1,125.999996154785,2|0,1:2|0:0,0:0:0:0:
52,311,33152,1,8,0:0:0:0:
18,172,33346,2,0,B|-11:55|-11:55|3:72|25:86,1,167.999994873047,2|0,0:0|0:0,0:0:0:0:
17,206,33927,1,8,0:0:0:0:
6,330,34120,1,2,0:0:0:0:
4,346,34217,1,2,0:0:0:0:
2,362,34314,6,0,B|56:362|56:362|70:372|70:372|132:372,1,125.999996154785,2|0,1:2|0:0,0:0:0:0:
124,372,34701,1,8,0:0:0:0:
176,288,34894,1,0,0:0:0:0:
268,235,35088,2,0,B|254:217|254:217|258:198|258:198|271:215|271:215|268:235,1,83.9999974365235,0|0,1:2|0:0,0:0:0:0:
377,243,35475,1,8,0:0:0:0:
474,294,35668,1,2,0:0:0:0:
480,302,35765,1,2,0:0:0:0:
487,310,35862,6,0,P|515:260|480:207,1,125.999996154785,2|2,1:2|0:0,0:0:0:0:
480,207,36249,1,8,0:0:0:0:
377,358,36443,2,0,B|297:345|297:345|266:371|215:357,1,167.999994873047,2|2,0:0|0:0,0:0:0:0:
86,121,37217,1,2,0:0:0:0:
86,121,37410,6,0,B|135:105|135:105|157:112|157:112|210:94,2,125.999996154785,2|2|2,1:2|0:0|0:0,0:0:0:0:
52,265,38185,6,0,P|101:255|144:284,1,105.000004005432,6|0,1:2|0:0,0:0:0:0:
144,284,38475,2,0,L|123:235,1,52.5000020027161,4|0,1:2|0:0,0:0:0:0:
315,263,38765,1,4,1:2:0:0:
322,279,38862,1,4,1:2:0:0:
331,295,38959,5,6,1:2:0:0:
367,309,39055,1,0,0:0:0:0:
406,306,39152,1,0,0:0:0:0:
439,284,39249,1,2,0:0:0:0:
458,249,39346,1,8,0:0:0:0:
458,210,39442,1,0,0:0:0:0:
440,175,39539,1,2,0:0:0:0:
407,153,39636,1,0,0:0:0:0:
368,145,39733,6,0,L|381:93,3,47.2500001802444,2|0|0|0,1:2|0:0|0:0|0:0,0:0:0:0:
266,221,40120,2,0,L|215:221,3,47.2500001802444,10|0|2|0,0:0|0:0|0:0|0:0,0:0:0:0:
406,281,40507,6,0,B|406:268|416:260|429:257|440:267|443:279|441:291|433:298|419:299|406:293|406:281,1,94.5000003604889,2|0,1:2|0:0,0:0:0:0:
356,203,40797,2,0,B|344:199|339:186|340:173|353:166|365:167|376:172|380:182|377:195|368:205|356:203,1,94.5000003604889,2|0,0:0|0:0,0:0:0:0:
266,221,41088,2,0,B|258:230|245:231|232:226|230:212|234:200|243:191|254:191|265:198|272:210|266:221,1,94.5000003604889,2|0,0:0|1:2,0:0:0:0:
260,314,41378,2,0,B|267:323|263:337|254:347|240:345|231:337|225:326|228:316|238:307|251:304|260:314,1,94.5000003604889,2|0,0:0|0:0,0:0:0:0:
347,352,41668,2,0,B|358:347|370:355|376:367|370:380|360:386|347:388|338:382|332:370|334:356|347:352,1,94.5000003604889,10|2,0:0|0:0,0:0:0:0:
427,192,42056,5,2,1:2:0:0:
388,181,42152,1,0,0:0:0:0:
348,170,42249,1,0,0:0:0:0:
308,159,42346,1,2,0:0:0:0:
278,130,42443,1,8,0:0:0:0:
266,168,42539,1,0,0:0:0:0:
228,183,42636,1,2,0:0:0:0:
187,178,42733,1,0,0:0:0:0:
157,150,42830,6,0,L|106:140,3,47.2500001802444,2|0|0|0,1:2|0:0|0:0|0:0,0:0:0:0:
44,269,43217,2,0,L|90:260,3,47.2500001802444,10|0|2|2,0:0|0:0|0:0|0:0,0:0:0:0:
170,349,43604,6,0,P|216:352|251:321,1,94.5000003604889,2|0,1:2|0:0,0:0:0:0:
217,322,43894,2,0,P|251:352|297:349,1,94.5000003604889,2|0,0:0|0:0,0:0:0:0:
386,384,44185,2,0,P|425:360|436:316,1,94.5000003604889,2|2,0:0|1:2,0:0:0:0:
497,242,44475,2,0,P|487:197|448:173,1,94.5000003604889,2|0,0:0|0:0,0:0:0:0:
376,107,44765,2,0,B|384:96|376:85|376:85|368:96|376:107,1,47.2500001802444,10|0,0:0|0:0,0:0:0:0:
325,205,44959,1,0,1:2:0:0:
325,218,45056,1,0,1:2:0:0:
325,232,45152,5,6,1:2:0:0:
291,254,45248,1,0,0:0:0:0:
252,262,45345,1,0,0:0:0:0:
212,255,45442,1,2,0:0:0:0:
178,233,45539,1,8,0:0:0:0:
155,200,45635,1,0,0:0:0:0:
146,161,45732,1,2,0:0:0:0:
153,121,45829,1,0,0:0:0:0:
166,82,45927,6,0,L|148:37,3,47.2500001802444,2|0|0|0,1:2|0:0|0:0|0:0,0:0:0:0:
282,158,46314,2,0,L|329:164,3,47.2500001802444,10|0|2|0,0:0|0:0|0:0|0:0,0:0:0:0:
157,223,46701,6,0,B|155:247|155:247|137:261|137:261|138:238|138:238|157:223,1,94.5000003604889,2|0,1:2|0:0,0:0:0:0:
108,146,46991,2,0,B|84:151|84:151|65:138|65:138|87:132|87:132|108:146,1,94.5000003604889,2|0,0:0|0:0,0:0:0:0:
166,75,47281,2,0,B|153:54|153:54|159:32|159:32|172:51|172:51|166:75,1,94.5000003604889,2|0,0:0|1:2,0:0:0:0:
249,108,47572,2,0,B|264:89|264:89|287:89|287:89|273:107|273:107|249:108,1,94.5000003604889,2|0,0:0|0:0,0:0:0:0:
244,200,47862,2,0,L|276:235,1,47.2500001802444,10|0,0:0|0:0,0:0:0:0:
359,321,48056,1,2,1:2:0:0:
364,310,48152,1,2,1:2:0:0:
369,299,48249,5,2,1:2:0:0:
330,310,48345,1,0,0:0:0:0:
291,322,48442,1,0,0:0:0:0:
252,333,48539,1,2,0:0:0:0:
226,364,48636,1,8,0:0:0:0:
203,330,48732,1,0,0:0:0:0:
163,320,48829,1,2,0:0:0:0:
123,328,48926,1,0,0:0:0:0:
92,355,49023,6,0,L|74:309,3,47.2500001802444,2|0|2|2,1:2|0:0|0:0|0:0,0:0:0:0:
190,228,49410,2,0,L|199:178,3,47.2500001802444,10|0|2|0,0:0|0:0|0:0|0:0,0:0:0:0:
327,305,49797,6,0,P|361:293|326:280,1,94.5000003604889,2|0,1:2|0:0,0:0:0:0:
303,384,50088,2,0,P|354:341|427:351,1,141.750000540733,2|2,0:0|0:0,0:0:0:0:
480,192,50572,5,0,1:2:0:0:
377,242,50765,1,2,0:2:0:0:
298,162,50959,1,0,1:2:0:0:
349,61,51152,1,0,1:2:0:0:
461,79,51346,5,4,1:2:0:0:
324,94,51733,1,0,1:2:0:0:
235,196,52120,1,0,1:2:0:0:
246,332,52507,1,0,1:2:0:0:
461,79,52894,6,0,L|444:144,1,56,0|2,1:2|0:0,0:0:0:0:
324,94,53281,2,0,L|357:151,1,56,0|2,1:2|0:0,0:0:0:0:
235,196,53668,2,0,L|299:213,1,56,0|2,1:2|0:0,0:0:0:0:
246,332,54055,2,0,L|303:298,1,56,0|2,1:2|0:0,0:0:0:0:
396,253,54443,5,0,1:2:0:0:
284,255,54830,1,0,1:2:0:0:
172,257,55217,1,0,1:2:0:0:
60,259,55604,1,0,1:2:0:0:
396,253,55991,6,0,P|375:241|396:232,1,56,0|2,1:2|0:0,0:0:0:0:
284,268,56378,2,0,B|273:240|273:240|286:210,1,56,0|2,1:2|0:0,0:0:0:0:
178,257,56765,2,0,P|157:245|178:236,1,56,0|2,1:2|0:0,0:0:0:0:
64,250,57152,1,0,1:2:0:0:
52,250,57249,1,0,1:2:0:0:
40,250,57346,1,0,1:2:0:0:
28,250,57443,1,0,1:2:0:0:
16,250,57539,6,0,L|72:220,1,56,0|2,1:2|0:0,0:0:0:0:
118,322,57927,2,0,P|173:315|198:266,1,112,0|0,1:2|1:2,0:0:0:0:
156,183,58507,1,2,0:0:0:0:
115,96,58701,2,0,B|104:71|104:71|114:44,1,56,0|2,1:2|0:0,0:0:0:0:
39,181,59088,6,0,L|-14:199,1,56,0|2,1:2|0:0,0:0:0:0:
117,240,59475,2,0,L|222:202,1,112,0|0,1:2|1:2,0:0:0:0:
313,172,60056,1,2,0:0:0:0:
392,226,60249,2,0,P|400:252|393:279,1,56,0|2,1:2|0:0,0:0:0:0:
212,331,60636,5,0,1:2:0:0:
295,379,60830,1,0,1:2:0:0:
303,272,61023,5,0,1:2:0:0:
212,331,61217,1,0,1:2:0:0:
198,213,61410,5,0,1:2:0:0:
303,272,61604,1,0,1:2:0:0:
308,143,61797,5,0,1:2:0:0:
198,213,61991,1,0,1:2:0:0:
256,352,62185,6,0,P|305:310|385:321,1,146.999995513916,2|0,3:0|0:0,0:0:0:0:
406,341,62959,5,0,1:2:0:0:
404,328,63056,1,0,1:2:0:0:
404,315,63152,1,0,1:2:0:0:
403,302,63249,1,0,1:2:0:0:
402,289,63346,6,0,L|399:249,1,28,2|0,1:2|1:2,0:0:0:0:
479,187,63539,6,0,L|440:157,1,35,2|2,1:2|1:2,0:0:0:0:
479,52,63733,5,6,1:2:0:0:
452,49,63829,1,0,0:0:0:0:
425,47,63926,1,0,0:0:0:0:
398,44,64023,1,2,0:0:0:0:
371,42,64120,1,8,0:0:0:0:
344,40,64216,1,0,0:0:0:0:
317,37,64313,1,2,0:0:0:0:
290,35,64410,1,0,0:0:0:0:
264,58,64507,6,0,L|259:12,3,47.2500001802444,2|0|2|2,1:2|0:0|0:0|0:0,0:0:0:0:
167,134,64894,2,0,L|118:113,3,47.2500001802444,10|2|2|0,0:0|0:0|0:0|0:0,0:0:0:0:
264,237,65281,5,2,1:2:0:0:
232,229,65377,1,0,0:0:0:0:
201,231,65474,1,0,0:0:0:0:
172,241,65571,1,2,0:0:0:0:
146,258,65668,1,8,0:0:0:0:
125,282,65764,1,0,0:0:0:0:
113,311,65861,1,2,0:0:0:0:
109,342,65958,1,0,0:0:0:0:
136,364,66056,5,2,1:2:0:0:
130,323,66152,1,2,0:0:0:0:
125,282,66249,1,2,0:0:0:0:
120,241,66346,1,2,0:0:0:0:
114,200,66443,2,0,L|107:153,1,47.2500001802444,10|0,0:0|0:0,0:0:0:0:
249,128,66636,2,0,L|229:179,1,47.2500001802444,2|0,0:0|0:0,0:0:0:0:
323,246,66830,5,2,1:2:0:0:
346,240,66926,1,0,0:0:0:0:
370,234,67023,1,0,0:0:0:0:
393,229,67120,1,2,0:0:0:0:
417,223,67217,1,8,0:0:0:0:
440,218,67313,1,0,0:0:0:0:
464,212,67410,1,2,0:0:0:0:
488,207,67507,1,0,0:0:0:0:
512,203,67604,6,0,L|454:172,3,47.2500001802444,2|0|2|2,1:2|0:0|0:0|0:0,0:0:0:0:
322,245,67991,2,0,L|364:268,3,47.2500001802444,10|2|2|0,0:0|0:0|0:0|0:0,0:0:0:0:
234,350,68378,5,2,1:2:0:0:
222,322,68474,1,0,0:0:0:0:
203,300,68571,1,0,0:0:0:0:
179,283,68668,1,2,0:0:0:0:
151,273,68765,1,8,0:0:0:0:
122,271,68861,1,0,0:0:0:0:
93,277,68958,1,2,0:0:0:0:
67,291,69055,1,0,0:0:0:0:
45,270,69152,6,0,L|86:245,1,47.2500001802444,2|2,1:2|0:0,0:0:0:0:
180,186,69346,2,0,L|221:161,1,47.2500001802444,2|0,0:0|0:0,0:0:0:0:
181,161,69539,6,0,L|222:186,1,47.2500001802444,10|2,0:0|0:0,0:0:0:0:
316,245,69733,2,0,L|357:270,1,47.2500001802444,2|0,1:2|0:0,0:0:0:0:
445,177,69927,5,2,1:2:0:0:
468,162,70023,1,0,0:0:0:0:
486,142,70120,1,0,0:0:0:0:
496,116,70217,1,2,0:0:0:0:
495,88,70314,1,8,0:0:0:0:
485,62,70410,1,0,0:0:0:0:
468,42,70507,1,2,0:0:0:0:
442,30,70604,1,0,0:0:0:0:
414,25,70701,6,0,L|437:-18,3,47.2500001802444,2|0|2|2,1:2|0:0|0:0|0:0,0:0:0:0:
313,97,71088,2,0,L|266:97,3,47.2500001802444,10|2|2|0,0:0|0:0|0:0|0:0,0:0:0:0:
414,167,71475,5,2,1:2:0:0:
424,191,71571,1,0,0:0:0:0:
434,216,71668,1,0,0:0:0:0:
445,241,71765,1,2,0:0:0:0:
455,266,71862,1,8,0:0:0:0:
465,291,71958,1,0,0:0:0:0:
476,316,72055,1,2,0:0:0:0:
486,341,72152,1,0,0:0:0:0:
497,365,72249,5,2,1:2:0:0:
463,383,72346,1,2,0:0:0:0:
419,384,72443,1,2,0:0:0:0:
385,361,72539,1,2,0:0:0:0:
373,321,72636,2,0,L|410:288,1,47.2500001802444,10|0,0:0|0:0,0:0:0:0:
255,267,72830,2,0,L|263:218,1,47.2500001802444,2|0,0:0|0:0,0:0:0:0:
127,282,73023,5,2,1:2:0:0:
119,254,73119,1,0,0:0:0:0:
112,227,73216,1,0,0:0:0:0:
104,199,73313,1,2,0:0:0:0:
97,172,73410,1,8,0:0:0:0:
89,145,73506,1,0,0:0:0:0:
82,117,73603,1,2,0:0:0:0:
74,90,73700,1,0,0:0:0:0:
97,63,73797,6,0,L|33:54,3,47.2500001802444,2|0|2|2,1:2|0:0|0:0|0:0,0:0:0:0:
216,1,74185,2,0,L|273:9,3,47.2500001802444,10|0|2|0,0:0|0:0|0:0|0:0,0:0:0:0:
310,137,74572,5,2,1:2:0:0:
266,144,74668,1,0,0:0:0:0:
236,174,74765,1,0,0:0:0:0:
226,217,74862,1,2,0:0:0:0:
242,258,74959,1,8,0:0:0:0:
277,283,75055,1,0,0:0:0:0:
320,284,75152,1,2,0:0:0:0:
357,262,75249,1,0,0:0:0:0:
301,212,75346,6,0,B|239:212|239:212|225:220|225:220|162:220,1,141.750000540733,2|2,1:2|1:2,0:0:0:0:
77,256,75733,5,2,1:2:0:0:
38,238,75830,1,0,1:2:0:0:
0,218,75927,1,2,1:2:0:0:
39,202,76023,1,2,1:2:0:0:
78,186,76120,6,0,P|22:163|12:83,1,141.750000540733,6|2,1:2|0:0,0:0:0:0:
9,89,76507,1,8,0:0:0:0:
149,0,76701,1,2,0:0:0:0:
241,138,76894,1,2,1:2:0:0:
259,132,76991,1,0,0:0:0:0:
277,127,77088,1,0,0:0:0:0:
295,121,77185,1,0,0:0:0:0:
313,117,77281,2,0,L|261:93,3,47.2500001802444,10|0|2|0,0:0|0:0|0:0|0:0,0:0:0:0:
271,257,77668,6,0,P|323:219|396:228,1,141.750000540733,0|2,1:2|0:0,0:0:0:0:
396,228,78056,1,8,0:0:0:0:
313,117,78249,1,2,0:0:0:0:
171,102,78443,1,2,1:2:0:0:
152,104,78539,1,0,0:0:0:0:
133,107,78636,1,0,0:0:0:0:
114,110,78733,1,0,0:0:0:0:
95,113,78830,2,0,L|117:70,3,47.2500001802444,10|0|2|0,0:0|0:0|0:0|0:0,0:0:0:0:
40,234,79217,6,0,B|84:246|114:222|114:222|177:222,1,141.750000540733,0|2,1:2|0:0,0:0:0:0:
177,222,79604,1,8,0:0:0:0:
256,371,79797,1,2,0:0:0:0:
334,222,79991,1,2,1:2:0:0:
332,203,80088,1,0,0:0:0:0:
330,184,80185,1,0,0:0:0:0:
328,165,80281,1,0,0:0:0:0:
326,146,80378,2,0,L|321:97,3,47.2500001802444,10|0|2|0,0:0|0:0|0:0|0:0,0:0:0:0:
177,222,80765,6,0,L|231:241,1,47.2500001802444,2|0,1:2|0:0,0:0:0:0:
384,296,80959,2,0,L|339:279,1,47.2500001802444,2|0,0:0|0:0,0:0:0:0:
125,374,81152,2,0,P|175:337|251:349,1,141.750000540733,12|0,0:0|0:0,0:0:0:0:
339,279,81539,5,2,1:2:0:0:
321,273,81636,1,2,0:0:0:0:
302,267,81733,1,2,0:0:0:0:
283,261,81830,1,2,0:0:0:0:
264,255,81927,6,0,B|253:232|253:232|263:207,1,47.2500001802444,0|0,1:2|1:2,0:0:0:0:
351,119,82120,2,0,P|369:128|351:137,1,47.2500001802444,4|4,3:0|3:3,0:0:0:0:
219,67,82314,6,0,B|162:49|162:49|138:58|138:58|84:43,1,141.750000540733,4|2,1:2|0:0,0:0:0:0:
83,42,82701,1,8,0:0:0:0:
0,175,82894,1,2,0:0:0:0:
89,302,83088,1,2,1:2:0:0:
107,298,83185,1,0,0:0:0:0:
125,294,83281,1,0,0:0:0:0:
143,290,83378,1,0,0:0:0:0:
161,286,83475,2,0,P|145:271|162:257,3,47.2500001802444,10|0|2|0,0:0|0:0|0:0|0:0,0:0:0:0:
256,372,83862,6,0,P|305:330|377:342,1,141.750000540733,0|2,1:2|0:0,0:0:0:0:
376,341,84249,1,8,0:0:0:0:
277,214,84443,1,2,0:2:0:0:
132,273,84636,1,2,1:2:0:0:
113,273,84733,1,0,0:0:0:0:
94,273,84830,1,0,0:0:0:0:
75,273,84927,1,0,0:0:0:0:
56,273,85023,2,0,P|42:289|30:272,3,47.2500001802444,10|0|2|0,0:0|0:0|0:0|0:0,0:0:0:0:
196,359,85410,6,0,L|344:336,1,141.750000540733,0|2,1:2|0:0,0:0:0:0:
336,337,85797,1,8,0:0:0:0:
201,254,85991,1,2,0:0:0:0:
65,176,86185,6,0,B|54:184|43:176|43:176|54:170|65:176,1,47.2500001802444,2|0,1:2|0:0,0:0:0:0:
112,86,86378,6,0,B|97:83|95:68|95:68|108:72|112:86,1,52.5000020027161,0|0,1:2|0:0,0:0:0:0:
216,49,86572,6,0,B|202:37|208:21|208:21|219:33|216:49,1,61.2500005841255,14|0,0:0|0:0,0:0:0:0:
335,56,86765,6,0,B|328:36|344:24|344:24|346:41|335:56,1,70,6|0,1:2|0:0,0:0:0:0:
412,181,86959,6,0,B|375:195|341:173|341:173|309:152|272:168,1,146.999995513916,2|0,3:3|0:0,0:0:0:0:
240,281,87830,5,2,0:0:0:0:
250,281,87927,1,2,0:0:0:0:
255,272,88024,1,2,0:0:0:0:
250,264,88120,1,2,0:0:0:0:
240,264,88217,1,2,0:0:0:0:
235,272,88314,2,0,L|279:265,1,41.9999987182618,2|2,0:0|0:0,0:0:0:0:
280,360,88507,6,0,P|226:316|159:329,1,141.750000540733,6|0,1:2|0:0,0:0:0:0:
159,328,88894,1,8,0:0:0:0:
51,227,89088,2,0,B|23:93|23:93|40:117|60:132,1,189.000000720978,2|0,0:0|0:0,0:0:0:0:
205,169,89668,1,8,0:0:0:0:
10,308,89862,1,2,0:0:0:0:
10,308,89959,1,2,0:0:0:0:
10,308,90056,6,0,P|59:264|129:275,1,141.750000540733,2|0,1:2|0:0,0:0:0:0:
129,275,90443,1,8,0:0:0:0:
265,166,90636,2,0,B|189:140|189:140|157:150|157:150|86:126,1,189.000000720978,2|0,0:0|0:0,0:0:0:0:
305,291,91217,2,0,B|321:311|346:311|346:311|321:311|305:332,1,94.5000003604889,10|0,0:0|0:0,0:0:0:0:
422,207,91604,6,0,P|480:197|498:114,1,141.750000540733,2|0,1:2|0:0,0:0:0:0:
503,125,91991,1,8,0:0:0:0:
457,373,92185,2,0,P|395:309|307:332,1,189.000000720978,2|0,0:0|0:0,0:0:0:0:
256,205,92765,1,10,0:0:0:0:
16,328,93152,5,0,1:2:0:0:
138,262,93346,1,2,0:2:0:0:
1,242,93539,1,8,0:0:0:0:
101,338,93733,1,0,0:0:0:0:
76,202,93927,6,0,B|57:160|57:160|75:115,1,94.5000003604889,6|0,1:2|0:0,0:0:0:0:
186,129,94314,1,4,1:2:0:0:
306,142,94507,1,4,1:2:0:0:
408,265,94701,6,0,P|337:255|289:302,1,141.750000540733,6|0,1:2|0:0,0:0:0:0:
289,300,95088,1,8,0:0:0:0:
306,142,95281,2,0,B|276:28|276:28|288:12|311:17|318:35|315:50|301:55,1,189.000000720978,2|0,0:0|0:0,0:0:0:0:
173,192,95862,2,0,L|104:267,1,94.5000003604889,10|0,0:0|0:0,0:0:0:0:
352,375,96249,6,0,P|296:331|229:343,1,141.750000540733,2|0,1:2|2:2,2:2:0:0:
230,342,96636,1,8,0:0:0:0:
401,232,96830,2,0,P|492:244|536:164,1,189.000000720978,2|0,0:0|0:0,0:0:0:0:
434,62,97410,2,0,B|444:41|444:41|433:19|433:19|424:41|424:41|434:62,1,94.5000003604889,10|0,0:0|0:0,0:0:0:0:
270,128,97797,6,0,B|202:128|202:128|174:151|133:139,1,141.750000540733,2|0,1:2|0:0,0:0:0:0:
132,138,98185,1,8,0:0:0:0:
58,323,98378,2,0,P|120:264|214:286,1,189.000000720978,2|0,0:0|0:0,0:0:0:0:
337,251,98959,2,0,B|339:240|343:231|354:229|368:232|374:244|374:253|370:265|356:270|344:268|339:261|337:251,1,94.5000003604889,10|0,0:0|0:0,0:0:0:0:
148,359,99346,6,0,L|108:166,2,189.000000720978,2|8|2,1:2|0:0|1:2,0:0:0:0:
286,101,100411,1,0,1:2:0:0:
283,124,100507,1,6,1:2:0:0:
372,228,100701,1,0,1:2:0:0:
369,251,100797,1,0,1:2:0:0:
367,275,100894,6,0,P|309:237|235:249,1,141.750000540733,6|0,1:2|0:0,0:0:0:0:
240,246,101281,1,8,0:0:0:0:
113,160,101475,2,0,B|88:146|59:138|59:138|188:123,1,189.000000720978,2|0,0:0|0:0,0:0:0:0:
320,0,102056,2,0,B|342:41|342:41|321:84,1,94.5000003604889,10|0,0:0|0:0,0:0:0:0:
407,246,102443,6,0,P|474:250|513:194,1,141.750000540733,2|0,1:2|0:0,0:0:0:0:
512,193,102830,1,8,0:0:0:0:
378,342,103023,2,0,L|358:152,1,189.000000720978,2|0,0:0|0:0,0:0:0:0:
208,294,103604,2,0,B|230:280|230:255|230:255|230:280|255:294,1,94.5000003604889,10|0,0:0|0:0,0:0:0:0:
38,192,103991,6,0,P|102:175|126:102,1,141.750000540733,2|0,1:2|0:0,0:0:0:0:
127,109,104378,1,8,0:0:0:0:
0,115,104572,2,0,L|135:261,1,189.000000720978,2|0,0:0|0:0,0:0:0:0:
221,351,105152,1,10,0:0:0:0:
489,174,105539,5,0,1:2:0:0:
416,233,105733,1,2,0:0:0:0:
323,241,105927,1,8,0:0:0:0:
245,189,106120,1,0,0:2:0:0:
220,102,106314,6,0,B|207:79|220:57|220:57|233:78|220:102,1,94.5000003604889,6|0,1:2|0:0,0:0:0:0:
282,200,106701,1,6,1:2:0:0:
186,283,106894,1,4,1:2:0:0:
315,371,107088,6,0,P|370:332|439:345,1,141.750000540733,6|0,1:2|0:0,0:0:0:0:
439,345,107475,1,8,0:0:0:0:
340,216,107668,2,0,L|304:27,1,189.000000720978,2|0,0:0|0:0,0:0:0:0:
456,0,108249,2,0,P|490:8|456:16,1,94.5000003604889,10|0,0:0|0:0,0:0:0:0:
253,132,108636,6,0,B|337:109|308:146|392:123,1,141.750000540733,2|0,1:2|0:0,0:0:0:0:
392,122,109023,1,8,0:0:0:0:
504,221,109217,2,0,B|455:301|455:301|365:272,1,189.000000720978,2|0,0:0|0:0,0:0:0:0:
364,271,109701,1,0,1:2:0:0:
364,271,109797,1,2,1:2:0:0:
200,325,109991,1,0,1:2:0:0:
201,335,110088,1,0,1:2:0:0:
202,345,110185,5,6,1:2:0:0:
316,253,110572,1,0,1:2:0:0:
183,145,110959,1,0,1:2:0:0:
333,27,111346,1,0,1:2:0:0:
202,345,111733,6,0,L|202:384,1,28,0|2,1:2|0:0,0:0:0:0:
316,253,112120,6,0,L|316:305,1,48.9999985046387,0|2,1:2|0:0,0:0:0:0:
183,145,112507,6,0,L|183:221,1,70,0|2,1:2|0:0,0:0:0:0:
333,27,112894,5,0,1:2:0:0:
334,134,113088,1,2,1:2:0:0:
334,266,113281,5,10,3:2:0:0:
355,236,113378,1,8,3:3:0:0:
389,225,113475,1,8,3:3:0:0:
424,230,113572,1,8,3:3:0:0:
454,249,113668,2,0,P|470:233|453:224,1,45.4999979171754,8|0,3:3|0:0,0:0:0:0:
247,151,113862,5,0,1:2:0:0:
211,158,113959,1,0,1:2:0:0:
174,163,114056,1,0,1:2:0:0:
138,169,114152,1,0,1:2:0:0:
102,176,114249,2,0,B|90:154|90:154|101:133,1,45.4999979171754,0|0,1:2|0:0,0:0:0:0:
256,7,114443,5,4,3:3:0:0:
256,23,114539,1,4,3:3:0:0:
256,39,114636,1,4,3:3:0:0:
256,55,114733,1,4,3:3:0:0:
256,192,114830,12,0,117927,2:0:0:0:
