osu file format v14

[General]
AudioFilename: audio.mp3
AudioLeadIn: 0
PreviewTime: 87731
Countdown: 0
SampleSet: Normal
StackLeniency: 0.7
Mode: 1
LetterboxInBreaks: 0
WidescreenStoryboard: 1

[Editor]
Bookmarks: 99344
DistanceSpacing: 0.5
BeatDivisor: 4
GridSize: 32
TimelineZoom: 2.2

[Metadata]
Title:8th:Planet ~Re:search~
TitleUnicode:8th:Planet ~Re:search~
Artist:P4koo
ArtistUnicode:P4koo
Creator:HEAVENLY MOON
Version:Muzu:Kashii
Source:MUSYNX
Tags:osu! hivie featured artist fa mappers' guild mpg electronic instrumental 8thplanet research [re-search] bms ノンジャンル2 nongenre2 non-genre unlimited fighters space techno melodic trance musync ginjani
BeatmapID:4287653
BeatmapSetID:2052754

[Difficulty]
HPDrainRate:7
CircleSize:5
OverallDifficulty:5
ApproachRate:5
SliderMultiplier:1.4
SliderTickRate:1

[Events]
//Background and Video events
0,0,"wormhole-739872_1920.png",0,0
//Break Periods
//Storyboard Layer 0 (Background)
//Storyboard Layer 1 (Fail)
//Storyboard Layer 2 (Pass)
//Storyboard Layer 3 (Foreground)
//Storyboard Layer 4 (Overlay)
//Storyboard Sound Samples

[TimingPoints]
247,387.096774193548,4,1,0,60,1,0
247,-105.263157894737,4,1,0,60,0,0
1795,387.096774193548,4,1,0,60,1,8
1796,387.096774193548,4,1,0,60,1,0
1796,-105.263157894737,4,1,0,60,0,0
12537,-105.263157894737,4,1,0,80,0,0
14086,-100,4,1,0,90,0,0
51441,-105.263157894737,4,1,0,80,0,0
63731,-100,4,1,0,90,0,0
87731,-100,4,1,0,85,0,0
88505,-95.2380952380952,4,1,0,100,0,1
110183,-95.2380952380952,4,1,0,100,0,0

[HitObjects]
256,192,1796,5,0,0:0:0:0:
256,192,2570,1,2,0:0:0:0:
256,192,2957,1,2,0:0:0:0:
256,192,4118,1,2,0:0:0:0:
256,192,4505,1,2,0:0:0:0:
256,192,5666,1,0,0:0:0:0:
256,192,6054,1,0,0:0:0:0:
256,192,7215,1,0,0:0:0:0:
256,192,7602,1,0,0:0:0:0:
256,192,7989,1,0,0:0:0:0:
256,192,8570,1,0,0:0:0:0:
256,192,8763,1,2,0:0:0:0:
256,192,9150,1,2,0:0:0:0:
256,192,9925,1,0,0:0:0:0:
256,192,10312,1,2,0:0:0:0:
256,192,10699,1,2,0:0:0:0:
256,192,11086,1,2,0:0:0:0:
256,192,11666,1,2,0:0:0:0:
256,192,11860,1,0,0:0:0:0:
256,192,12247,1,0,0:0:0:0:
256,192,12634,1,2,0:0:0:0:
256,192,12731,1,2,0:0:0:0:
256,192,12828,1,2,0:0:0:0:
256,192,13021,1,2,0:0:0:0:
256,192,13408,1,2,0:0:0:0:
256,192,13505,1,2,0:0:0:0:
256,192,13602,1,2,0:0:0:0:
256,192,13795,1,2,0:0:0:0:
256,192,14183,1,4,0:0:0:0:
256,192,14570,1,2,0:0:0:0:
256,192,14763,1,2,0:0:0:0:
256,192,14957,1,0,0:0:0:0:
256,192,15054,1,0,0:0:0:0:
256,192,15150,1,0,0:0:0:0:
256,192,15344,1,2,0:0:0:0:
256,192,15731,1,0,0:0:0:0:
256,192,16118,1,2,0:0:0:0:
256,192,16312,1,2,0:0:0:0:
256,192,16505,1,0,0:0:0:0:
256,192,16699,1,0,0:0:0:0:
256,192,16892,1,2,0:0:0:0:
256,192,16989,1,2,0:0:0:0:
256,192,17086,1,2,0:0:0:0:
256,192,17279,1,0,0:0:0:0:
256,192,17666,1,2,0:0:0:0:
256,192,17860,1,0,0:0:0:0:
256,192,18054,1,0,0:0:0:0:
256,192,18150,1,0,0:0:0:0:
256,192,18247,1,0,0:0:0:0:
256,192,18441,1,2,0:0:0:0:
256,192,18634,1,2,0:0:0:0:
256,192,18828,1,0,0:0:0:0:
256,192,19215,1,2,0:0:0:0:
256,192,19408,1,0,0:0:0:0:
256,192,19602,1,2,0:0:0:0:
256,192,19699,1,2,0:0:0:0:
256,192,19795,1,2,0:0:0:0:
256,192,19989,1,0,0:0:0:0:
256,192,20183,1,2,0:0:0:0:
256,192,20376,1,4,0:0:0:0:
256,192,20763,1,0,0:0:0:0:
256,192,21150,1,2,0:0:0:0:
256,192,21537,1,0,0:0:0:0:
256,192,21634,1,0,0:0:0:0:
256,192,21731,1,0,0:0:0:0:
256,192,21925,1,2,0:0:0:0:
256,192,22312,1,2,0:0:0:0:
256,192,22505,1,0,0:0:0:0:
256,192,22699,1,2,0:0:0:0:
256,192,22892,1,0,0:0:0:0:
256,192,23086,1,2,0:0:0:0:
256,192,23183,1,2,0:0:0:0:
256,192,23279,1,2,0:0:0:0:
256,192,23473,1,0,0:0:0:0:
256,192,23860,1,2,0:0:0:0:
256,192,24054,1,2,0:0:0:0:
256,192,24247,1,0,0:0:0:0:
256,192,24441,1,0,0:0:0:0:
256,192,24634,1,2,0:0:0:0:
256,192,24731,1,2,0:0:0:0:
256,192,24828,1,2,0:0:0:0:
256,192,25021,1,0,0:0:0:0:
256,192,25215,1,0,0:0:0:0:
256,192,25408,1,0,0:0:0:0:
256,192,25795,1,2,0:0:0:0:
256,192,25989,1,2,0:0:0:0:
256,192,26183,1,0,0:0:0:0:
256,192,26570,1,6,0:0:0:0:
256,192,26957,1,0,0:0:0:0:
256,192,27150,1,2,0:0:0:0:
256,192,27537,1,0,0:0:0:0:
256,192,27925,1,0,0:0:0:0:
256,192,28118,1,2,0:0:0:0:
256,192,28505,1,2,0:0:0:0:
256,192,28892,1,0,0:0:0:0:
256,192,29279,1,2,0:0:0:0:
256,192,29473,1,0,0:0:0:0:
256,192,29570,1,0,0:0:0:0:
256,192,29666,1,0,0:0:0:0:
256,192,30054,1,2,0:0:0:0:
256,192,30247,1,0,0:0:0:0:
256,192,30634,1,0,0:0:0:0:
256,192,30828,1,2,0:0:0:0:
256,192,31021,1,2,0:0:0:0:
256,192,31118,1,2,0:0:0:0:
256,192,31215,1,2,0:0:0:0:
256,192,31505,1,2,0:0:0:0:
256,192,31795,1,0,0:0:0:0:
256,192,31989,1,2,0:0:0:0:
256,192,32279,1,0,0:0:0:0:
256,192,32570,1,2,0:0:0:0:
256,192,32763,1,0,0:0:0:0:
256,192,33150,1,2,0:0:0:0:
256,192,33344,1,2,0:0:0:0:
256,192,33731,1,0,0:0:0:0:
256,192,34118,1,0,0:0:0:0:
256,192,34312,1,2,0:0:0:0:
256,192,34699,1,2,0:0:0:0:
256,192,35086,1,0,0:0:0:0:
256,192,35473,1,2,0:0:0:0:
256,192,35666,1,2,0:0:0:0:
256,192,35763,1,2,0:0:0:0:
256,192,35860,1,2,0:0:0:0:
256,192,36150,1,2,0:0:0:0:
256,192,36441,1,0,0:0:0:0:
256,192,36828,1,0,0:0:0:0:
256,192,37215,1,2,0:0:0:0:
256,192,37408,1,2,0:0:0:0:
256,192,37602,1,0,0:0:0:0:
256,192,37795,1,0,0:0:0:0:
256,192,38183,1,6,0:0:0:0:
256,192,38957,1,6,0:0:0:0:
256,192,39344,1,2,0:0:0:0:
256,192,39537,1,0,0:0:0:0:
256,192,39731,1,0,0:0:0:0:
256,192,39925,1,2,0:0:0:0:
256,192,40118,1,2,0:0:0:0:
256,192,40505,1,2,0:0:0:0:
256,192,40892,1,0,0:0:0:0:
256,192,41279,1,2,0:0:0:0:
256,192,41666,1,0,0:0:0:0:
256,192,41860,1,2,0:0:0:0:
256,192,41957,1,2,0:0:0:0:
256,192,42054,1,2,0:0:0:0:
256,192,42441,1,2,0:0:0:0:
256,192,42634,1,2,0:0:0:0:
256,192,42828,1,0,0:0:0:0:
256,192,43021,1,0,0:0:0:0:
256,192,43215,1,2,0:0:0:0:
256,192,43408,1,0,0:0:0:0:
256,192,43505,1,0,0:0:0:0:
256,192,43602,1,0,0:0:0:0:
256,192,43989,1,2,0:0:0:0:
256,192,44376,1,2,0:0:0:0:
256,192,44473,1,2,0:0:0:0:
256,192,44570,1,2,0:0:0:0:
256,192,44763,1,2,0:0:0:0:
256,192,44957,1,0,0:0:0:0:
256,192,45150,1,6,0:0:0:0:
256,192,45537,1,2,0:0:0:0:
256,192,45925,1,2,0:0:0:0:
256,192,46118,1,0,0:0:0:0:
256,192,46312,1,2,0:0:0:0:
256,192,46505,1,2,0:0:0:0:
256,192,46699,1,2,0:0:0:0:
256,192,47086,1,0,0:0:0:0:
256,192,47473,1,2,0:0:0:0:
256,192,47860,1,2,0:0:0:0:
256,192,48054,1,0,0:0:0:0:
256,192,48150,1,0,0:0:0:0:
256,192,48247,1,0,0:0:0:0:
256,192,48634,1,0,0:0:0:0:
256,192,48828,1,2,0:0:0:0:
256,192,49021,1,0,0:0:0:0:
256,192,49215,1,2,0:0:0:0:
256,192,49312,1,2,0:0:0:0:
256,192,49408,1,2,0:0:0:0:
256,192,49602,1,0,0:0:0:0:
256,192,49795,1,2,0:0:0:0:
256,192,50183,1,2,0:0:0:0:
256,192,50279,1,2,0:0:0:0:
256,192,50376,1,2,0:0:0:0:
256,192,50570,1,0,0:0:0:0:
256,192,50763,1,0,0:0:0:0:
256,192,50957,1,2,0:0:0:0:
256,192,51054,1,2,0:0:0:0:
256,192,51150,1,2,0:0:0:0:
256,192,51344,1,4,0:0:0:0:
256,192,51731,1,0,0:0:0:0:
256,192,52118,1,0,0:0:0:0:
256,192,52505,1,0,0:0:0:0:
256,192,52892,1,0,0:0:0:0:
256,192,53279,1,0,0:0:0:0:
256,192,53666,1,0,0:0:0:0:
256,192,54054,1,0,0:0:0:0:
256,192,54441,1,0,0:0:0:0:
256,192,54828,1,0,0:0:0:0:
256,192,55215,1,0,0:0:0:0:
256,192,55602,1,0,0:0:0:0:
256,192,55989,1,0,0:0:0:0:
256,192,56376,1,0,0:0:0:0:
256,192,56763,1,0,0:0:0:0:
256,192,57150,1,2,0:0:0:0:
256,192,57247,1,2,0:0:0:0:
256,192,57344,1,2,0:0:0:0:
256,192,57537,1,0,0:0:0:0:
256,192,57925,1,0,0:0:0:0:
256,192,58312,1,0,0:0:0:0:
256,192,58699,1,0,0:0:0:0:
256,192,59086,1,0,0:0:0:0:
256,192,59473,1,0,0:0:0:0:
256,192,59860,1,0,0:0:0:0:
256,192,60247,1,0,0:0:0:0:
256,192,60634,1,0,0:0:0:0:
256,192,60828,1,0,0:0:0:0:
256,192,61021,1,0,0:0:0:0:
256,192,61408,1,2,0:0:0:0:
256,192,61602,1,2,0:0:0:0:
256,192,61795,1,2,0:0:0:0:
256,192,62183,12,0,63537,0:0:0:0:
256,192,63731,5,6,0:0:0:0:
256,192,63925,1,0,0:0:0:0:
256,192,64021,1,0,0:0:0:0:
256,192,64215,1,2,0:0:0:0:
256,192,64312,1,2,0:0:0:0:
256,192,64505,1,0,0:0:0:0:
256,192,64699,1,0,0:0:0:0:
256,192,64892,1,2,0:0:0:0:
256,192,65279,1,0,0:0:0:0:
256,192,65473,1,2,0:0:0:0:
256,192,65570,1,2,0:0:0:0:
256,192,65763,1,0,0:0:0:0:
256,192,65860,1,0,0:0:0:0:
256,192,66054,1,0,0:0:0:0:
256,192,66247,1,2,0:0:0:0:
256,192,66441,1,0,0:0:0:0:
256,192,66634,1,2,0:0:0:0:
256,192,66828,1,2,0:0:0:0:
256,192,67215,1,2,0:0:0:0:
256,192,67408,1,0,0:0:0:0:
256,192,67505,1,0,0:0:0:0:
256,192,67602,1,0,0:0:0:0:
256,192,67795,1,0,0:0:0:0:
256,192,67989,1,2,0:0:0:0:
256,192,68376,1,2,0:0:0:0:
256,192,68763,1,0,0:0:0:0:
256,192,68957,1,0,0:0:0:0:
256,192,69150,1,2,0:0:0:0:
256,192,69247,1,2,0:0:0:0:
256,192,69344,1,2,0:0:0:0:
256,192,69537,1,0,0:0:0:0:
256,192,69731,1,0,0:0:0:0:
256,192,69925,1,2,0:0:0:0:
256,192,70699,1,2,0:0:0:0:
256,192,70892,1,0,0:0:0:0:
256,192,71086,1,2,0:0:0:0:
256,192,71473,1,2,0:0:0:0:
256,192,71666,1,0,0:0:0:0:
256,192,71763,1,0,0:0:0:0:
256,192,71957,1,2,0:0:0:0:
256,192,72054,1,2,0:0:0:0:
256,192,72247,1,0,0:0:0:0:
256,192,72441,1,2,0:0:0:0:
256,192,72634,1,0,0:0:0:0:
256,192,72828,1,0,0:0:0:0:
256,192,73021,1,2,0:0:0:0:
256,192,73408,1,2,0:0:0:0:
256,192,73602,1,0,0:0:0:0:
256,192,73699,1,0,0:0:0:0:
256,192,73795,1,0,0:0:0:0:
256,192,73989,1,2,0:0:0:0:
256,192,74183,1,2,0:0:0:0:
256,192,74570,1,2,0:0:0:0:
256,192,74957,1,0,0:0:0:0:
256,192,75150,1,2,0:0:0:0:
256,192,75731,1,0,0:0:0:0:
256,192,75828,1,0,0:0:0:0:
256,192,75925,1,0,0:0:0:0:
256,192,76118,1,6,0:0:0:0:
256,192,76505,1,2,0:0:0:0:
256,192,76699,1,0,0:0:0:0:
256,192,76892,1,0,0:0:0:0:
256,192,76989,1,0,0:0:0:0:
256,192,77086,1,0,0:0:0:0:
256,192,77279,1,2,0:0:0:0:
256,192,77666,1,0,0:0:0:0:
256,192,78054,1,2,0:0:0:0:
256,192,78441,1,0,0:0:0:0:
256,192,78634,1,2,0:0:0:0:
256,192,78828,1,2,0:0:0:0:
256,192,78925,1,2,0:0:0:0:
256,192,79021,1,2,0:0:0:0:
256,192,79215,1,0,0:0:0:0:
256,192,79602,1,2,0:0:0:0:
256,192,79795,1,0,0:0:0:0:
256,192,79892,1,0,0:0:0:0:
256,192,79989,1,0,0:0:0:0:
256,192,80183,1,2,0:0:0:0:
256,192,80376,1,2,0:0:0:0:
256,192,80763,1,2,0:0:0:0:
256,192,81150,1,2,0:0:0:0:
256,192,81344,1,0,0:0:0:0:
256,192,81537,1,2,0:0:0:0:
256,192,81634,1,2,0:0:0:0:
256,192,81731,1,2,0:0:0:0:
256,192,81925,1,0,0:0:0:0:
256,192,82118,1,0,0:0:0:0:
256,192,82312,1,6,0:0:0:0:
256,192,82699,1,2,0:0:0:0:
256,192,82892,1,0,0:0:0:0:
256,192,83086,1,2,0:0:0:0:
256,192,83183,1,2,0:0:0:0:
256,192,83279,1,2,0:0:0:0:
256,192,83473,1,0,0:0:0:0:
256,192,83860,1,0,0:0:0:0:
256,192,84247,1,2,0:0:0:0:
256,192,84634,1,0,0:0:0:0:
256,192,84828,1,0,0:0:0:0:
256,192,85021,1,2,0:0:0:0:
256,192,85118,1,2,0:0:0:0:
256,192,85215,1,2,0:0:0:0:
256,192,85408,1,0,0:0:0:0:
256,192,85795,1,2,0:0:0:0:
256,192,85989,1,0,0:0:0:0:
256,192,86183,1,0,0:0:0:0:
256,192,86279,1,0,0:0:0:0:
256,192,86376,1,0,0:0:0:0:
256,192,86570,1,2,0:0:0:0:
256,192,86957,1,0,0:0:0:0:
256,192,87828,12,0,88312,0:0:0:0:
256,192,88505,5,6,0:0:0:0:
256,192,88892,1,0,0:0:0:0:
256,192,89086,1,2,0:0:0:0:
256,192,89183,1,2,0:0:0:0:
256,192,89279,1,2,0:0:0:0:
256,192,89473,1,0,0:0:0:0:
256,192,89666,1,2,0:0:0:0:
256,192,89860,1,2,0:0:0:0:
256,192,89957,1,2,0:0:0:0:
256,192,90054,1,2,0:0:0:0:
256,192,90441,1,2,0:0:0:0:
256,192,90634,1,0,0:0:0:0:
256,192,90731,1,0,0:0:0:0:
256,192,90828,1,0,0:0:0:0:
256,192,91021,1,0,0:0:0:0:
256,192,91215,1,2,0:0:0:0:
256,192,91312,1,2,0:0:0:0:
256,192,91408,1,2,0:0:0:0:
256,192,91602,1,0,0:0:0:0:
256,192,91989,1,0,0:0:0:0:
256,192,92183,1,2,0:0:0:0:
256,192,92570,1,0,0:0:0:0:
256,192,92763,1,2,0:0:0:0:
256,192,92860,1,2,0:0:0:0:
256,192,92957,1,2,0:0:0:0:
256,192,93150,1,2,0:0:0:0:
256,192,93537,1,2,0:0:0:0:
256,192,93731,1,0,0:0:0:0:
256,192,93925,1,0,0:0:0:0:
256,192,94021,1,0,0:0:0:0:
256,192,94118,1,0,0:0:0:0:
256,192,94312,1,2,0:0:0:0:
256,192,94699,1,2,0:0:0:0:
256,192,95279,1,2,0:0:0:0:
256,192,95376,1,2,0:0:0:0:
256,192,95473,1,2,0:0:0:0:
256,192,95666,1,0,0:0:0:0:
256,192,95860,1,2,0:0:0:0:
256,192,96054,1,2,0:0:0:0:
256,192,96247,1,0,0:0:0:0:
256,192,96634,1,2,0:0:0:0:
256,192,96828,1,0,0:0:0:0:
256,192,96925,1,0,0:0:0:0:
256,192,97021,1,0,0:0:0:0:
256,192,97215,1,0,0:0:0:0:
256,192,97408,1,2,0:0:0:0:
256,192,97795,1,2,0:0:0:0:
256,192,97892,1,2,0:0:0:0:
256,192,97989,1,2,0:0:0:0:
256,192,98183,1,0,0:0:0:0:
256,192,98376,1,2,0:0:0:0:
256,192,98570,1,2,0:0:0:0:
256,192,98763,1,0,0:0:0:0:
256,192,98957,1,2,0:0:0:0:
256,192,99344,5,2,0:0:0:0:
256,192,99731,1,0,0:0:0:0:
256,192,99925,1,2,0:0:0:0:
256,192,100118,1,2,0:0:0:0:
256,192,100215,1,2,0:0:0:0:
256,192,100312,1,2,0:0:0:0:
256,192,100505,1,2,0:0:0:0:
256,192,100699,1,0,0:0:0:0:
256,192,100892,1,2,0:0:0:0:
256,192,101473,1,0,0:0:0:0:
256,192,101570,1,0,0:0:0:0:
256,192,101666,1,0,0:0:0:0:
256,192,101860,1,0,0:0:0:0:
256,192,102054,1,2,0:0:0:0:
256,192,102247,1,0,0:0:0:0:
256,192,102441,1,2,0:0:0:0:
256,192,102828,1,0,0:0:0:0:
256,192,103021,1,2,0:0:0:0:
256,192,103408,1,0,0:0:0:0:
256,192,103602,1,2,0:0:0:0:
256,192,103699,1,2,0:0:0:0:
256,192,103795,1,2,0:0:0:0:
256,192,103989,1,0,0:0:0:0:
256,192,104376,1,2,0:0:0:0:
256,192,104570,1,0,0:0:0:0:
256,192,104666,1,0,0:0:0:0:
256,192,104763,1,0,0:0:0:0:
256,192,104957,1,0,0:0:0:0:
256,192,105150,1,2,0:0:0:0:
256,192,105344,1,0,0:0:0:0:
256,192,105537,1,2,0:0:0:0:
256,192,105925,1,0,0:0:0:0:
256,192,106118,1,0,0:0:0:0:
256,192,106312,1,2,0:0:0:0:
256,192,106408,1,2,0:0:0:0:
256,192,106505,1,2,0:0:0:0:
256,192,106699,1,2,0:0:0:0:
256,192,106892,1,0,0:0:0:0:
256,192,107086,1,2,0:0:0:0:
256,192,107473,1,2,0:0:0:0:
256,192,107666,1,0,0:0:0:0:
256,192,107763,1,0,0:0:0:0:
256,192,107860,1,0,0:0:0:0:
256,192,108054,1,0,0:0:0:0:
256,192,108247,1,2,0:0:0:0:
256,192,108634,1,2,0:0:0:0:
256,192,108731,1,2,0:0:0:0:
256,192,108828,1,2,0:0:0:0:
256,192,109021,1,0,0:0:0:0:
256,192,109215,5,2,0:0:0:0:
256,192,109408,1,2,0:0:0:0:
256,192,109602,1,0,0:0:0:0:
256,192,109795,1,2,0:0:0:0:
256,192,110183,1,6,0:0:0:0:
256,192,110570,1,2,0:0:0:0:
256,192,110763,1,0,0:0:0:0:
256,192,110957,1,2,0:0:0:0:
256,192,111150,1,0,0:0:0:0:
256,192,111344,1,2,0:0:0:0:
256,192,111731,1,2,0:0:0:0:
256,192,111925,1,0,0:0:0:0:
256,192,112118,1,2,0:0:0:0:
256,192,112312,1,0,0:0:0:0:
256,192,112505,1,2,0:0:0:0:
256,192,112892,1,2,0:0:0:0:
256,192,113086,1,0,0:0:0:0:
256,192,113279,1,2,0:0:0:0:
256,192,113473,1,2,0:0:0:0:
256,192,113570,1,2,0:0:0:0:
256,192,113666,1,2,0:0:0:0:
256,192,114054,1,2,0:0:0:0:
256,192,114441,1,2,0:0:0:0:
256,192,114537,1,2,0:0:0:0:
256,192,114634,1,2,0:0:0:0:
256,192,114828,1,0,0:0:0:0:
