osu file format v14

[General]
AudioFilename: audio.mp3
AudioLeadIn: 0
PreviewTime: -1
Countdown: 0
SampleSet: None
StackLeniency: 0.2
Mode: 3
LetterboxInBreaks: 0
SpecialStyle: 0
WidescreenStoryboard: 0

[Editor]
DistanceSpacing: 2
BeatDivisor: 4
GridSize: 8
TimelineZoom: 1

[Metadata]
Title:Thai people can fly
TitleUnicode:Thai people can fly
Artist:P.O.N.R ft. (Prod. By Botcash)
ArtistUnicode:P.O.N.R ft. ฟักกลิ้ง ฮีโร่ (Prod. By Botcash)
Creator:BBdevilwithin
Version:Hard
Source:
Tags:
BeatmapID:1180210
BeatmapSetID:557833

[Difficulty]
HPDrainRate:5
CircleSize:4
OverallDifficulty:5
ApproachRate:5
SliderMultiplier:1.4
SliderTickRate:1

[Events]
//Background and Video events
0,0,"messageImage_1483941064704.jpg",0,0
//Break Periods
//Storyboard Layer 0 (Background)
//Storyboard Layer 1 (Fail)
//Storyboard Layer 2 (Pass)
//Storyboard Layer 3 (Foreground)
//Storyboard Sound Samples

[TimingPoints]
0,454.538461538462,4,1,0,100,1,0

[Colours]
Combo1 : 255,128,223
Combo2 : 242,0,224
Combo3 : 0,0,0
Combo4 : 194,11,255

[HitObjects]
448,192,0,128,0,227:0:0:0:0:
192,192,454,128,0,681:0:0:0:0:
64,192,681,128,0,909:0:0:0:0:
320,192,1363,128,0,1590:0:0:0:0:
192,192,1590,128,0,1818:0:0:0:0:
320,192,2272,128,0,2499:0:0:0:0:
192,192,2499,128,0,2727:0:0:0:0:
448,192,2727,128,0,2954:0:0:0:0:
320,192,2954,128,0,3181:0:0:0:0:
192,192,3181,128,0,3409:0:0:0:0:
64,192,3409,128,0,3636:0:0:0:0:
448,192,3636,128,0,3863:0:0:0:0:
192,192,4090,128,0,4318:0:0:0:0:
64,192,4318,128,0,4545:0:0:0:0:
448,192,4999,128,0,5227:0:0:0:0:
320,192,5227,128,0,5454:0:0:0:0:
320,192,5909,128,0,6136:0:0:0:0:
192,192,6136,128,0,6363:0:0:0:0:
448,192,6363,128,0,6590:0:0:0:0:
320,192,6590,128,0,6818:0:0:0:0:
192,192,6818,128,0,7045:0:0:0:0:
64,192,7045,128,0,7272:0:0:0:0:
448,192,7272,128,0,7499:0:0:0:0:
192,192,7727,128,0,7954:0:0:0:0:
64,192,7954,128,0,8181:0:0:0:0:
320,192,8636,128,0,8863:0:0:0:0:
192,192,8863,128,0,9090:0:0:0:0:
320,192,9545,128,0,9772:0:0:0:0:
192,192,9772,128,0,9999:0:0:0:0:
448,192,9999,128,0,10227:0:0:0:0:
320,192,10227,128,0,10454:0:0:0:0:
192,192,10454,128,0,10681:0:0:0:0:
64,192,10681,128,0,10908:0:0:0:0:
448,192,10908,128,0,11136:0:0:0:0:
320,192,11363,128,0,11590:0:0:0:0:
192,192,11590,128,0,11818:0:0:0:0:
448,192,12272,128,0,12499:0:0:0:0:
320,192,12499,128,0,12727:0:0:0:0:
320,192,13181,128,0,13408:0:0:0:0:
192,192,13408,128,0,13636:0:0:0:0:
448,192,14545,128,0,16249:0:0:0:0:
64,192,14545,128,0,16249:0:0:0:0:
192,192,16363,128,0,18067:0:0:0:0:
448,192,16363,128,0,18067:0:0:0:0:
64,192,18181,128,0,19886:0:0:0:0:
320,192,18181,128,0,19886:0:0:0:0:
192,192,19999,128,0,21704:0:0:0:0:
320,192,19999,128,0,21704:0:0:0:0:
448,192,21817,1,0,0:0:0:0:
192,192,21817,1,0,0:0:0:0:
448,192,22158,1,0,0:0:0:0:
192,192,22158,1,0,0:0:0:0:
448,192,22499,1,0,0:0:0:0:
192,192,22499,1,0,0:0:0:0:
320,192,22726,1,0,0:0:0:0:
192,192,22954,1,0,0:0:0:0:
448,192,23067,1,0,0:0:0:0:
320,192,23181,1,0,0:0:0:0:
64,192,23181,1,0,0:0:0:0:
192,192,23408,1,0,0:0:0:0:
448,192,23636,1,0,0:0:0:0:
64,192,23636,1,0,0:0:0:0:
192,192,24317,128,0,24545:0:0:0:0:
320,192,24545,128,0,24772:0:0:0:0:
448,192,24772,128,0,24999:0:0:0:0:
64,192,25454,1,0,0:0:0:0:
448,192,25454,1,0,0:0:0:0:
64,192,25795,1,0,0:0:0:0:
320,192,25795,1,0,0:0:0:0:
64,192,26135,1,0,0:0:0:0:
320,192,26135,1,0,0:0:0:0:
192,192,26363,1,0,0:0:0:0:
320,192,26590,1,0,0:0:0:0:
64,192,26704,1,0,0:0:0:0:
192,192,26817,1,0,0:0:0:0:
448,192,26817,1,0,0:0:0:0:
320,192,27045,1,0,0:0:0:0:
64,192,27272,1,0,0:0:0:0:
448,192,27272,1,0,0:0:0:0:
192,192,27954,128,0,28181:0:0:0:0:
448,192,28181,128,0,28408:0:0:0:0:
320,192,28408,128,0,28635:0:0:0:0:
64,192,29090,1,0,0:0:0:0:
448,192,29090,1,0,0:0:0:0:
64,192,29545,1,0,0:0:0:0:
64,192,29999,1,0,0:0:0:0:
64,192,30454,1,0,0:0:0:0:
64,192,30908,1,0,0:0:0:0:
448,192,30908,1,0,0:0:0:0:
448,192,31363,1,0,0:0:0:0:
448,192,31817,1,0,0:0:0:0:
448,192,32272,1,0,0:0:0:0:
448,192,32726,1,0,0:0:0:0:
64,192,32726,1,0,0:0:0:0:
192,192,33181,1,0,0:0:0:0:
192,192,33635,1,0,0:0:0:0:
192,192,34090,1,0,0:0:0:0:
64,192,34544,1,0,0:0:0:0:
448,192,34544,1,0,0:0:0:0:
320,192,34999,1,0,0:0:0:0:
320,192,35454,1,0,0:0:0:0:
320,192,35908,1,0,0:0:0:0:
448,192,36363,1,0,0:0:0:0:
64,192,36363,1,0,0:0:0:0:
192,192,36590,1,0,0:0:0:0:
320,192,36817,1,0,0:0:0:0:
448,192,37044,1,0,0:0:0:0:
320,192,37272,1,0,0:0:0:0:
192,192,37499,1,0,0:0:0:0:
64,192,37726,1,0,0:0:0:0:
192,192,37953,1,0,0:0:0:0:
64,192,38181,1,0,0:0:0:0:
448,192,38181,1,0,0:0:0:0:
320,192,38408,1,0,0:0:0:0:
192,192,38635,1,0,0:0:0:0:
64,192,38863,1,0,0:0:0:0:
192,192,39090,1,0,0:0:0:0:
320,192,39317,1,0,0:0:0:0:
448,192,39544,1,0,0:0:0:0:
320,192,39772,1,0,0:0:0:0:
64,192,39999,1,0,0:0:0:0:
448,192,39999,1,0,0:0:0:0:
192,192,40113,1,0,0:0:0:0:
320,192,40226,1,0,0:0:0:0:
64,192,40340,1,0,0:0:0:0:
192,192,40453,1,0,0:0:0:0:
64,192,40567,1,0,0:0:0:0:
320,192,40681,1,0,0:0:0:0:
192,192,40794,1,0,0:0:0:0:
448,192,40908,1,0,0:0:0:0:
320,192,41022,1,0,0:0:0:0:
448,192,41135,1,0,0:0:0:0:
192,192,41249,1,0,0:0:0:0:
320,192,41363,1,0,0:0:0:0:
64,192,41476,1,0,0:0:0:0:
192,192,41590,1,0,0:0:0:0:
64,192,41703,1,0,0:0:0:0:
320,192,41817,128,0,42044:0:0:0:0:
320,192,42272,128,0,42499:0:0:0:0:
320,192,42726,128,0,42953:0:0:0:0:
64,192,43181,1,0,0:0:0:0:
448,192,43181,1,0,0:0:0:0:
192,192,43408,1,0,0:0:0:0:
320,192,43408,1,0,0:0:0:0:
448,192,43635,1,0,0:0:0:0:
64,192,43635,128,0,43862:0:0:0:0:
192,192,43862,1,0,0:0:0:0:
320,192,44090,1,0,0:0:0:0:
320,192,44544,1,0,0:0:0:0:
64,192,44544,128,0,44772:0:0:0:0:
192,192,44772,1,0,0:0:0:0:
448,192,44999,1,0,0:0:0:0:
192,192,45453,1,0,0:0:0:0:
448,192,45453,128,0,45681:0:0:0:0:
64,192,45681,1,0,0:0:0:0:
320,192,45908,1,0,0:0:0:0:
448,192,46135,1,0,0:0:0:0:
192,192,46362,1,0,0:0:0:0:
320,192,46590,1,0,0:0:0:0:
64,192,46817,1,0,0:0:0:0:
448,192,47044,128,0,47272:0:0:0:0:
192,192,47272,1,0,0:0:0:0:
64,192,47272,128,0,47499:0:0:0:0:
448,192,47499,1,0,0:0:0:0:
192,192,47726,1,0,0:0:0:0:
320,192,47953,1,0,0:0:0:0:
320,192,48067,1,0,0:0:0:0:
64,192,48181,1,0,0:0:0:0:
448,192,48181,128,0,48408:0:0:0:0:
192,192,48408,1,0,0:0:0:0:
64,192,48635,1,0,0:0:0:0:
448,192,49090,1,0,0:0:0:0:
192,192,49090,1,0,0:0:0:0:
320,192,49317,1,0,0:0:0:0:
448,192,49317,1,0,0:0:0:0:
64,192,49544,1,0,0:0:0:0:
320,192,49544,1,0,0:0:0:0:
64,192,49771,1,0,0:0:0:0:
192,192,49771,1,0,0:0:0:0:
192,192,49999,1,0,0:0:0:0:
448,192,49999,1,0,0:0:0:0:
320,192,50226,1,0,0:0:0:0:
64,192,50226,1,0,0:0:0:0:
320,192,50453,1,0,0:0:0:0:
448,192,50453,1,0,0:0:0:0:
64,192,50681,1,0,0:0:0:0:
64,192,50794,1,0,0:0:0:0:
448,192,50908,128,0,51135:0:0:0:0:
320,192,50908,1,0,0:0:0:0:
192,192,51135,1,0,0:0:0:0:
64,192,51362,1,0,0:0:0:0:
320,192,51362,1,0,0:0:0:0:
448,192,51590,1,0,0:0:0:0:
448,192,51703,1,0,0:0:0:0:
192,192,51817,1,0,0:0:0:0:
448,192,52044,1,0,0:0:0:0:
64,192,52271,1,0,0:0:0:0:
320,192,52271,1,0,0:0:0:0:
192,192,52499,1,0,0:0:0:0:
64,192,52726,1,0,0:0:0:0:
448,192,52726,1,0,0:0:0:0:
192,192,52953,1,0,0:0:0:0:
448,192,52953,1,0,0:0:0:0:
64,192,53181,1,0,0:0:0:0:
320,192,53181,1,0,0:0:0:0:
192,192,53408,1,0,0:0:0:0:
320,192,53408,1,0,0:0:0:0:
192,192,53635,1,0,0:0:0:0:
448,192,53635,1,0,0:0:0:0:
192,192,53862,1,0,0:0:0:0:
448,192,53862,1,0,0:0:0:0:
64,192,54090,1,0,0:0:0:0:
320,192,54090,1,0,0:0:0:0:
192,192,54317,128,0,54544:0:0:0:0:
448,192,54544,1,0,0:0:0:0:
192,192,54771,1,0,0:0:0:0:
448,192,54771,1,0,0:0:0:0:
320,192,54999,1,0,0:0:0:0:
192,192,55226,1,0,0:0:0:0:
448,192,55226,1,0,0:0:0:0:
192,192,55453,1,0,0:0:0:0:
64,192,55680,1,0,0:0:0:0:
320,192,55680,1,0,0:0:0:0:
192,192,55908,1,0,0:0:0:0:
64,192,56135,1,0,0:0:0:0:
320,192,56135,1,0,0:0:0:0:
448,192,56362,1,0,0:0:0:0:
192,192,56362,128,0,56590:0:0:0:0:
320,192,56590,128,0,56817:0:0:0:0:
64,192,56817,128,0,57044:0:0:0:0:
192,192,57044,128,0,57271:0:0:0:0:
320,192,57271,128,0,57499:0:0:0:0:
192,192,57499,128,0,57726:0:0:0:0:
448,192,57726,128,0,58067:0:0:0:0:
320,192,58180,128,0,58408:0:0:0:0:
64,192,58180,128,0,58408:0:0:0:0:
64,192,58635,128,0,58862:0:0:0:0:
320,192,58635,128,0,58862:0:0:0:0:
192,192,59090,128,0,59317:0:0:0:0:
448,192,59090,128,0,59317:0:0:0:0:
448,192,59544,128,0,59771:0:0:0:0:
192,192,59544,128,0,59771:0:0:0:0:
64,192,59999,1,0,0:0:0:0:
320,192,59999,1,0,0:0:0:0:
192,192,60112,1,0,0:0:0:0:
448,192,60226,1,0,0:0:0:0:
320,192,60453,128,0,60567:0:0:0:0:
192,192,60680,1,0,0:0:0:0:
64,192,60794,1,0,0:0:0:0:
448,192,60908,128,0,61021:0:0:0:0:
192,192,61249,1,0,0:0:0:0:
320,192,61362,1,0,0:0:0:0:
448,192,61589,128,0,61703:0:0:0:0:
320,192,61817,128,0,61930:0:0:0:0:
192,192,62044,1,0,0:0:0:0:
448,192,62158,1,0,0:0:0:0:
320,192,62271,1,0,0:0:0:0:
448,192,62385,1,0,0:0:0:0:
192,192,62499,1,0,0:0:0:0:
64,192,62612,1,0,0:0:0:0:
320,192,62726,128,0,62839:0:0:0:0:
192,192,63180,1,0,0:0:0:0:
448,192,63294,1,0,0:0:0:0:
64,192,63408,1,0,0:0:0:0:
320,192,63521,1,0,0:0:0:0:
448,192,63635,1,0,0:0:0:0:
192,192,63749,1,0,0:0:0:0:
320,192,63862,128,0,63976:0:0:0:0:
448,192,64089,128,0,64203:0:0:0:0:
64,192,64203,1,0,0:0:0:0:
320,192,64317,1,0,0:0:0:0:
192,192,64430,1,0,0:0:0:0:
448,192,64544,1,0,0:0:0:0:
320,192,64658,128,0,64771:0:0:0:0:
64,192,64771,1,0,0:0:0:0:
192,192,64999,1,0,0:0:0:0:
448,192,65112,1,0,0:0:0:0:
320,192,65226,1,0,0:0:0:0:
192,192,65339,1,0,0:0:0:0:
64,192,65453,128,0,65567:0:0:0:0:
192,192,65680,1,0,0:0:0:0:
320,192,65794,1,0,0:0:0:0:
64,192,66021,1,0,0:0:0:0:
320,192,66135,1,0,0:0:0:0:
192,192,66248,1,0,0:0:0:0:
448,192,66362,128,0,66476:0:0:0:0:
192,192,66817,1,0,0:0:0:0:
64,192,66930,128,0,67158:0:0:0:0:
192,192,67271,1,0,0:0:0:0:
448,192,67385,1,0,0:0:0:0:
320,192,67498,1,0,0:0:0:0:
64,192,67726,1,0,0:0:0:0:
448,192,67839,1,0,0:0:0:0:
192,192,67953,128,0,68067:0:0:0:0:
320,192,68180,1,0,0:0:0:0:
192,192,68408,1,0,0:0:0:0:
192,192,68521,1,0,0:0:0:0:
320,192,68635,1,0,0:0:0:0:
448,192,68862,1,0,0:0:0:0:
64,192,69089,1,0,0:0:0:0:
320,192,69089,1,0,0:0:0:0:
192,192,69203,1,0,0:0:0:0:
448,192,69317,1,0,0:0:0:0:
320,192,69430,1,0,0:0:0:0:
64,192,69544,1,0,0:0:0:0:
192,192,69658,1,0,0:0:0:0:
448,192,69771,128,0,69885:0:0:0:0:
320,192,69998,1,0,0:0:0:0:
64,192,70226,1,0,0:0:0:0:
320,192,70339,1,0,0:0:0:0:
192,192,70453,1,0,0:0:0:0:
320,192,70680,128,0,70794:0:0:0:0:
448,192,70908,128,0,71021:0:0:0:0:
320,192,71135,1,0,0:0:0:0:
64,192,71248,1,0,0:0:0:0:
192,192,71362,128,0,71476:0:0:0:0:
320,192,71589,1,0,0:0:0:0:
320,192,71817,128,0,71930:0:0:0:0:
64,192,72044,1,0,0:0:0:0:
448,192,72157,1,0,0:0:0:0:
192,192,72271,1,0,0:0:0:0:
320,192,72385,1,0,0:0:0:0:
192,192,72498,1,0,0:0:0:0:
320,192,72612,1,0,0:0:0:0:
64,192,72726,1,0,0:0:0:0:
448,192,72726,1,0,0:0:0:0:
320,192,72953,1,0,0:0:0:0:
192,192,73067,1,0,0:0:0:0:
448,192,73180,128,0,73294:0:0:0:0:
64,192,73407,1,0,0:0:0:0:
448,192,73521,1,0,0:0:0:0:
320,192,73635,128,0,73748:0:0:0:0:
64,192,74089,1,0,0:0:0:0:
448,192,74203,1,0,0:0:0:0:
192,192,74317,1,0,0:0:0:0:
192,192,74430,1,0,0:0:0:0:
320,192,74544,128,0,74657:0:0:0:0:
64,192,74771,1,0,0:0:0:0:
192,192,74885,128,0,74998:0:0:0:0:
448,192,75112,1,0,0:0:0:0:
320,192,75226,1,0,0:0:0:0:
192,192,75339,1,0,0:0:0:0:
320,192,75453,128,0,75567:0:0:0:0:
64,192,75907,1,0,0:0:0:0:
320,192,76021,1,0,0:0:0:0:
192,192,76135,1,0,0:0:0:0:
192,192,76248,1,0,0:0:0:0:
448,192,76362,1,0,0:0:0:0:
320,192,76476,1,0,0:0:0:0:
64,192,76589,1,0,0:0:0:0:
192,192,76703,1,0,0:0:0:0:
448,192,76817,1,0,0:0:0:0:
320,192,76930,1,0,0:0:0:0:
192,192,77044,1,0,0:0:0:0:
64,192,77271,128,0,77385:0:0:0:0:
320,192,77612,1,0,0:0:0:0:
192,192,77726,1,0,0:0:0:0:
448,192,77839,1,0,0:0:0:0:
320,192,77953,1,0,0:0:0:0:
64,192,78066,1,0,0:0:0:0:
192,192,78180,128,0,78294:0:0:0:0:
448,192,78521,1,0,0:0:0:0:
192,192,78635,1,0,0:0:0:0:
320,192,78748,1,0,0:0:0:0:
64,192,78862,1,0,0:0:0:0:
448,192,78976,1,0,0:0:0:0:
320,192,79089,128,0,79203:0:0:0:0:
64,192,79316,1,0,0:0:0:0:
320,192,79430,1,0,0:0:0:0:
192,192,79544,1,0,0:0:0:0:
448,192,79657,1,0,0:0:0:0:
320,192,79771,1,0,0:0:0:0:
448,192,79885,1,0,0:0:0:0:
192,192,79998,1,0,0:0:0:0:
64,192,80112,1,0,0:0:0:0:
320,192,80226,1,0,0:0:0:0:
192,192,80339,1,0,0:0:0:0:
448,192,80453,1,0,0:0:0:0:
320,192,80566,1,0,0:0:0:0:
64,192,80680,1,0,0:0:0:0:
192,192,80794,128,0,80907:0:0:0:0:
448,192,81135,1,0,0:0:0:0:
448,192,81248,1,0,0:0:0:0:
320,192,81362,1,0,0:0:0:0:
64,192,81476,1,0,0:0:0:0:
192,192,81589,128,0,81703:0:0:0:0:
448,192,81816,1,0,0:0:0:0:
64,192,82044,1,0,0:0:0:0:
320,192,82157,1,0,0:0:0:0:
192,192,82271,128,0,82385:0:0:0:0:
448,192,82498,1,0,0:0:0:0:
448,192,82726,1,0,0:0:0:0:
320,192,82953,1,0,0:0:0:0:
64,192,83066,1,0,0:0:0:0:
192,192,83180,1,0,0:0:0:0:
448,192,83294,1,0,0:0:0:0:
320,192,83407,1,0,0:0:0:0:
64,192,83521,1,0,0:0:0:0:
192,192,83635,1,0,0:0:0:0:
320,192,83862,1,0,0:0:0:0:
320,192,83975,1,0,0:0:0:0:
192,192,84089,128,0,84203:0:0:0:0:
448,192,84316,128,0,84430:0:0:0:0:
64,192,84544,128,0,84657:0:0:0:0:
320,192,84771,1,0,0:0:0:0:
64,192,84885,1,0,0:0:0:0:
448,192,84998,1,0,0:0:0:0:
192,192,85112,1,0,0:0:0:0:
320,192,85225,1,0,0:0:0:0:
448,192,85453,128,0,85566:0:0:0:0:
192,192,85907,1,0,0:0:0:0:
192,192,86021,1,0,0:0:0:0:
448,192,86135,1,0,0:0:0:0:
64,192,86248,1,0,0:0:0:0:
192,192,86362,1,0,0:0:0:0:
448,192,86475,1,0,0:0:0:0:
64,192,86589,1,0,0:0:0:0:
320,192,86589,1,0,0:0:0:0:
448,192,86816,1,0,0:0:0:0:
192,192,86816,1,0,0:0:0:0:
192,192,86930,1,0,0:0:0:0:
448,192,86930,1,0,0:0:0:0:
192,192,87044,1,0,0:0:0:0:
448,192,87044,1,0,0:0:0:0:
192,192,87157,1,0,0:0:0:0:
448,192,87157,1,0,0:0:0:0:
64,192,87271,1,0,0:0:0:0:
448,192,87271,1,0,0:0:0:0:
320,192,87725,1,0,0:0:0:0:
192,192,87953,1,0,0:0:0:0:
448,192,88180,1,0,0:0:0:0:
320,192,88407,1,0,0:0:0:0:
64,192,88635,1,0,0:0:0:0:
192,192,88862,128,0,89089:0:0:0:0:
448,192,89089,1,0,0:0:0:0:
64,192,89316,1,0,0:0:0:0:
448,192,89771,1,0,0:0:0:0:
192,192,89998,1,0,0:0:0:0:
64,192,90225,1,0,0:0:0:0:
320,192,90453,128,0,90680:0:0:0:0:
64,192,90907,1,0,0:0:0:0:
448,192,90907,1,0,0:0:0:0:
320,192,91362,1,0,0:0:0:0:
64,192,91589,1,0,0:0:0:0:
448,192,91816,1,0,0:0:0:0:
192,192,92044,1,0,0:0:0:0:
320,192,92271,1,0,0:0:0:0:
64,192,92498,128,0,92725:0:0:0:0:
448,192,92725,1,0,0:0:0:0:
320,192,92953,1,0,0:0:0:0:
64,192,93407,1,0,0:0:0:0:
320,192,93634,1,0,0:0:0:0:
192,192,93862,1,0,0:0:0:0:
448,192,94089,128,0,94316:0:0:0:0:
64,192,94544,1,0,0:0:0:0:
320,192,94544,1,0,0:0:0:0:
64,192,94884,1,0,0:0:0:0:
320,192,94884,1,0,0:0:0:0:
320,192,95225,1,0,0:0:0:0:
64,192,95225,1,0,0:0:0:0:
320,192,95680,1,0,0:0:0:0:
64,192,95793,1,0,0:0:0:0:
192,192,95907,1,0,0:0:0:0:
448,192,95907,1,0,0:0:0:0:
320,192,96021,1,0,0:0:0:0:
64,192,96362,1,0,0:0:0:0:
448,192,96362,1,0,0:0:0:0:
448,192,96816,1,0,0:0:0:0:
64,192,97043,1,0,0:0:0:0:
448,192,97271,1,0,0:0:0:0:
192,192,97498,1,0,0:0:0:0:
320,192,97725,128,0,97953:0:0:0:0:
64,192,98180,1,0,0:0:0:0:
448,192,98180,1,0,0:0:0:0:
192,192,98521,1,0,0:0:0:0:
448,192,98521,1,0,0:0:0:0:
448,192,98862,1,0,0:0:0:0:
192,192,98862,1,0,0:0:0:0:
192,192,99316,1,0,0:0:0:0:
64,192,99430,1,0,0:0:0:0:
320,192,99543,1,0,0:0:0:0:
448,192,99543,1,0,0:0:0:0:
192,192,99657,1,0,0:0:0:0:
64,192,99998,1,0,0:0:0:0:
320,192,99998,1,0,0:0:0:0:
448,192,100680,128,0,100907:0:0:0:0:
320,192,100907,128,0,101134:0:0:0:0:
64,192,101134,128,0,101362:0:0:0:0:
192,192,101362,128,0,101589:0:0:0:0:
320,192,101589,128,0,101816:0:0:0:0:
64,192,101816,1,0,0:0:0:0:
448,192,101816,128,0,102043:0:0:0:0:
320,192,102043,128,0,102271:0:0:0:0:
64,192,102271,1,0,0:0:0:0:
192,192,102271,128,0,102498:0:0:0:0:
320,192,102498,128,0,102725:0:0:0:0:
64,192,102725,1,0,0:0:0:0:
192,192,102725,128,0,102952:0:0:0:0:
448,192,102952,128,0,103180:0:0:0:0:
64,192,103180,1,0,0:0:0:0:
320,192,103180,128,0,103521:0:0:0:0:
64,192,103634,1,0,0:0:0:0:
448,192,103634,1,0,0:0:0:0:
448,192,104089,1,0,0:0:0:0:
64,192,104089,128,0,104316:0:0:0:0:
192,192,104316,128,0,104543:0:0:0:0:
448,192,104543,1,0,0:0:0:0:
320,192,104543,128,0,104771:0:0:0:0:
192,192,104771,128,0,104998:0:0:0:0:
448,192,104998,1,0,0:0:0:0:
64,192,104998,128,0,105225:0:0:0:0:
192,192,105225,128,0,105452:0:0:0:0:
448,192,105452,1,0,0:0:0:0:
320,192,105452,128,0,105680:0:0:0:0:
64,192,105680,128,0,105907:0:0:0:0:
192,192,105907,128,0,106134:0:0:0:0:
448,192,105907,1,0,0:0:0:0:
320,192,106134,128,0,106362:0:0:0:0:
192,192,106362,128,0,106589:0:0:0:0:
448,192,106362,1,0,0:0:0:0:
64,192,106589,128,0,106816:0:0:0:0:
448,192,106816,1,0,0:0:0:0:
320,192,106816,128,0,107157:0:0:0:0:
64,192,107271,1,0,0:0:0:0:
448,192,107271,1,0,0:0:0:0:
320,192,107498,1,0,0:0:0:0:
192,192,107725,1,0,0:0:0:0:
448,192,107725,1,0,0:0:0:0:
192,192,107952,1,0,0:0:0:0:
64,192,108180,1,0,0:0:0:0:
320,192,108180,1,0,0:0:0:0:
320,192,108407,1,0,0:0:0:0:
192,192,108634,1,0,0:0:0:0:
448,192,108634,1,0,0:0:0:0:
192,192,108861,1,0,0:0:0:0:
64,192,109089,1,0,0:0:0:0:
448,192,109202,1,0,0:0:0:0:
320,192,109316,1,0,0:0:0:0:
448,192,109430,1,0,0:0:0:0:
192,192,109543,1,0,0:0:0:0:
320,192,109657,1,0,0:0:0:0:
64,192,109771,1,0,0:0:0:0:
448,192,109771,1,0,0:0:0:0:
320,192,109884,1,0,0:0:0:0:
192,192,109998,1,0,0:0:0:0:
448,192,110111,1,0,0:0:0:0:
320,192,110225,1,0,0:0:0:0:
448,192,110339,1,0,0:0:0:0:
64,192,110452,1,0,0:0:0:0:
192,192,110566,1,0,0:0:0:0:
64,192,110680,1,0,0:0:0:0:
320,192,110793,1,0,0:0:0:0:
64,192,110907,1,0,0:0:0:0:
448,192,111021,1,0,0:0:0:0:
192,192,111021,1,0,0:0:0:0:
64,192,111134,1,0,0:0:0:0:
320,192,111248,1,0,0:0:0:0:
64,192,111361,1,0,0:0:0:0:
192,192,111475,1,0,0:0:0:0:
64,192,111589,1,0,0:0:0:0:
448,192,111702,1,0,0:0:0:0:
320,192,111816,1,0,0:0:0:0:
448,192,111930,1,0,0:0:0:0:
192,192,112043,1,0,0:0:0:0:
320,192,112157,1,0,0:0:0:0:
64,192,112271,1,0,0:0:0:0:
448,192,112271,1,0,0:0:0:0:
320,192,112384,1,0,0:0:0:0:
192,192,112498,1,0,0:0:0:0:
448,192,112611,1,0,0:0:0:0:
320,192,112725,1,0,0:0:0:0:
448,192,112839,1,0,0:0:0:0:
192,192,112952,1,0,0:0:0:0:
320,192,113066,1,0,0:0:0:0:
64,192,113180,1,0,0:0:0:0:
192,192,113293,1,0,0:0:0:0:
64,192,113407,1,0,0:0:0:0:
320,192,113407,1,0,0:0:0:0:
192,192,113520,1,0,0:0:0:0:
448,192,113520,1,0,0:0:0:0:
320,192,113634,1,0,0:0:0:0:
448,192,113748,1,0,0:0:0:0:
192,192,113861,1,0,0:0:0:0:
320,192,113975,1,0,0:0:0:0:
64,192,114089,1,0,0:0:0:0:
192,192,114202,1,0,0:0:0:0:
64,192,114316,1,0,0:0:0:0:
320,192,114430,1,0,0:0:0:0:
64,192,114543,128,0,114770:0:0:0:0:
448,192,114543,128,0,114770:0:0:0:0:
192,192,114998,128,0,115225:0:0:0:0:
320,192,114998,128,0,115225:0:0:0:0:
448,192,115452,128,0,115680:0:0:0:0:
64,192,115452,128,0,115680:0:0:0:0:
192,192,115907,1,0,0:0:0:0:
320,192,115907,1,0,0:0:0:0:
64,192,116134,1,0,0:0:0:0:
448,192,116134,1,0,0:0:0:0:
448,192,116361,1,0,0:0:0:0:
192,192,116361,128,0,116589:0:0:0:0:
64,192,116589,1,0,0:0:0:0:
320,192,116816,1,0,0:0:0:0:
320,192,117270,1,0,0:0:0:0:
64,192,117270,128,0,117498:0:0:0:0:
192,192,117498,1,0,0:0:0:0:
448,192,117725,1,0,0:0:0:0:
192,192,118180,1,0,0:0:0:0:
448,192,118180,128,0,118407:0:0:0:0:
64,192,118407,1,0,0:0:0:0:
320,192,118634,1,0,0:0:0:0:
448,192,118861,1,0,0:0:0:0:
192,192,119089,1,0,0:0:0:0:
320,192,119316,1,0,0:0:0:0:
64,192,119543,1,0,0:0:0:0:
448,192,119770,128,0,119998:0:0:0:0:
192,192,119998,1,0,0:0:0:0:
64,192,119998,128,0,120225:0:0:0:0:
448,192,120225,1,0,0:0:0:0:
192,192,120452,1,0,0:0:0:0:
320,192,120679,1,0,0:0:0:0:
320,192,120793,1,0,0:0:0:0:
64,192,120907,1,0,0:0:0:0:
448,192,120907,128,0,121134:0:0:0:0:
192,192,121134,1,0,0:0:0:0:
64,192,121361,1,0,0:0:0:0:
448,192,121816,1,0,0:0:0:0:
192,192,121816,1,0,0:0:0:0:
320,192,122043,1,0,0:0:0:0:
448,192,122043,1,0,0:0:0:0:
64,192,122270,1,0,0:0:0:0:
320,192,122270,1,0,0:0:0:0:
64,192,122498,1,0,0:0:0:0:
192,192,122498,1,0,0:0:0:0:
192,192,122725,1,0,0:0:0:0:
448,192,122725,1,0,0:0:0:0:
320,192,122952,1,0,0:0:0:0:
64,192,122952,1,0,0:0:0:0:
320,192,123179,1,0,0:0:0:0:
448,192,123179,1,0,0:0:0:0:
64,192,123407,1,0,0:0:0:0:
64,192,123520,1,0,0:0:0:0:
448,192,123634,128,0,123861:0:0:0:0:
320,192,123634,1,0,0:0:0:0:
192,192,123861,1,0,0:0:0:0:
64,192,124089,1,0,0:0:0:0:
320,192,124089,1,0,0:0:0:0:
448,192,124316,1,0,0:0:0:0:
448,192,124429,1,0,0:0:0:0:
192,192,124543,1,0,0:0:0:0:
448,192,124770,1,0,0:0:0:0:
64,192,124998,1,0,0:0:0:0:
320,192,124998,1,0,0:0:0:0:
192,192,125225,1,0,0:0:0:0:
64,192,125452,1,0,0:0:0:0:
448,192,125452,1,0,0:0:0:0:
192,192,125679,1,0,0:0:0:0:
448,192,125679,1,0,0:0:0:0:
64,192,125907,1,0,0:0:0:0:
320,192,125907,1,0,0:0:0:0:
192,192,126134,1,0,0:0:0:0:
320,192,126134,1,0,0:0:0:0:
192,192,126361,1,0,0:0:0:0:
448,192,126361,1,0,0:0:0:0:
192,192,126588,1,0,0:0:0:0:
448,192,126588,1,0,0:0:0:0:
64,192,126816,1,0,0:0:0:0:
320,192,126816,1,0,0:0:0:0:
192,192,127043,128,0,127270:0:0:0:0:
448,192,127270,1,0,0:0:0:0:
192,192,127498,1,0,0:0:0:0:
448,192,127498,1,0,0:0:0:0:
320,192,127725,1,0,0:0:0:0:
192,192,127952,1,0,0:0:0:0:
448,192,127952,1,0,0:0:0:0:
192,192,128179,1,0,0:0:0:0:
64,192,128407,1,0,0:0:0:0:
320,192,128407,1,0,0:0:0:0:
192,192,128634,1,0,0:0:0:0:
64,192,128861,1,0,0:0:0:0:
320,192,128861,1,0,0:0:0:0:
448,192,129088,1,0,0:0:0:0:
192,192,129088,128,0,129316:0:0:0:0:
320,192,129316,128,0,129543:0:0:0:0:
64,192,129543,128,0,129770:0:0:0:0:
192,192,129770,128,0,129998:0:0:0:0:
320,192,129998,128,0,130225:0:0:0:0:
192,192,130225,128,0,130452:0:0:0:0:
448,192,130452,128,0,130793:0:0:0:0:
192,192,130907,1,0,0:0:0:0:
192,192,131020,1,0,0:0:0:0:
64,192,131134,1,0,0:0:0:0:
64,192,131247,1,0,0:0:0:0:
320,192,131361,1,0,0:0:0:0:
448,192,131475,1,0,0:0:0:0:
320,192,131588,1,0,0:0:0:0:
64,192,131702,1,0,0:0:0:0:
192,192,131816,1,0,0:0:0:0:
320,192,131929,1,0,0:0:0:0:
192,192,132043,1,0,0:0:0:0:
64,192,132157,1,0,0:0:0:0:
448,192,132270,1,0,0:0:0:0:
320,192,132384,128,0,132725:0:0:0:0:
64,192,132725,1,0,0:0:0:0:
192,192,132952,1,0,0:0:0:0:
64,192,133179,1,0,0:0:0:0:
320,192,133179,1,0,0:0:0:0:
320,192,133407,1,0,0:0:0:0:
192,192,133634,1,0,0:0:0:0:
448,192,133634,1,0,0:0:0:0:
320,192,133861,1,0,0:0:0:0:
64,192,134088,1,0,0:0:0:0:
320,192,134088,1,0,0:0:0:0:
192,192,134316,1,0,0:0:0:0:
192,192,134543,1,0,0:0:0:0:
448,192,134543,1,0,0:0:0:0:
320,192,134770,1,0,0:0:0:0:
320,192,134997,1,0,0:0:0:0:
64,192,134997,1,0,0:0:0:0:
192,192,135225,1,0,0:0:0:0:
192,192,135452,1,0,0:0:0:0:
448,192,135452,1,0,0:0:0:0:
320,192,135679,1,0,0:0:0:0:
320,192,135907,1,0,0:0:0:0:
64,192,135907,1,0,0:0:0:0:
192,192,136134,1,0,0:0:0:0:
192,192,136361,1,0,0:0:0:0:
448,192,136361,1,0,0:0:0:0:
320,192,136588,1,0,0:0:0:0:
64,192,136816,1,0,0:0:0:0:
320,192,136816,1,0,0:0:0:0:
192,192,137043,1,0,0:0:0:0:
192,192,137270,1,0,0:0:0:0:
448,192,137270,1,0,0:0:0:0:
320,192,137497,1,0,0:0:0:0:
320,192,137725,1,0,0:0:0:0:
64,192,137725,1,0,0:0:0:0:
192,192,137952,1,0,0:0:0:0:
448,192,137952,1,0,0:0:0:0:
64,192,138179,128,0,138293:0:0:0:0:
448,192,138406,128,0,138520:0:0:0:0:
320,192,138634,128,0,138747:0:0:0:0:
64,192,138634,1,0,0:0:0:0:
192,192,138861,1,0,0:0:0:0:
64,192,139088,128,0,139316:0:0:0:0:
448,192,139543,1,0,0:0:0:0:
320,192,139543,1,0,0:0:0:0:
192,192,139770,1,0,0:0:0:0:
64,192,139997,128,0,140225:0:0:0:0:
320,192,140452,1,0,0:0:0:0:
448,192,140452,1,0,0:0:0:0:
64,192,140679,1,0,0:0:0:0:
448,192,140906,1,0,0:0:0:0:
192,192,141134,128,0,141361:0:0:0:0:
320,192,141588,1,0,0:0:0:0:
448,192,141816,1,0,0:0:0:0:
64,192,142043,1,0,0:0:0:0:
320,192,142270,1,0,0:0:0:0:
192,192,142497,1,0,0:0:0:0:
448,192,142725,128,0,143065:0:0:0:0:
64,192,143179,1,0,0:0:0:0:
320,192,143179,1,0,0:0:0:0:
320,192,143634,1,0,0:0:0:0:
64,192,143634,1,0,0:0:0:0:
192,192,143861,1,0,0:0:0:0:
64,192,144088,1,0,0:0:0:0:
448,192,144088,1,0,0:0:0:0:
192,192,144315,1,0,0:0:0:0:
448,192,144315,1,0,0:0:0:0:
320,192,144543,1,0,0:0:0:0:
64,192,144770,1,0,0:0:0:0:
448,192,144770,1,0,0:0:0:0:
448,192,144997,1,0,0:0:0:0:
192,192,145111,1,0,0:0:0:0:
448,192,145225,1,0,0:0:0:0:
192,192,145338,1,0,0:0:0:0:
320,192,145452,1,0,0:0:0:0:
64,192,145452,128,0,145793:0:0:0:0:
448,192,145906,128,0,146134:0:0:0:0:
192,192,145906,1,0,0:0:0:0:
320,192,146134,128,0,146702:0:0:0:0:
64,192,146361,1,0,0:0:0:0:
64,192,146815,128,0,147156:0:0:0:0:
320,192,146815,1,0,0:0:0:0:
192,192,147270,128,0,147611:0:0:0:0:
448,192,147270,1,0,0:0:0:0:
64,192,147725,1,0,0:0:0:0:
448,192,147725,128,0,148065:0:0:0:0:
192,192,147952,1,0,0:0:0:0:
64,192,148179,1,0,0:0:0:0:
320,192,148179,1,0,0:0:0:0:
192,192,148293,128,0,148861:0:0:0:0:
64,192,149088,1,0,0:0:0:0:
448,192,149088,1,0,0:0:0:0:
320,192,149315,1,0,0:0:0:0:
64,192,149543,1,0,0:0:0:0:
448,192,149656,1,0,0:0:0:0:
192,192,149770,1,0,0:0:0:0:
320,192,149884,1,0,0:0:0:0:
64,192,150224,1,0,0:0:0:0:
192,192,150452,1,0,0:0:0:0:
448,192,150906,1,0,0:0:0:0:
192,192,150906,1,0,0:0:0:0:
64,192,151134,1,0,0:0:0:0:
320,192,151247,1,0,0:0:0:0:
192,192,151361,1,0,0:0:0:0:
448,192,151474,1,0,0:0:0:0:
320,192,151815,128,0,152270:0:0:0:0:
64,192,151815,1,0,0:0:0:0:
192,192,152270,1,0,0:0:0:0:
448,192,152497,1,0,0:0:0:0:
64,192,152724,1,0,0:0:0:0:
320,192,152724,1,0,0:0:0:0:
320,192,152952,1,0,0:0:0:0:
192,192,153179,1,0,0:0:0:0:
448,192,153179,1,0,0:0:0:0:
320,192,153406,1,0,0:0:0:0:
64,192,153634,128,0,153747:0:0:0:0:
448,192,153634,1,0,0:0:0:0:
320,192,153861,1,0,0:0:0:0:
192,192,154088,1,0,0:0:0:0:
448,192,154088,1,0,0:0:0:0:
64,192,154543,1,0,0:0:0:0:
448,192,154543,1,0,0:0:0:0:
320,192,154770,1,0,0:0:0:0:
192,192,154997,128,0,155111:0:0:0:0:
64,192,155224,1,0,0:0:0:0:
320,192,155452,128,0,155565:0:0:0:0:
320,192,155679,1,0,0:0:0:0:
64,192,155679,1,0,0:0:0:0:
448,192,155793,128,0,156133:0:0:0:0:
64,192,156361,1,0,0:0:0:0:
448,192,156361,1,0,0:0:0:0:
320,192,156588,1,0,0:0:0:0:
192,192,156815,1,0,0:0:0:0:
448,192,156815,1,0,0:0:0:0:
64,192,157043,1,0,0:0:0:0:
320,192,157270,1,0,0:0:0:0:
64,192,157497,1,0,0:0:0:0:
448,192,157611,1,0,0:0:0:0:
192,192,157724,1,0,0:0:0:0:
192,192,157952,1,0,0:0:0:0:
64,192,158179,1,0,0:0:0:0:
320,192,158179,1,0,0:0:0:0:
448,192,158406,1,0,0:0:0:0:
64,192,158633,1,0,0:0:0:0:
320,192,158633,1,0,0:0:0:0:
448,192,158861,1,0,0:0:0:0:
64,192,159088,1,0,0:0:0:0:
320,192,159088,1,0,0:0:0:0:
448,192,159315,1,0,0:0:0:0:
192,192,159543,1,0,0:0:0:0:
448,192,159543,1,0,0:0:0:0:
448,192,159656,1,0,0:0:0:0:
192,192,159656,1,0,0:0:0:0:
192,192,159770,1,0,0:0:0:0:
448,192,159770,1,0,0:0:0:0:
448,192,159883,1,0,0:0:0:0:
192,192,159883,1,0,0:0:0:0:
64,192,159997,1,0,0:0:0:0:
448,192,159997,1,0,0:0:0:0:
320,192,160452,1,0,0:0:0:0:
192,192,160679,1,0,0:0:0:0:
448,192,160906,1,0,0:0:0:0:
320,192,161133,1,0,0:0:0:0:
64,192,161361,1,0,0:0:0:0:
192,192,161588,128,0,161815:0:0:0:0:
448,192,161815,1,0,0:0:0:0:
64,192,162042,1,0,0:0:0:0:
448,192,162497,1,0,0:0:0:0:
192,192,162724,1,0,0:0:0:0:
64,192,162952,1,0,0:0:0:0:
320,192,163179,128,0,163406:0:0:0:0:
64,192,163633,1,0,0:0:0:0:
448,192,163633,1,0,0:0:0:0:
320,192,164088,1,0,0:0:0:0:
64,192,164315,1,0,0:0:0:0:
448,192,164542,1,0,0:0:0:0:
192,192,164770,1,0,0:0:0:0:
320,192,164997,1,0,0:0:0:0:
64,192,165224,128,0,165452:0:0:0:0:
448,192,165452,1,0,0:0:0:0:
320,192,165679,1,0,0:0:0:0:
64,192,166133,1,0,0:0:0:0:
320,192,166361,1,0,0:0:0:0:
192,192,166588,1,0,0:0:0:0:
448,192,166815,128,0,167042:0:0:0:0:
64,192,167270,1,0,0:0:0:0:
320,192,167270,1,0,0:0:0:0:
64,192,167611,1,0,0:0:0:0:
320,192,167611,1,0,0:0:0:0:
320,192,167951,1,0,0:0:0:0:
64,192,167951,1,0,0:0:0:0:
320,192,168406,1,0,0:0:0:0:
64,192,168520,1,0,0:0:0:0:
192,192,168633,1,0,0:0:0:0:
448,192,168633,1,0,0:0:0:0:
320,192,168747,1,0,0:0:0:0:
64,192,169088,1,0,0:0:0:0:
448,192,169088,1,0,0:0:0:0:
448,192,169542,1,0,0:0:0:0:
64,192,169770,1,0,0:0:0:0:
448,192,169997,1,0,0:0:0:0:
192,192,170224,1,0,0:0:0:0:
320,192,170451,128,0,170679:0:0:0:0:
64,192,170906,1,0,0:0:0:0:
448,192,170906,1,0,0:0:0:0:
192,192,171247,1,0,0:0:0:0:
448,192,171247,1,0,0:0:0:0:
448,192,171588,1,0,0:0:0:0:
192,192,171588,1,0,0:0:0:0:
192,192,172042,1,0,0:0:0:0:
64,192,172156,1,0,0:0:0:0:
320,192,172270,1,0,0:0:0:0:
448,192,172270,1,0,0:0:0:0:
192,192,172383,1,0,0:0:0:0:
64,192,172724,1,0,0:0:0:0:
448,192,172724,1,0,0:0:0:0:
192,192,173179,1,0,0:0:0:0:
192,192,173633,1,0,0:0:0:0:
192,192,174088,1,0,0:0:0:0:
448,192,174542,1,0,0:0:0:0:
64,192,174542,128,0,175906:0:0:0:0:
448,192,174997,1,0,0:0:0:0:
448,192,175451,1,0,0:0:0:0:
320,192,175906,128,0,176133:0:0:0:0:
448,192,175906,1,0,0:0:0:0:
192,192,176133,128,0,177042:0:0:0:0:
448,192,176360,1,0,0:0:0:0:
320,192,176815,1,0,0:0:0:0:
64,192,177042,128,0,177270:0:0:0:0:
448,192,177270,128,0,177497:0:0:0:0:
320,192,177270,1,0,0:0:0:0:
64,192,177497,128,0,177724:0:0:0:0:
192,192,177724,128,0,177951:0:0:0:0:
320,192,177724,1,0,0:0:0:0:
320,192,177951,128,0,178179:0:0:0:0:
448,192,178179,128,0,178406:0:0:0:0:
64,192,178179,1,0,0:0:0:0:
320,192,178633,128,0,178860:0:0:0:0:
64,192,178633,1,0,0:0:0:0:
192,192,178860,128,0,179542:0:0:0:0:
64,192,179088,1,0,0:0:0:0:
448,192,179542,128,0,179769:0:0:0:0:
64,192,179542,1,0,0:0:0:0:
320,192,179769,128,0,180906:0:0:0:0:
192,192,179997,1,0,0:0:0:0:
192,192,180451,1,0,0:0:0:0:
448,192,180906,128,0,181133:0:0:0:0:
192,192,180906,1,0,0:0:0:0:
320,192,181133,128,0,181360:0:0:0:0:
192,192,181360,128,0,181588:0:0:0:0:
448,192,181360,1,0,0:0:0:0:
64,192,181588,128,0,181815:0:0:0:0:
448,192,181815,128,0,182042:0:0:0:0:
320,192,181815,1,0,0:0:0:0:
64,192,182042,1,0,0:0:0:0:
448,192,182269,128,0,182497:0:0:0:0:
320,192,182269,1,0,0:0:0:0:
64,192,182497,128,0,182724:0:0:0:0:
192,192,182497,1,0,0:0:0:0:
320,192,182724,128,0,183179:0:0:0:0:
448,192,182724,1,0,0:0:0:0:
192,192,182951,1,0,0:0:0:0:
448,192,183179,128,0,183406:0:0:0:0:
64,192,183179,1,0,0:0:0:0:
320,192,183406,128,0,184315:0:0:0:0:
192,192,183406,1,0,0:0:0:0:
64,192,183633,1,0,0:0:0:0:
448,192,183860,1,0,0:0:0:0:
192,192,184088,1,0,0:0:0:0:
64,192,184315,128,0,184542:0:0:0:0:
448,192,184542,128,0,184769:0:0:0:0:
320,192,184542,1,0,0:0:0:0:
320,192,184769,128,0,184997:0:0:0:0:
64,192,184769,1,0,0:0:0:0:
192,192,184997,128,0,185224:0:0:0:0:
448,192,184997,1,0,0:0:0:0:
64,192,185224,128,0,185451:0:0:0:0:
320,192,185224,1,0,0:0:0:0:
448,192,185451,1,0,0:0:0:0:
192,192,185565,1,0,0:0:0:0:
320,192,185678,1,0,0:0:0:0:
64,192,185792,1,0,0:0:0:0:
192,192,185906,1,0,0:0:0:0:
448,192,186019,1,0,0:0:0:0:
192,192,186133,1,0,0:0:0:0:
320,192,186247,1,0,0:0:0:0:
64,192,186360,1,0,0:0:0:0:
192,192,186474,1,0,0:0:0:0:
448,192,186588,1,0,0:0:0:0:
192,192,186701,1,0,0:0:0:0:
320,192,186815,1,0,0:0:0:0:
64,192,186928,1,0,0:0:0:0:
192,192,187042,1,0,0:0:0:0:
320,192,187156,1,0,0:0:0:0:
64,192,187269,128,0,187497:0:0:0:0:
448,192,187269,128,0,187497:0:0:0:0:
192,192,187724,128,0,187951:0:0:0:0:
448,192,187724,128,0,187951:0:0:0:0:
64,192,188178,128,0,188406:0:0:0:0:
320,192,188178,128,0,188406:0:0:0:0:
192,192,188633,128,0,188860:0:0:0:0:
320,192,188633,128,0,188860:0:0:0:0:
448,192,189088,128,0,189315:0:0:0:0:
192,192,189088,128,0,189315:0:0:0:0:
192,192,189542,128,0,189656:0:0:0:0:
448,192,189542,128,0,189656:0:0:0:0:
320,192,189769,128,0,190337:0:0:0:0:
64,192,189769,128,0,190337:0:0:0:0:
192,192,190451,128,0,190565:0:0:0:0:
192,192,190678,128,0,191474:0:0:0:0:
448,192,190678,128,0,191474:0:0:0:0:
64,192,191587,128,0,191815:0:0:0:0:
448,192,191815,128,0,192042:0:0:0:0:
64,192,192042,128,0,192269:0:0:0:0:
192,192,192269,128,0,192497:0:0:0:0:
320,192,192497,128,0,192724:0:0:0:0:
448,192,192724,128,0,192951:0:0:0:0:
192,192,192724,128,0,192951:0:0:0:0:
64,192,193178,128,0,193292:0:0:0:0:
320,192,193178,128,0,193292:0:0:0:0:
192,192,193406,128,0,193974:0:0:0:0:
320,192,193406,128,0,193974:0:0:0:0:
320,192,194087,128,0,194201:0:0:0:0:
448,192,194087,128,0,194201:0:0:0:0:
320,192,194315,128,0,195451:0:0:0:0:
64,192,194315,128,0,195451:0:0:0:0:
448,192,195451,128,0,195678:0:0:0:0:
320,192,195678,128,0,195906:0:0:0:0:
192,192,195906,128,0,196133:0:0:0:0:
64,192,196133,128,0,196360:0:0:0:0:
448,192,196360,128,0,196587:0:0:0:0:
192,192,196360,128,0,196587:0:0:0:0:
192,192,196815,128,0,196928:0:0:0:0:
448,192,196815,128,0,196928:0:0:0:0:
320,192,197042,128,0,197610:0:0:0:0:
64,192,197042,128,0,197610:0:0:0:0:
192,192,197724,128,0,197837:0:0:0:0:
192,192,197951,128,0,198860:0:0:0:0:
448,192,197951,128,0,198860:0:0:0:0:
64,192,198860,128,0,199087:0:0:0:0:
448,192,199087,128,0,199315:0:0:0:0:
320,192,199315,128,0,199542:0:0:0:0:
192,192,199542,128,0,199769:0:0:0:0:
64,192,199769,128,0,199996:0:0:0:0:
192,192,199996,128,0,200224:0:0:0:0:
448,192,199996,128,0,200224:0:0:0:0:
320,192,200337,128,0,200451:0:0:0:0:
320,192,200678,128,0,201246:0:0:0:0:
64,192,200678,128,0,201246:0:0:0:0:
448,192,201360,128,0,201474:0:0:0:0:
320,192,201360,128,0,201474:0:0:0:0:
320,192,201701,128,0,201815:0:0:0:0:
192,192,201815,1,0,0:0:0:0:
64,192,201928,1,0,0:0:0:0:
448,192,202042,1,0,0:0:0:0:
320,192,202155,1,0,0:0:0:0:
64,192,202269,1,0,0:0:0:0:
320,192,202383,1,0,0:0:0:0:
192,192,202496,1,0,0:0:0:0:
448,192,202610,1,0,0:0:0:0:
64,192,202724,1,0,0:0:0:0:
320,192,202837,1,0,0:0:0:0:
192,192,202951,1,0,0:0:0:0:
320,192,203065,1,0,0:0:0:0:
64,192,203178,1,0,0:0:0:0:
448,192,203178,1,0,0:0:0:0:
64,192,203633,1,0,0:0:0:0:
448,192,203633,128,0,203860:0:0:0:0:
320,192,204087,1,0,0:0:0:0:
192,192,204087,128,0,204315:0:0:0:0:
64,192,204315,1,0,0:0:0:0:
448,192,204315,128,0,204996:0:0:0:0:
320,192,204542,1,0,0:0:0:0:
192,192,204769,1,0,0:0:0:0:
64,192,204996,1,0,0:0:0:0:
192,192,204996,128,0,205224:0:0:0:0:
320,192,205224,128,0,205905:0:0:0:0:
448,192,205451,1,0,0:0:0:0:
64,192,205678,1,0,0:0:0:0:
192,192,205905,128,0,206133:0:0:0:0:
448,192,206133,1,0,0:0:0:0:
64,192,206133,128,0,206360:0:0:0:0:
448,192,206360,128,0,206587:0:0:0:0:
192,192,206360,1,0,0:0:0:0:
64,192,206587,1,0,0:0:0:0:
320,192,206587,128,0,206815:0:0:0:0:
192,192,206815,128,0,207042:0:0:0:0:
64,192,207042,128,0,207269:0:0:0:0:
320,192,207269,128,0,207496:0:0:0:0:
448,192,207269,1,0,0:0:0:0:
320,192,207724,128,0,207951:0:0:0:0:
64,192,207724,1,0,0:0:0:0:
448,192,207951,1,0,0:0:0:0:
192,192,207951,128,0,208633:0:0:0:0:
64,192,208178,1,0,0:0:0:0:
320,192,208405,1,0,0:0:0:0:
448,192,208633,128,0,208860:0:0:0:0:
64,192,208633,1,0,0:0:0:0:
320,192,208860,128,0,209542:0:0:0:0:
64,192,209087,1,0,0:0:0:0:
192,192,209314,1,0,0:0:0:0:
192,192,209542,128,0,209769:0:0:0:0:
448,192,209769,1,0,0:0:0:0:
64,192,209769,128,0,209996:0:0:0:0:
448,192,209996,128,0,210224:0:0:0:0:
320,192,209996,1,0,0:0:0:0:
320,192,210224,128,0,210451:0:0:0:0:
64,192,210224,1,0,0:0:0:0:
192,192,210451,128,0,210678:0:0:0:0:
448,192,210451,1,0,0:0:0:0:
64,192,210678,128,0,210905:0:0:0:0:
320,192,210905,128,0,211133:0:0:0:0:
448,192,211360,128,0,211474:0:0:0:0:
192,192,211360,128,0,211474:0:0:0:0:
192,192,211587,128,0,211701:0:0:0:0:
64,192,211587,128,0,212269:0:0:0:0:
320,192,211814,128,0,211928:0:0:0:0:
448,192,212042,128,0,212155:0:0:0:0:
448,192,212269,128,0,212383:0:0:0:0:
192,192,212269,128,0,212496:0:0:0:0:
64,192,212496,128,0,212724:0:0:0:0:
320,192,212496,128,0,213178:0:0:0:0:
448,192,212837,128,0,212951:0:0:0:0:
192,192,213178,128,0,213405:0:0:0:0:
64,192,213405,128,0,213633:0:0:0:0:
320,192,213405,128,0,213519:0:0:0:0:
448,192,213633,128,0,213860:0:0:0:0:
192,192,213633,128,0,213746:0:0:0:0:
320,192,213860,128,0,214087:0:0:0:0:
64,192,213860,128,0,213973:0:0:0:0:
192,192,214087,128,0,214314:0:0:0:0:
448,192,214087,128,0,214314:0:0:0:0:
64,192,214314,128,0,214542:0:0:0:0:
192,192,214542,128,0,214655:0:0:0:0:
320,192,214542,128,0,214769:0:0:0:0:
64,192,214996,128,0,215223:0:0:0:0:
320,192,214996,128,0,215110:0:0:0:0:
320,192,215223,128,0,215905:0:0:0:0:
448,192,215223,128,0,215337:0:0:0:0:
448,192,215451,128,0,215564:0:0:0:0:
64,192,215678,128,0,215792:0:0:0:0:
448,192,215905,128,0,216133:0:0:0:0:
192,192,215905,128,0,216019:0:0:0:0:
320,192,216133,128,0,216360:0:0:0:0:
64,192,216360,1,0,0:0:0:0:
192,192,216473,1,0,0:0:0:0:
320,192,216701,1,0,0:0:0:0:
192,192,216814,1,0,0:0:0:0:
448,192,216814,1,0,0:0:0:0:
64,192,216928,1,0,0:0:0:0:
320,192,217042,1,0,0:0:0:0:
192,192,217155,1,0,0:0:0:0:
448,192,217269,1,0,0:0:0:0:
64,192,217383,1,0,0:0:0:0:
320,192,217496,1,0,0:0:0:0:
192,192,217610,1,0,0:0:0:0:
448,192,217723,1,0,0:0:0:0:
64,192,217723,1,0,0:0:0:0:
192,192,217837,1,0,0:0:0:0:
320,192,217951,1,0,0:0:0:0:
64,192,218178,128,0,219542:0:0:0:0:
448,192,218178,128,0,218973:0:0:0:0:
320,192,219087,128,0,219428:0:0:0:0:
192,192,219542,1,0,0:0:0:0:
