osu file format v14

[General]
AudioFilename: audio.ogg
AudioLeadIn: 0
PreviewTime: 27342
Countdown: 0
SampleSet: Soft
StackLeniency: 0.7
Mode: 3
LetterboxInBreaks: 0
SpecialStyle: 1
WidescreenStoryboard: 1

[Editor]
DistanceSpacing: 1
BeatDivisor: 2
GridSize: 8
TimelineZoom: 1.2

[Metadata]
Title:cosine theta
TitleUnicode:cosθ
Artist:P.Lin*
ArtistUnicode:P.Lin*
Creator:Ryu Sei
Version:Normal
Source:Shooter's Festival 2015
Tags:5K+1 5+1 N+1 special style scratch SF2015 CTP Studio Peppermint Lin K-Shoot MANIA KSM electronic instrumental trance video game
BeatmapID:4373829
BeatmapSetID:2087266

[Difficulty]
HPDrainRate:7
CircleSize:6
OverallDifficulty:7
ApproachRate:5
SliderMultiplier:1.4
SliderTickRate:1

[Events]
//Background and Video events
0,0,"__ia_vocaloid_drawn_by_matsuike__a5302fffc65954a773941d23ddbc6805.jpg",0,0
//Break Periods
//Storyboard Layer 0 (Background)
//Storyboard Layer 1 (Fail)
//Storyboard Layer 2 (Pass)
//Storyboard Layer 3 (Foreground)
//Storyboard Layer 4 (Overlay)
//Storyboard Sound Samples

[TimingPoints]
108,425.531914893617,4,2,1,75,1,0

[HitObjects]
128,192,108,5,0,0:0:0:0:
298,192,320,1,0,0:0:0:0:
384,192,533,1,8,0:0:0:0:
298,192,746,1,0,0:0:0:0:
298,192,1171,1,0,0:0:0:0:
384,192,1384,1,8,0:0:0:0:
298,192,1597,1,0,0:0:0:0:
298,192,2022,1,0,0:0:0:0:
213,192,2235,1,8,0:0:0:0:
298,192,2448,1,0,0:0:0:0:
298,192,2873,1,0,0:0:0:0:
213,192,3086,1,8,0:0:0:0:
298,192,3299,1,0,0:0:0:0:
469,192,3725,1,0,0:0:0:0:
298,192,3937,1,8,0:0:0:0:
469,192,4150,1,0,0:0:0:0:
469,192,4576,1,0,0:0:0:0:
298,192,4788,1,8,0:0:0:0:
469,192,5001,1,0,0:0:0:0:
128,192,5427,1,0,0:0:0:0:
298,192,5639,1,8,0:0:0:0:
128,192,5852,1,0,0:0:0:0:
128,192,6278,1,0,0:0:0:0:
298,192,6490,1,8,0:0:0:0:
128,192,6703,1,0,0:0:0:0:
298,192,7129,1,0,0:0:0:0:
213,192,7342,1,8,0:0:0:0:
298,192,7554,1,0,0:0:0:0:
298,192,7980,1,0,0:0:0:0:
213,192,8193,1,8,0:0:0:0:
298,192,8405,1,0,0:0:0:0:
298,192,8831,1,0,0:0:0:0:
384,192,9044,1,8,0:0:0:0:
298,192,9256,1,0,0:0:0:0:
298,192,9682,1,0,0:0:0:0:
384,192,9895,1,8,0:0:0:0:
298,192,10108,1,0,0:0:0:0:
128,192,10533,1,0,0:0:0:0:
298,192,10746,1,8,0:0:0:0:
128,192,10959,1,0,0:0:0:0:
128,192,11384,1,0,0:0:0:0:
298,192,11597,1,8,0:0:0:0:
128,192,11810,1,0,0:0:0:0:
469,192,12235,1,0,0:0:0:0:
298,192,12448,1,8,0:0:0:0:
469,192,12661,1,0,0:0:0:0:
469,192,13086,1,0,0:0:0:0:
298,192,13299,1,8,0:0:0:0:
469,192,13512,1,0,0:0:0:0:
128,192,13725,1,0,0:0:0:0:
384,192,13937,1,0,0:0:0:0:
298,192,14044,1,0,0:0:0:0:
128,192,14363,1,0,0:0:0:0:
298,192,14576,1,0,0:0:0:0:
384,192,14682,1,0,0:0:0:0:
213,192,15001,1,0,0:0:0:0:
298,192,15214,1,0,0:0:0:0:
469,192,15427,1,0,0:0:0:0:
469,192,15746,1,0,0:0:0:0:
469,192,16065,1,0,0:0:0:0:
384,192,16278,1,0,0:0:0:0:
298,192,16597,1,0,0:0:0:0:
213,192,16916,1,0,0:0:0:0:
469,192,17129,1,0,0:0:0:0:
213,192,17342,1,0,0:0:0:0:
298,192,17448,1,0,0:0:0:0:
469,192,17767,1,0,0:0:0:0:
298,192,17980,1,0,0:0:0:0:
213,192,18086,1,0,0:0:0:0:
384,192,18405,1,0,0:0:0:0:
298,192,18618,1,0,0:0:0:0:
128,192,18831,1,0,0:0:0:0:
128,192,19150,1,0,0:0:0:0:
128,192,19469,1,0,0:0:0:0:
213,192,19682,1,0,0:0:0:0:
298,192,20001,1,0,0:0:0:0:
384,192,20320,1,0,0:0:0:0:
128,192,20533,1,0,0:0:0:0:
298,192,20746,1,0,0:0:0:0:
469,192,20852,1,0,0:0:0:0:
128,192,21171,1,0,0:0:0:0:
469,192,21384,1,0,0:0:0:0:
298,192,21490,1,0,0:0:0:0:
128,192,21810,1,0,0:0:0:0:
213,192,22022,1,0,0:0:0:0:
469,192,22235,1,0,0:0:0:0:
384,192,22554,1,0,0:0:0:0:
298,192,22873,1,0,0:0:0:0:
213,192,23086,1,0,0:0:0:0:
384,192,23405,1,0,0:0:0:0:
298,192,23725,1,0,0:0:0:0:
469,192,23937,1,0,0:0:0:0:
298,192,24150,1,0,0:0:0:0:
128,192,24256,1,0,0:0:0:0:
469,192,24576,1,0,0:0:0:0:
128,192,24788,1,0,0:0:0:0:
298,192,24895,1,0,0:0:0:0:
469,192,25214,1,0,0:0:0:0:
384,192,25427,1,0,0:0:0:0:
128,192,25639,1,0,0:0:0:0:
213,192,25959,1,0,0:0:0:0:
298,192,26278,5,0,0:0:0:0:
384,192,26490,1,2,0:0:0:0:
213,192,26703,1,2,0:0:0:0:
384,192,26916,1,2,0:0:0:0:
213,192,27129,1,2,0:0:0:0:
42,192,27342,5,4,0:0:0:0:
469,192,27342,1,2,0:0:0:0:
298,192,27554,1,0,0:0:0:0:
213,192,27767,1,8,0:0:0:0:
469,192,27767,1,2,0:0:0:0:
384,192,27980,1,0,0:0:0:0:
128,192,28193,1,2,0:0:0:0:
469,192,28193,1,0,0:0:0:0:
298,192,28405,1,0,0:0:0:0:
384,192,28618,1,2,0:0:0:0:
469,192,28618,1,8,0:0:0:0:
128,192,28831,1,0,0:0:0:0:
213,192,29044,1,2,0:0:0:0:
298,192,29044,1,0,0:0:0:0:
469,192,29256,1,0,0:0:0:0:
298,192,29469,1,8,0:0:0:0:
213,192,29469,1,2,0:0:0:0:
128,192,29682,1,0,0:0:0:0:
384,192,29895,1,2,0:0:0:0:
469,192,29895,1,0,0:0:0:0:
128,192,30107,1,0,0:0:0:0:
213,192,30320,1,2,0:0:0:0:
469,192,30320,1,8,0:0:0:0:
384,192,30533,1,0,0:0:0:0:
128,192,30746,1,2,0:0:0:0:
213,192,30746,1,0,0:0:0:0:
298,192,30959,1,0,0:0:0:0:
384,192,31171,1,8,0:0:0:0:
128,192,31171,1,2,0:0:0:0:
213,192,31384,1,0,0:0:0:0:
469,192,31597,1,2,0:0:0:0:
128,192,31597,1,0,0:0:0:0:
298,192,31810,1,0,0:0:0:0:
213,192,32022,1,2,0:0:0:0:
128,192,32022,1,8,0:0:0:0:
469,192,32235,1,0,0:0:0:0:
384,192,32448,1,2,0:0:0:0:
298,192,32448,1,0,0:0:0:0:
128,192,32661,1,0,0:0:0:0:
298,192,32873,1,8,0:0:0:0:
384,192,32873,1,2,0:0:0:0:
469,192,33086,1,0,0:0:0:0:
213,192,33299,1,2,0:0:0:0:
128,192,33299,1,0,0:0:0:0:
469,192,33512,1,0,0:0:0:0:
384,192,33725,1,2,0:0:0:0:
128,192,33725,1,8,0:0:0:0:
298,192,33937,1,0,0:0:0:0:
469,192,34150,1,2,0:0:0:0:
128,192,34150,1,0,0:0:0:0:
298,192,34363,1,0,0:0:0:0:
384,192,34576,1,8,0:0:0:0:
469,192,34576,1,2,0:0:0:0:
213,192,34788,1,0,0:0:0:0:
128,192,35001,1,2,0:0:0:0:
469,192,35001,1,0,0:0:0:0:
298,192,35214,1,0,0:0:0:0:
213,192,35427,1,2,0:0:0:0:
469,192,35427,1,8,0:0:0:0:
128,192,35639,1,0,0:0:0:0:
384,192,35852,1,2,0:0:0:0:
298,192,35852,1,0,0:0:0:0:
469,192,36065,1,0,0:0:0:0:
298,192,36278,1,8,0:0:0:0:
128,192,36278,1,2,0:0:0:0:
384,192,36490,1,0,0:0:0:0:
213,192,36703,1,2,0:0:0:0:
298,192,36703,1,0,0:0:0:0:
128,192,36916,1,0,0:0:0:0:
384,192,37129,1,2,0:0:0:0:
469,192,37129,1,8,0:0:0:0:
213,192,37342,1,0,0:0:0:0:
128,192,37554,1,2,0:0:0:0:
469,192,37554,1,0,0:0:0:0:
298,192,37767,1,0,0:0:0:0:
213,192,37980,1,8,0:0:0:0:
128,192,37980,1,2,0:0:0:0:
384,192,38193,1,0,0:0:0:0:
469,192,38405,1,2,0:0:0:0:
128,192,38405,1,0,0:0:0:0:
298,192,38618,1,0,0:0:0:0:
384,192,38831,1,2,0:0:0:0:
128,192,38831,1,8,0:0:0:0:
469,192,39044,1,0,0:0:0:0:
213,192,39256,1,2,0:0:0:0:
384,192,39256,1,0,0:0:0:0:
128,192,39469,1,0,0:0:0:0:
298,192,39682,1,8,0:0:0:0:
469,192,39682,1,2,0:0:0:0:
213,192,39895,1,0,0:0:0:0:
384,192,40108,1,2,0:0:0:0:
128,192,40108,1,0,0:0:0:0:
469,192,40320,1,0,0:0:0:0:
213,192,40533,1,2,0:0:0:0:
128,192,40533,1,8,0:0:0:0:
298,192,40746,1,0,0:0:0:0:
469,192,40959,1,2,0:0:0:0:
384,192,40959,1,0,0:0:0:0:
128,192,41171,1,0,0:0:0:0:
213,192,41384,1,8,0:0:0:0:
384,192,41384,1,2,0:0:0:0:
469,192,41597,1,0,0:0:0:0:
128,192,41810,1,2,0:0:0:0:
384,192,41810,1,0,0:0:0:0:
298,192,42022,1,0,0:0:0:0:
128,192,42235,1,2,0:0:0:0:
469,192,42235,1,8,0:0:0:0:
213,192,42448,1,0,0:0:0:0:
384,192,42661,1,2,0:0:0:0:
128,192,42661,1,0,0:0:0:0:
298,192,42873,1,0,0:0:0:0:
213,192,43086,1,8,0:0:0:0:
469,192,43086,1,2,0:0:0:0:
384,192,43299,1,0,0:0:0:0:
128,192,43512,1,2,0:0:0:0:
298,192,43512,1,0,0:0:0:0:
213,192,43725,1,0,0:0:0:0:
298,192,43937,1,2,0:0:0:0:
469,192,43937,1,8,0:0:0:0:
128,192,44150,1,0,0:0:0:0:
384,192,44363,1,2,0:0:0:0:
469,192,44363,1,0,0:0:0:0:
213,192,44576,1,0,0:0:0:0:
298,192,44788,1,2,0:0:0:0:
128,192,44788,1,8,0:0:0:0:
384,192,45001,1,0,0:0:0:0:
469,192,45214,1,2,0:0:0:0:
213,192,45214,1,0,0:0:0:0:
298,192,45427,1,0,0:0:0:0:
213,192,45639,1,8,0:0:0:0:
128,192,45639,1,2,0:0:0:0:
384,192,45852,1,0,0:0:0:0:
128,192,46065,1,2,0:0:0:0:
469,192,46065,1,0,0:0:0:0:
213,192,46278,1,0,0:0:0:0:
298,192,46490,1,2,0:0:0:0:
469,192,46490,1,8,0:0:0:0:
128,192,46703,1,0,0:0:0:0:
384,192,46916,1,2,0:0:0:0:
298,192,46916,1,0,0:0:0:0:
213,192,47129,1,0,0:0:0:0:
298,192,47342,1,2,0:0:0:0:
469,192,47342,1,8,0:0:0:0:
384,192,47554,1,0,0:0:0:0:
128,192,47767,1,2,0:0:0:0:
298,192,47767,1,0,0:0:0:0:
469,192,47980,1,0,0:0:0:0:
384,192,48193,1,8,0:0:0:0:
213,192,48193,1,2,0:0:0:0:
298,192,48405,1,0,0:0:0:0:
469,192,48618,1,2,0:0:0:0:
128,192,48618,1,0,0:0:0:0:
298,192,48831,1,0,0:0:0:0:
469,192,49044,1,2,0:0:0:0:
128,192,49044,1,8,0:0:0:0:
384,192,49256,1,0,0:0:0:0:
213,192,49469,1,2,0:0:0:0:
469,192,49469,1,0,0:0:0:0:
298,192,49682,1,0,0:0:0:0:
384,192,49895,1,8,0:0:0:0:
128,192,49895,1,2,0:0:0:0:
213,192,50108,1,0,0:0:0:0:
469,192,50320,1,2,0:0:0:0:
298,192,50320,1,0,0:0:0:0:
384,192,50533,1,0,0:0:0:0:
298,192,50746,1,2,0:0:0:0:
128,192,50746,1,8,0:0:0:0:
469,192,50959,1,0,0:0:0:0:
213,192,51171,1,2,0:0:0:0:
128,192,51171,1,0,0:0:0:0:
384,192,51384,1,0,0:0:0:0:
128,192,51597,1,2,0:0:0:0:
469,192,51597,1,8,0:0:0:0:
298,192,51810,1,0,0:0:0:0:
128,192,52022,1,2,0:0:0:0:
469,192,52022,1,0,0:0:0:0:
298,192,52235,1,0,0:0:0:0:
384,192,52448,1,8,0:0:0:0:
469,192,52448,1,2,0:0:0:0:
298,192,52661,1,0,0:0:0:0:
128,192,52873,1,8,0:0:0:0:
213,192,53086,1,8,0:0:0:0:
384,192,53299,1,8,0:0:0:0:
469,192,53512,5,8,0:0:0:0:
128,192,53725,128,8,53937:0:0:0:0:
213,192,53937,128,8,54150:0:0:0:0:
384,192,54150,128,8,54363:0:0:0:0:
469,192,54363,128,8,54576:0:0:0:0:
42,192,54576,5,4,0:0:0:0:
298,192,54788,1,0,0:0:0:0:
42,192,55001,1,8,1:0:0:0:
213,192,55001,1,0,0:0:0:0:
384,192,55214,1,0,0:0:0:0:
298,192,55427,1,0,0:0:0:0:
42,192,55852,1,8,1:0:0:0:
213,192,55852,1,0,0:0:0:0:
298,192,56065,1,0,0:0:0:0:
384,192,56278,1,0,0:0:0:0:
469,192,56490,1,0,0:0:0:0:
42,192,56703,1,8,1:0:0:0:
213,192,56703,1,0,0:0:0:0:
384,192,57129,1,0,0:0:0:0:
298,192,57342,1,0,0:0:0:0:
42,192,57554,1,8,1:0:0:0:
213,192,57554,1,0,0:0:0:0:
384,192,57767,1,0,0:0:0:0:
469,192,57980,1,0,0:0:0:0:
298,192,58193,1,0,0:0:0:0:
42,192,58405,1,8,1:0:0:0:
213,192,58405,1,0,0:0:0:0:
128,192,58618,1,0,0:0:0:0:
384,192,59044,1,0,0:0:0:0:
42,192,59256,1,8,1:0:0:0:
213,192,59256,1,0,0:0:0:0:
298,192,59469,1,0,0:0:0:0:
384,192,59682,1,0,0:0:0:0:
469,192,59895,1,0,0:0:0:0:
42,192,60107,1,8,1:0:0:0:
469,192,60107,1,0,0:0:0:0:
298,192,60533,1,0,0:0:0:0:
384,192,60746,1,0,0:0:0:0:
42,192,60959,1,8,1:0:0:0:
213,192,60959,1,0,0:0:0:0:
128,192,61171,1,0,0:0:0:0:
298,192,61384,1,0,0:0:0:0:
469,192,61597,1,0,0:0:0:0:
384,192,61810,1,0,0:0:0:0:
42,192,61810,1,8,1:0:0:0:
128,192,62022,1,0,0:0:0:0:
298,192,62235,1,0,0:0:0:0:
42,192,62661,1,8,1:0:0:0:
469,192,62661,1,0,0:0:0:0:
384,192,62873,1,0,0:0:0:0:
298,192,63299,1,0,0:0:0:0:
42,192,63512,1,8,1:0:0:0:
128,192,63725,1,0,0:0:0:0:
469,192,63937,1,0,0:0:0:0:
298,192,64150,1,0,0:0:0:0:
42,192,64363,1,8,1:0:0:0:
384,192,64363,1,0,0:0:0:0:
213,192,64576,1,0,0:0:0:0:
128,192,64788,1,0,0:0:0:0:
213,192,65001,1,0,0:0:0:0:
384,192,65214,1,0,0:0:0:0:
42,192,65214,1,8,1:0:0:0:
469,192,65427,1,0,0:0:0:0:
384,192,65639,1,0,0:0:0:0:
298,192,65852,1,0,0:0:0:0:
42,192,66065,1,8,1:0:0:0:
128,192,66065,1,0,0:0:0:0:
469,192,66278,1,0,0:0:0:0:
298,192,66703,1,0,0:0:0:0:
384,192,66916,1,0,0:0:0:0:
42,192,66916,1,8,1:0:0:0:
298,192,67129,1,0,0:0:0:0:
128,192,67554,1,0,0:0:0:0:
42,192,67767,1,8,1:0:0:0:
213,192,67767,1,0,0:0:0:0:
384,192,67980,1,0,0:0:0:0:
469,192,68193,1,2,0:0:0:0:
42,192,68618,1,8,1:0:0:0:
384,192,68725,1,0,0:0:0:0:
213,192,68831,1,0,0:0:0:0:
384,192,69044,1,0,0:0:0:0:
298,192,69256,1,0,0:0:0:0:
42,192,69469,1,8,1:0:0:0:
213,192,69469,1,0,0:0:0:0:
128,192,69682,1,0,0:0:0:0:
384,192,69895,1,0,0:0:0:0:
298,192,70108,1,0,0:0:0:0:
42,192,70320,1,8,1:0:0:0:
128,192,70320,1,0,0:0:0:0:
469,192,70533,1,0,0:0:0:0:
384,192,70746,1,0,0:0:0:0:
213,192,70959,1,0,0:0:0:0:
42,192,71171,1,8,1:0:0:0:
298,192,71171,1,0,0:0:0:0:
469,192,71384,1,0,0:0:0:0:
128,192,71597,1,2,0:0:0:0:
213,192,71810,1,0,0:0:0:0:
42,192,72022,1,8,1:0:0:0:
384,192,72022,1,0,0:0:0:0:
298,192,72235,1,0,0:0:0:0:
213,192,72448,1,0,0:0:0:0:
469,192,72661,1,0,0:0:0:0:
42,192,72873,1,8,1:0:0:0:
384,192,72873,1,0,0:0:0:0:
213,192,73086,1,0,0:0:0:0:
128,192,73299,1,2,0:0:0:0:
42,192,73725,1,8,1:0:0:0:
469,192,73725,1,0,0:0:0:0:
469,192,74150,1,0,0:0:0:0:
384,192,74292,1,0,0:0:0:0:
298,192,74434,1,0,0:0:0:0:
42,192,74576,1,8,1:0:0:0:
128,192,74576,1,0,0:0:0:0:
213,192,74717,1,0,0:0:0:0:
298,192,74859,1,0,0:0:0:0:
469,192,75001,1,2,0:0:0:0:
42,192,75427,1,8,1:0:0:0:
213,192,75427,1,0,0:0:0:0:
298,192,75639,1,0,0:0:0:0:
128,192,75852,1,0,0:0:0:0:
42,192,76278,1,8,1:0:0:0:
384,192,76278,1,0,0:0:0:0:
298,192,76490,1,0,0:0:0:0:
128,192,76703,1,2,0:0:0:0:
213,192,76845,1,0,0:0:0:0:
298,192,76987,1,0,0:0:0:0:
42,192,77129,1,8,1:0:0:0:
469,192,77129,1,0,0:0:0:0:
298,192,77271,1,0,0:0:0:0:
128,192,77412,1,0,0:0:0:0:
384,192,77554,1,0,0:0:0:0:
298,192,77767,1,0,0:0:0:0:
42,192,77980,1,8,1:0:0:0:
213,192,77980,1,0,0:0:0:0:
469,192,78193,1,0,0:0:0:0:
128,192,78405,1,2,0:0:0:0:
213,192,78618,1,0,0:0:0:0:
42,192,78831,1,8,1:0:0:0:
298,192,78831,1,0,0:0:0:0:
384,192,79044,1,0,0:0:0:0:
213,192,79256,1,2,0:0:0:0:
42,192,79682,1,8,1:0:0:0:
384,192,79682,1,0,0:0:0:0:
128,192,79895,1,0,0:0:0:0:
298,192,80108,1,2,0:0:0:0:
384,192,80320,1,0,0:0:0:0:
42,192,80533,1,8,1:0:0:0:
469,192,80533,1,0,0:0:0:0:
298,192,80746,1,0,0:0:0:0:
213,192,80959,1,2,0:0:0:0:
128,192,81171,1,0,0:0:0:0:
42,192,81384,5,8,1:0:0:0:
298,192,81384,1,0,0:0:0:0:
384,192,81597,1,0,0:0:0:0:
42,192,81810,5,4,0:0:0:0:
128,192,81810,1,2,0:0:0:0:
298,192,82022,1,0,0:0:0:0:
384,192,82235,1,8,0:0:0:0:
128,192,82235,1,2,0:0:0:0:
213,192,82448,1,0,0:0:0:0:
469,192,82661,1,2,0:0:0:0:
128,192,82661,1,0,0:0:0:0:
298,192,82873,1,0,0:0:0:0:
213,192,83086,1,2,0:0:0:0:
128,192,83086,1,8,0:0:0:0:
469,192,83299,1,0,0:0:0:0:
384,192,83512,1,2,0:0:0:0:
298,192,83512,1,0,0:0:0:0:
128,192,83725,1,0,0:0:0:0:
298,192,83937,1,8,0:0:0:0:
384,192,83937,1,2,0:0:0:0:
469,192,84150,1,0,0:0:0:0:
213,192,84363,1,2,0:0:0:0:
128,192,84363,1,0,0:0:0:0:
469,192,84576,1,0,0:0:0:0:
384,192,84788,1,2,0:0:0:0:
128,192,84788,1,8,0:0:0:0:
213,192,85001,1,0,0:0:0:0:
469,192,85214,1,2,0:0:0:0:
384,192,85214,1,0,0:0:0:0:
298,192,85427,1,0,0:0:0:0:
213,192,85639,1,8,0:0:0:0:
469,192,85639,1,2,0:0:0:0:
384,192,85852,1,0,0:0:0:0:
128,192,86065,1,2,0:0:0:0:
469,192,86065,1,0,0:0:0:0:
298,192,86278,1,0,0:0:0:0:
384,192,86490,1,2,0:0:0:0:
469,192,86490,1,8,0:0:0:0:
128,192,86703,1,0,0:0:0:0:
213,192,86916,1,2,0:0:0:0:
298,192,86916,1,0,0:0:0:0:
469,192,87129,1,0,0:0:0:0:
298,192,87342,1,8,0:0:0:0:
213,192,87342,1,2,0:0:0:0:
128,192,87554,1,0,0:0:0:0:
384,192,87767,1,2,0:0:0:0:
469,192,87767,1,0,0:0:0:0:
128,192,87980,1,0,0:0:0:0:
213,192,88193,1,2,0:0:0:0:
469,192,88193,1,8,0:0:0:0:
298,192,88405,1,0,0:0:0:0:
128,192,88618,1,2,0:0:0:0:
469,192,88618,1,0,0:0:0:0:
298,192,88831,1,0,0:0:0:0:
213,192,89044,1,8,0:0:0:0:
128,192,89044,1,2,0:0:0:0:
384,192,89256,1,0,0:0:0:0:
469,192,89469,1,2,0:0:0:0:
128,192,89469,1,0,0:0:0:0:
298,192,89682,1,0,0:0:0:0:
384,192,89895,1,2,0:0:0:0:
128,192,89895,1,8,0:0:0:0:
469,192,90108,1,0,0:0:0:0:
213,192,90320,1,2,0:0:0:0:
298,192,90320,1,0,0:0:0:0:
128,192,90533,1,0,0:0:0:0:
298,192,90746,1,8,0:0:0:0:
469,192,90746,1,2,0:0:0:0:
213,192,90959,1,0,0:0:0:0:
384,192,91171,1,2,0:0:0:0:
298,192,91171,1,0,0:0:0:0:
469,192,91384,1,0,0:0:0:0:
213,192,91597,1,2,0:0:0:0:
128,192,91597,1,8,0:0:0:0:
384,192,91810,1,0,0:0:0:0:
469,192,92022,1,2,0:0:0:0:
128,192,92022,1,0,0:0:0:0:
298,192,92235,1,0,0:0:0:0:
384,192,92448,1,8,0:0:0:0:
469,192,92448,1,2,0:0:0:0:
213,192,92661,1,0,0:0:0:0:
128,192,92873,1,2,0:0:0:0:
469,192,92873,1,0,0:0:0:0:
298,192,93086,1,0,0:0:0:0:
213,192,93299,1,2,0:0:0:0:
469,192,93299,1,8,0:0:0:0:
128,192,93512,1,0,0:0:0:0:
384,192,93725,1,2,0:0:0:0:
213,192,93725,1,0,0:0:0:0:
469,192,93937,1,0,0:0:0:0:
298,192,94150,1,8,0:0:0:0:
128,192,94150,1,2,0:0:0:0:
384,192,94363,1,0,0:0:0:0:
213,192,94576,1,2,0:0:0:0:
469,192,94576,1,0,0:0:0:0:
128,192,94788,1,0,0:0:0:0:
384,192,95001,1,2,0:0:0:0:
469,192,95001,1,8,0:0:0:0:
298,192,95214,1,0,0:0:0:0:
128,192,95427,1,2,0:0:0:0:
213,192,95427,1,0,0:0:0:0:
469,192,95639,1,0,0:0:0:0:
384,192,95852,1,8,0:0:0:0:
213,192,95852,1,2,0:0:0:0:
128,192,96065,1,0,0:0:0:0:
469,192,96278,1,2,0:0:0:0:
213,192,96278,1,0,0:0:0:0:
298,192,96490,1,0,0:0:0:0:
469,192,96703,1,2,0:0:0:0:
128,192,96703,1,8,0:0:0:0:
384,192,96916,1,0,0:0:0:0:
469,192,97129,1,0,0:0:0:0:
213,192,97129,1,2,0:0:0:0:
298,192,97342,1,0,0:0:0:0:
128,192,97554,1,2,0:0:0:0:
384,192,97554,1,8,0:0:0:0:
213,192,97767,1,0,0:0:0:0:
298,192,97980,1,0,0:0:0:0:
469,192,97980,1,2,0:0:0:0:
384,192,98193,1,0,0:0:0:0:
128,192,98405,1,8,0:0:0:0:
298,192,98405,1,2,0:0:0:0:
469,192,98618,1,0,0:0:0:0:
128,192,98831,1,0,0:0:0:0:
213,192,98831,1,2,0:0:0:0:
384,192,99044,1,0,0:0:0:0:
469,192,99256,1,8,0:0:0:0:
298,192,99256,1,2,0:0:0:0:
213,192,99469,1,0,0:0:0:0:
384,192,99682,1,0,0:0:0:0:
128,192,99682,1,2,0:0:0:0:
298,192,99895,1,0,0:0:0:0:
469,192,100108,1,2,0:0:0:0:
384,192,100108,1,8,0:0:0:0:
213,192,100320,1,0,0:0:0:0:
469,192,100533,1,2,0:0:0:0:
128,192,100533,1,0,0:0:0:0:
384,192,100746,1,0,0:0:0:0:
298,192,100959,1,2,0:0:0:0:
128,192,100959,1,8,0:0:0:0:
469,192,101171,1,0,0:0:0:0:
213,192,101384,1,2,0:0:0:0:
298,192,101384,1,0,0:0:0:0:
384,192,101597,1,0,0:0:0:0:
298,192,101810,1,2,0:0:0:0:
128,192,101810,1,8,0:0:0:0:
213,192,102022,1,0,0:0:0:0:
469,192,102235,1,2,0:0:0:0:
298,192,102235,1,0,0:0:0:0:
128,192,102448,1,0,0:0:0:0:
213,192,102661,1,8,0:0:0:0:
384,192,102661,1,2,0:0:0:0:
298,192,102873,1,0,0:0:0:0:
128,192,103086,1,2,0:0:0:0:
469,192,103086,1,0,0:0:0:0:
298,192,103299,1,0,0:0:0:0:
128,192,103512,1,2,0:0:0:0:
469,192,103512,1,8,0:0:0:0:
213,192,103725,1,0,0:0:0:0:
384,192,103937,1,2,0:0:0:0:
128,192,103937,1,0,0:0:0:0:
298,192,104150,1,0,0:0:0:0:
213,192,104363,1,8,0:0:0:0:
469,192,104363,1,2,0:0:0:0:
384,192,104576,1,0,0:0:0:0:
128,192,104788,1,2,0:0:0:0:
298,192,104788,1,0,0:0:0:0:
213,192,105001,1,0,0:0:0:0:
298,192,105214,1,2,0:0:0:0:
469,192,105214,1,8,0:0:0:0:
128,192,105427,1,0,0:0:0:0:
384,192,105639,1,2,0:0:0:0:
469,192,105639,1,0,0:0:0:0:
213,192,105852,1,0,0:0:0:0:
469,192,106065,1,2,0:0:0:0:
128,192,106065,1,8,0:0:0:0:
298,192,106278,1,0,0:0:0:0:
469,192,106490,1,2,0:0:0:0:
128,192,106490,1,0,0:0:0:0:
298,192,106703,1,0,0:0:0:0:
213,192,106916,1,8,0:0:0:0:
128,192,106916,1,2,0:0:0:0:
298,192,107129,1,0,0:0:0:0:
469,192,107342,1,8,0:0:0:0:
384,192,107554,1,8,0:0:0:0:
213,192,107767,1,8,0:0:0:0:
128,192,107980,5,8,0:0:0:0:
469,192,108193,128,8,108405:0:0:0:0:
384,192,108405,128,8,108618:0:0:0:0:
213,192,108618,128,8,108831:0:0:0:0:
128,192,108831,128,8,109044:0:0:0:0:
42,192,109044,5,4,0:0:0:0:
