osu file format v14

[General]
AudioFilename: audio.mp3
AudioLeadIn: 0
PreviewTime: -1
Countdown: 0
SampleSet: None
StackLeniency: 0.7
Mode: 0
LetterboxInBreaks: 0
WidescreenStoryboard: 0

[Editor]
DistanceSpacing: 1.2
BeatDivisor: 6
GridSize: 4
TimelineZoom: 1

[Metadata]
Title:San Escobar
TitleUnicode:San Escobar
Artist:P.A.F.F
ArtistUnicode:P.A.F.F
Creator:Draigix
Version:Hard
Source:Youtube
Tags:P.A.F.F San Escobar
BeatmapID:1293859
BeatmapSetID:613206

[Difficulty]
HPDrainRate:3
CircleSize:4
OverallDifficulty:5
ApproachRate:8
SliderMultiplier:1.20000000596046
SliderTickRate:1

[Events]
//Background and Video events
0,0,"maxresdefault.jpg",0,0
//Break Periods
2,19575,33032
//Storyboard Layer 0 (Background)
//Storyboard Layer 1 (Fail)
//Storyboard Layer 2 (Pass)
//Storyboard Layer 3 (Foreground)
//Storyboard Sound Samples

[TimingPoints]
38585.0583500143,300.150075037519,4,1,0,100,1,0

[HitObjects]
80,324,165,5,0,0:0:0:0:
256,328,465,1,0,0:0:0:0:
424,320,766,1,0,0:0:0:0:
432,216,1366,1,0,0:0:0:0:
444,136,1566,1,0,0:0:0:0:
412,80,1716,1,0,0:0:0:0:
340,136,1966,1,0,0:0:0:0:
276,144,2266,1,0,0:0:0:0:
204,40,2567,1,0,0:0:0:0:
96,56,2867,1,0,0:0:0:0:
148,160,3167,1,0,0:0:0:0:
116,208,3667,1,0,0:0:0:0:
120,308,3967,1,0,0:0:0:0:
144,352,4117,1,0,0:0:0:0:
188,360,4367,1,0,0:0:0:0:
336,328,4668,1,0,0:0:0:0:
396,280,4868,1,0,0:0:0:0:
424,244,5018,1,0,0:0:0:0:
92,56,9770,1,0,0:0:0:0:
144,152,10370,1,0,0:0:0:0:
188,212,11071,1,0,0:0:0:0:
96,304,11571,1,0,0:0:0:0:
236,332,12171,1,0,0:0:0:0:
424,264,12772,1,0,0:0:0:0:
420,48,13372,1,0,0:0:0:0:
312,104,13972,1,0,0:0:0:0:
204,112,14573,1,0,0:0:0:0:
304,320,15173,1,0,0:0:0:0:
112,336,15773,1,0,0:0:0:0:
88,172,16373,1,0,0:0:0:0:
172,88,16974,1,0,0:0:0:0:
280,136,17574,1,0,0:0:0:0:
356,168,18174,1,0,0:0:0:0:
408,76,18775,1,0,0:0:0:0:
412,232,19375,1,0,0:0:0:0:
256,192,33782,12,0,36033,0:0:0:0:
60,332,38585,5,0,0:0:0:0:
96,192,38885,1,0,0:0:0:0:
208,284,39186,1,0,0:0:0:0:
344,236,39486,1,0,0:0:0:0:
104,80,40087,1,0,0:0:0:0:
140,20,40237,1,0,0:0:0:0:
196,64,40387,1,0,0:0:0:0:
340,52,40688,1,0,0:0:0:0:
444,148,40988,1,0,0:0:0:0:
440,248,41288,1,0,0:0:0:0:
236,352,41889,1,0,0:0:0:0:
104,252,42490,1,0,0:0:0:0:
88,156,43091,1,0,0:0:0:0:
252,40,43391,1,0,0:0:0:0:
432,188,43691,1,0,0:0:0:0:
256,340,43992,1,0,0:0:0:0:
64,192,44292,1,0,0:0:0:0:
84,136,44893,1,0,0:0:0:0:
180,92,45043,1,0,0:0:0:0:
272,88,45193,1,0,0:0:0:0:
404,72,45794,1,0,0:0:0:0:
404,192,46095,1,0,0:0:0:0:
320,320,46695,1,0,0:0:0:0:
232,328,47259,1,0,0:0:0:0:
136,288,47859,1,0,0:0:0:0:
60,332,48189,5,0,0:0:0:0:
96,192,48489,1,0,0:0:0:0:
208,284,48790,1,0,0:0:0:0:
344,236,49090,1,0,0:0:0:0:
104,80,49691,1,0,0:0:0:0:
140,20,49841,1,0,0:0:0:0:
196,64,49991,1,0,0:0:0:0:
340,52,50291,1,0,0:0:0:0:
444,148,50592,1,0,0:0:0:0:
440,248,50892,1,0,0:0:0:0:
236,352,51493,1,0,0:0:0:0:
104,252,52094,1,0,0:0:0:0:
88,156,52657,1,0,0:0:0:0:
252,40,52957,1,0,0:0:0:0:
432,188,53258,1,0,0:0:0:0:
256,340,53558,1,0,0:0:0:0:
64,192,53859,1,0,0:0:0:0:
84,136,54459,1,0,0:0:0:0:
180,92,54610,1,0,0:0:0:0:
272,88,54760,1,0,0:0:0:0:
404,72,55361,1,0,0:0:0:0:
404,192,55661,1,0,0:0:0:0:
320,320,56262,1,0,0:0:0:0:
232,328,56862,1,0,0:0:0:0:
136,288,57463,5,0,0:0:0:0:
88,336,57810,1,0,0:0:0:0:
448,56,58110,1,0,0:0:0:0:
76,60,58411,1,0,0:0:0:0:
416,332,58711,1,0,0:0:0:0:
256,104,59312,1,0,0:0:0:0:
256,192,59462,1,0,0:0:0:0:
256,300,59612,1,0,0:0:0:0:
168,344,59912,1,0,0:0:0:0:
76,220,60213,1,0,0:0:0:0:
140,80,60513,1,0,0:0:0:0:
264,56,61114,1,0,0:0:0:0:
408,200,61715,1,0,0:0:0:0:
344,300,62316,1,0,0:0:0:0:
256,192,62616,1,0,0:0:0:0:
48,352,62916,1,0,0:0:0:0:
256,28,63217,1,0,0:0:0:0:
460,340,63517,1,0,0:0:0:0:
256,268,64080,1,0,0:0:0:0:
256,192,64231,1,0,0:0:0:0:
256,92,64381,1,0,0:0:0:0:
160,40,64681,1,0,0:0:0:0:
80,144,64982,1,0,0:0:0:0:
88,300,65282,1,0,0:0:0:0:
408,336,65883,1,0,0:0:0:0:
408,192,66484,1,0,0:0:0:0:
264,40,67084,1,0,0:0:0:0:
88,336,67385,1,0,0:0:0:0:
448,56,67685,1,0,0:0:0:0:
76,60,67985,1,0,0:0:0:0:
416,332,68286,1,0,0:0:0:0:
256,104,68887,1,0,0:0:0:0:
256,192,69037,1,0,0:0:0:0:
256,300,69187,1,0,0:0:0:0:
168,344,69487,1,0,0:0:0:0:
76,220,69788,1,0,0:0:0:0:
140,80,70088,1,0,0:0:0:0:
264,56,70689,1,0,0:0:0:0:
408,200,71290,1,0,0:0:0:0:
344,300,71891,1,0,0:0:0:0:
256,192,72191,1,0,0:0:0:0:
48,352,72491,1,0,0:0:0:0:
256,28,72792,1,0,0:0:0:0:
460,340,73092,1,0,0:0:0:0:
256,268,73655,1,0,0:0:0:0:
256,192,73806,1,0,0:0:0:0:
256,92,73956,1,0,0:0:0:0:
160,40,74256,1,0,0:0:0:0:
80,144,74557,1,0,0:0:0:0:
88,300,74857,1,0,0:0:0:0:
408,336,75458,1,0,0:0:0:0:
408,192,76058,1,0,0:0:0:0:
252,36,76960,1,0,0:0:0:0:
