osu file format v14

[General]
AudioFilename: audio.mp3
AudioLeadIn: 0
PreviewTime: 91651
Countdown: 0
SampleSet: Soft
StackLeniency: 0.7
Mode: 0
LetterboxInBreaks: 1
WidescreenStoryboard: 1

[Editor]
Bookmarks: 648,28076,37219,46362,55505,73791,82934,84311,92076,101219,110362,128648,146934,156076,165219
DistanceSpacing: 0.95
BeatDivisor: 4
GridSize: 16
TimelineZoom: 1.8

[Metadata]
Title:Logic Airforce
TitleUnicode:論理空軍
Artist:P-MODEL
ArtistUnicode:P-MODEL
Creator:AJT
Version:Insane
Source:
Tags:Ronri Kūgun Kuugun Sangyou 平沢進 Susumu Hirasawa japanese electronica electronic experimental rock Music Industrial Wastes: P-Model or Die 音楽産業廃棄物 Ongaku Sangyō Haikibutsu Aranel Starrodkirby86 YokesPai Aistre Alphabet Deppyforce
BeatmapID:4171829
BeatmapSetID:2005815

[Difficulty]
HPDrainRate:5
CircleSize:4
OverallDifficulty:8
ApproachRate:8
SliderMultiplier:3.59999990463257
SliderTickRate:4

[Events]
//Background and Video events
0,0,"bg.jpg",0,0
//Break Periods
2,9566,17759
2,55280,63473
2,100994,109187
2,128422,136616
//Storyboard Layer 0 (Background)
//Storyboard Layer 1 (Fail)
//Storyboard Layer 2 (Pass)
//Storyboard Layer 3 (Foreground)
//Storyboard Layer 4 (Overlay)
//Storyboard Sound Samples

[TimingPoints]
223,571.428571428571,4,2,5,65,1,0
27652,-100,4,2,5,65,0,0
28366,-100,4,2,5,65,0,0
28794,-100,4,2,5,65,0,0
32937,-100,4,2,5,65,0,0
33366,-100,4,2,5,65,0,0
45937,-100,4,2,5,75,0,0
47937,-100,4,2,5,75,0,0
48223,-100,4,2,5,75,0,0
49366,-100,4,2,5,75,0,0
50223,-100,4,2,5,75,0,0
51651,-100,4,2,5,75,0,0
52509,-100,4,2,5,75,0,0
65080,-100,4,2,5,75,0,0
65223,-100,4,2,5,75,0,0
66223,-100,4,2,5,75,0,0
66366,-100,4,2,5,75,0,0
69651,-100,4,2,5,75,0,0
69937,-100,4,2,5,75,0,0
70794,-100,4,2,5,75,0,0
71080,-100,4,2,5,75,0,0
73366,-100,4,2,5,65,0,0
74223,-100,4,2,5,65,0,0
74509,-100,4,2,5,65,0,0
75080,-100,4,2,5,65,0,0
75366,-100,4,2,5,65,0,0
76223,-100,4,2,5,65,0,0
76509,-100,4,2,5,65,0,0
78794,-100,4,2,5,65,0,0
79080,-100,4,2,5,65,0,0
79509,-100,4,2,5,65,0,0
79794,-100,4,2,5,65,0,0
80651,-100,4,2,5,65,0,0
80937,-100,4,2,5,65,0,0
82509,-100,4,2,5,65,0,0
91651,-100,4,2,5,75,0,0
95080,-100,4,2,5,75,0,0
96223,-100,4,2,5,75,0,0
97366,-100,4,2,5,75,0,0
99651,-100,4,2,5,75,0,0
100794,-100,4,2,5,65,0,0
109937,-100,4,2,5,80,0,1
110794,-100,4,2,5,80,0,1
110937,-100,4,2,5,80,0,1
113366,-100,4,2,5,80,0,1
114509,-100,4,2,5,80,0,1
115366,-100,4,2,5,80,0,1
115509,-100,4,2,5,80,0,1
116509,-100,4,2,5,80,0,1
116651,-100,4,2,5,80,0,1
117937,-100,4,2,5,80,0,1
119080,-100,4,2,5,65,0,1
125794,-100,4,2,5,65,0,1
128222,-100,4,2,5,65,0,0
137366,-100,4,2,5,65,0,0
147366,-100,4,2,5,65,0,0
147651,-100,4,2,5,65,0,0
148223,-100,4,2,5,65,0,0
148509,-100,4,2,5,65,0,0
149366,-100,4,2,5,65,0,0
149651,-100,4,2,5,65,0,0
151937,-100,4,2,5,65,0,0
152223,-100,4,2,5,65,0,0
152794,-100,4,2,5,65,0,0
152937,-100,4,2,5,65,0,0
153937,-100,4,2,5,65,0,0
154223,-100,4,2,5,65,0,0
155651,-100,4,2,5,65,0,0
164794,-100,4,2,5,65,0,0
171651,-86.9565217391304,4,2,5,65,0,0

[Colours]
Combo1 : 147,249,154
Combo2 : 6,215,100
Combo3 : 48,48,48
Combo4 : 223,223,223

[HitObjects]
372,297,3651,5,2,3:2:0:0:
258,261,3794,2,0,L|249:205,2,44.9999988079071,0|0|2,3:0|3:0|3:2,0:0:0:0:
197,340,4080,2,0,L|206:396,2,44.9999988079071,0|0|2,3:0|3:0|3:2,0:0:0:0:
96,316,4366,1,0,3:0:0:0:
96,316,4437,2,0,L|87:260,1,44.9999988079071,0|2,3:0|3:2,0:0:0:0:
0,384,4651,1,2,3:2:0:0:
0,384,4723,1,2,3:2:0:0:
140,297,8223,5,2,3:2:0:0:
254,261,8366,2,0,L|263:205,2,44.9999988079071,0|0|2,3:0|3:0|3:2,0:0:0:0:
315,340,8652,2,0,L|306:396,2,44.9999988079071,0|0|2,3:0|3:0|3:2,0:0:0:0:
416,316,8938,1,0,3:0:0:0:
416,316,9009,2,0,L|425:260,1,44.9999988079071,0|2,3:0|3:2,3:0:0:0:
512,384,9223,1,2,3:2:0:0:
512,384,9295,1,2,3:2:0:0:
512,384,9366,1,6,3:2:0:0:
512,384,18509,6,0,P|497:300|424:206,1,179.999995231629,4|0,3:2|0:0,0:0:0:0:
360,204,18937,1,0,0:0:0:0:
282,241,19081,1,8,0:2:0:0:
129,165,19366,1,2,0:0:0:0:
292,117,19651,6,0,P|277:201|204:295,1,179.999995231629,0|0,3:0|0:0,0:0:0:0:
140,297,20079,1,2,0:0:0:0:
62,260,20223,1,8,0:2:0:0:
256,384,20509,1,2,0:0:0:0:
398,290,20794,6,0,P|440:279|493:257,1,89.9999976158143,0|0,3:0|0:0,0:0:0:0:
455,180,21080,2,0,P|412:190|359:212,1,89.9999976158143,2|2,0:0|0:0,0:0:0:0:
305,265,21366,6,0,P|347:254|400:232,1,89.9999976158143,8|2,0:2|0:0,0:0:0:0:
362,155,21652,2,0,P|319:165|266:187,1,89.9999976158143,2|0,0:0|0:0,0:0:0:0:
288,384,21937,5,0,3:0:0:0:
224,0,22509,1,8,0:2:0:0:
152,180,22794,1,2,0:0:0:0:
0,0,23080,6,0,P|15:84|88:178,1,179.999995231629,4|0,3:2|0:0,0:0:0:0:
152,180,23508,1,2,0:0:0:0:
230,143,23652,1,8,0:2:0:0:
383,219,23937,1,2,0:0:0:0:
220,267,24222,6,0,P|235:183|308:89,1,179.999995231629,0|0,3:0|0:0,0:0:0:0:
372,87,24650,1,2,0:0:0:0:
450,124,24794,1,8,0:2:0:0:
256,0,25080,1,2,0:0:0:0:
114,94,25365,6,0,P|71:104|18:126,1,89.9999976158143,0|0,3:0|0:0,0:0:0:0:
57,204,25651,2,0,P|99:193|152:171,1,89.9999976158143,2|2,0:0|0:0,0:0:0:0:
207,119,25937,6,0,P|164:129|111:151,1,89.9999976158143,8|2,0:2|0:0,0:0:0:0:
150,229,26223,2,0,P|192:218|245:196,1,89.9999976158143,2|0,0:0|0:0,0:0:0:0:
336,108,26509,6,0,P|324:65|316:8,1,89.9999976158143,0|0,3:0|0:0,0:0:0:0:
403,4,26795,2,0,P|414:46|422:103,1,89.9999976158143,2|2,0:0|0:0,0:0:0:0:
435,251,27081,6,0,P|446:208|454:151,1,89.9999976158143,8|0,0:2|0:0,0:0:0:0:
369,147,27365,2,0,P|357:189|349:246,1,89.9999976158143,2|0,0:0|0:0,0:0:0:0:
349,384,27651,5,2,3:2:0:0:
349,384,27937,1,2,0:2:0:0:
297,315,28080,1,2,0:2:0:0:
349,384,28223,2,0,P|355:314|269:250,1,179.999995231629,10|0,0:2|0:2,0:0:0:0:
190,241,28651,1,0,0:0:0:0:
108,268,28794,5,2,3:2:0:0:
13,125,29080,1,2,0:2:0:0:
138,8,29366,1,10,0:2:0:0:
285,94,29651,1,2,0:2:0:0:
369,80,29794,1,2,0:2:0:0:
419,10,29937,5,2,3:2:0:0:
285,94,30223,1,2,0:2:0:0:
369,228,30509,1,10,0:2:0:0:
227,290,30794,1,2,0:2:0:0:
143,304,30937,1,2,0:2:0:0:
93,374,31080,5,2,3:2:0:0:
324,311,31366,1,2,0:2:0:0:
143,156,31652,1,10,0:2:0:0:
319,12,31937,1,2,0:2:0:0:
369,80,32080,1,2,0:2:0:0:
357,165,32223,5,2,3:2:0:0:
178,244,32509,1,2,0:2:0:0:
336,384,32794,2,0,P|304:296|282:204,1,179.999995231629,10|0,0:2|0:2,0:0:0:0:
357,165,33223,1,0,0:0:0:0:
298,102,33366,2,0,P|211:78|122:64,2,179.999995231629,2|2|10,3:2|0:2|0:2,0:0:0:0:
357,165,34080,1,2,0:0:0:0:
283,212,34223,1,2,0:2:0:0:
298,102,34366,1,2,0:2:0:0:
430,120,34509,6,0,P|342:152|250:174,1,179.999995231629,2|0,3:2|0:2,0:0:0:0:
298,268,34937,1,2,0:2:0:0:
197,299,35080,2,0,P|109:267|17:245,1,179.999995231629,10|2,0:2|0:2,0:0:0:0:
0,329,35509,1,2,0:0:0:0:
67,380,35651,1,2,3:2:0:0:
181,190,35937,5,2,0:2:0:0:
140,114,36080,1,2,0:2:0:0:
60,81,36223,1,10,0:2:0:0:
331,194,36509,1,2,0:2:0:0:
372,270,36652,1,2,0:2:0:0:
452,303,36794,6,0,P|362:298|274:333,1,179.999995231629,2|0,3:2|0:0,0:0:0:0:
279,329,37223,1,2,0:2:0:0:
366,384,37365,2,0,P|371:294|336:206,1,179.999995231629,10|0,0:2|0:0,0:0:0:0:
256,0,37937,5,2,3:2:0:0:
210,170,38223,1,2,0:2:0:0:
127,147,38366,1,2,0:0:0:0:
53,191,38509,1,10,0:2:0:0:
49,275,38651,1,0,3:2:0:0:
120,321,38794,1,0,3:2:0:0:
0,384,39080,5,2,3:2:0:0:
288,342,39366,1,2,0:2:0:0:
136,315,39651,1,10,0:2:0:0:
136,315,39937,1,2,0:2:0:0:
199,256,40080,1,2,0:2:0:0:
210,170,40223,6,0,P|194:81|140:3,1,179.999995231629,2|2,3:2|0:2,0:0:0:0:
23,19,40651,1,2,0:0:0:0:
101,111,40794,2,0,P|189:95|267:41,1,179.999995231629,10|2,0:2|0:2,0:0:0:0:
145,7,41223,1,2,0:2:0:0:
263,45,41366,6,0,P|246:132|335:327,1,269.999992847443,2|2,3:2|0:2,0:0:0:0:
389,277,41937,2,0,P|404:187|316:-5,1,269.999992847443,10|2,0:2|0:2,0:0:0:0:
202,97,42509,6,0,P|185:184|274:379,1,269.999992847443,2|2,3:2|0:2,0:0:0:0:
329,331,43080,2,0,P|344:241|256:48,1,269.999992847443,10|0,0:2|0:0,0:0:0:0:
204,0,43651,6,0,P|251:75|242:289,1,269.999992847443,2|2,3:2|0:2,0:0:0:0:
152,236,44222,2,0,P|124:191|129:67,1,179.999995231629,10|2,0:2|0:2,0:0:0:0:
129,67,44651,1,2,0:2:0:0:
0,0,44794,5,2,3:2:0:0:
129,67,45080,1,2,0:2:0:0:
212,87,45223,1,2,0:2:0:0:
252,11,45366,1,10,0:2:0:0:
152,236,45651,1,2,3:2:0:0:
0,192,45937,5,6,3:2:0:0:
256,384,46223,1,2,0:2:0:0:
512,192,46509,2,0,P|503:144|489:92,2,89.9999976158143,10|0|0,3:2|0:0|0:2,0:0:0:0:
256,0,47079,2,0,P|293:37|315:159,1,179.999995231629,2|2,3:2|0:2,0:0:0:0:
249,213,47508,1,2,3:2:0:0:
169,181,47651,1,10,0:2:0:0:
169,181,47937,1,2,3:2:0:0:
0,48,48223,5,2,3:2:0:0:
95,237,48509,1,2,3:2:0:0:
259,0,48794,1,10,0:2:0:0:
392,260,49080,1,2,0:2:0:0:
256,384,49365,6,0,P|218:346|196:224,1,179.999995231629,2|2,3:2|3:2,0:0:0:0:
267,176,49794,1,2,0:0:0:0:
354,189,49938,1,8,0:2:0:0:
354,189,50223,1,2,3:2:0:0:
512,336,50509,5,2,3:2:0:0:
425,143,50795,1,2,3:2:0:0:
253,384,51080,1,10,0:2:0:0:
158,195,51366,1,2,0:2:0:0:
0,384,51651,2,0,P|-15:318|26:203,1,179.999995231629,2|2,3:2|3:2,0:0:0:0:
80,147,52080,1,2,0:0:0:0:
158,195,52222,1,8,0:2:0:0:
362,111,52509,1,0,3:2:0:0:
182,0,52794,6,2,P|180:56|324:346,2,359.999990463257,2|8|0,3:2|0:2|3:1,0:1:0:0:
223,128,54080,1,2,3:2:0:0:
223,128,54151,2,0,L|232:72,1,44.9999988079071,2|2,3:2|3:2,0:0:0:0:
303,28,54366,1,2,3:2:0:0:
303,28,54437,2,0,L|312:84,1,44.9999988079071,2|2,3:2|3:2,0:0:0:0:
408,86,54651,2,0,L|399:142,2,44.9999988079071,2|2|2,3:2|3:2|3:2,0:0:0:0:
506,0,54937,1,2,3:2:0:0:
506,0,55009,1,2,3:2:0:0:
506,0,55080,1,6,3:2:0:0:
0,0,64223,6,0,P|15:84|88:178,1,179.999995231629,6|2,3:2|0:2,0:0:0:0:
152,180,64651,1,2,0:2:0:0:
230,143,64795,1,10,0:2:0:0:
383,219,65080,1,2,0:2:0:0:
220,267,65365,6,0,P|235:183|308:89,1,179.999995231629,2|2,3:2|3:2,0:0:0:0:
372,87,65793,1,2,3:2:0:0:
450,124,65937,1,10,0:2:0:0:
256,0,66223,1,2,3:2:0:0:
96,102,66508,6,0,P|74:107|48:118,2,44.9999988079071,2|2|2,3:2|0:0|0:0,0:0:0:0:
57,204,66794,2,0,P|100:194|153:172,1,89.9999976158143,2|2,0:2|0:2,0:0:0:0:
207,119,67080,5,10,0:2:0:0:
121,147,67222,1,2,0:0:0:0:
150,229,67366,2,0,P|193:219|246:197,1,89.9999976158143,2|2,0:2|0:2,0:0:0:0:
266,0,67651,6,0,P|271:21|282:47,2,44.9999988079071,2|0|0,3:2|3:2|3:2,0:0:0:0:
222,167,67937,2,0,P|227:145|238:119,2,44.9999988079071,2|0|0,3:2|3:0|3:0,0:0:0:0:
310,216,68223,2,0,P|304:238|295:259,2,44.9999988079071,10|0|0,3:2|3:2|3:2,0:0:0:0:
246,384,68509,2,0,P|240:362|231:341,2,44.9999988079071,2|0|0,3:2|3:0|3:0,0:0:0:0:
0,384,68794,6,0,P|15:300|88:206,1,179.999995231629,6|2,3:2|0:2,0:0:0:0:
152,204,69222,1,2,3:2:0:0:
230,241,69366,1,10,0:2:0:0:
383,165,69651,1,2,3:2:0:0:
220,117,69936,6,0,P|235:201|308:295,1,179.999995231629,2|2,3:2|0:2,0:0:0:0:
372,297,70364,1,2,3:2:0:0:
450,260,70508,1,10,0:2:0:0:
256,384,70794,1,2,3:2:0:0:
96,282,71079,5,2,3:2:0:0:
53,267,71223,1,2,0:0:0:0:
57,180,71365,2,0,P|100:190|153:212,1,89.9999976158143,2|2,0:2|3:2,0:0:0:0:
207,265,71651,5,10,0:2:0:0:
121,236,71793,1,2,0:0:0:0:
150,155,71937,2,0,P|193:165|246:187,1,89.9999976158143,2|2,3:2|0:2,0:0:0:0:
266,384,72222,6,0,P|271:362|282:336,2,44.9999988079071,2|0|0,3:2|3:0|3:0,0:0:0:0:
222,217,72508,1,2,3:2:0:0:
221,241,72580,1,0,3:0:0:0:
235,259,72651,1,0,3:2:0:0:
310,167,72794,2,0,P|304:145|295:124,2,44.9999988079071,10|0|0,3:2|3:0|3:0,0:0:0:0:
246,0,73080,2,0,P|241:21|230:47,2,44.9999988079071,0|0|0,3:2|3:0|3:0,0:0:0:0:
163,0,73365,5,6,3:2:0:0:
163,0,73651,1,2,0:2:0:0:
215,69,73794,1,2,0:0:0:0:
167,140,73937,2,0,P|237:146|301:60,1,179.999995231629,10|0,0:2|0:2,0:0:0:0:
375,24,74365,1,2,3:2:0:0:
437,82,74509,5,2,3:2:0:0:
256,192,74794,1,2,0:2:0:0:
479,247,75080,1,10,0:2:0:0:
479,247,75365,5,2,0:2:0:0:
443,324,75508,1,2,0:2:0:0:
363,354,75651,1,2,3:2:0:0:
33,247,75937,5,2,0:2:0:0:
69,324,76080,1,2,0:2:0:0:
149,354,76222,1,10,0:2:0:0:
480,224,76509,5,2,0:2:0:0:
444,301,76652,1,2,0:0:0:0:
364,331,76795,1,2,3:2:0:0:
34,224,77081,5,2,0:2:0:0:
257,105,77366,1,10,0:2:0:0:
480,224,77651,1,2,0:2:0:0:
444,301,77794,1,2,0:2:0:0:
364,331,77937,5,2,3:2:0:0:
257,105,78223,1,2,0:2:0:0:
148,331,78508,2,0,P|116:243|94:151,1,179.999995231629,10|0,0:2|3:2,0:0:0:0:
136,83,78937,1,0,3:2:0:0:
220,95,79080,2,0,P|244:8|246:-11,2,89.9999976158143,2|0|2,3:2|0:2|0:2,0:0:0:0:
136,83,79509,1,0,0:2:0:0:
95,159,79652,2,0,P|105:202|117:246,1,89.9999976158143,10|0,0:2|0:0,0:0:0:0:
55,304,79937,1,2,0:2:0:0:
55,304,80080,1,2,0:2:0:0:
128,347,80223,6,0,P|178:327|244:306,1,89.9999976158143,2|0,3:2|0:2,0:0:0:0:
297,304,80509,1,2,0:2:0:0:
369,348,80651,1,2,0:2:0:0:
441,298,80794,2,0,P|473:210|495:118,1,179.999995231629,10|2,0:2|0:2,0:0:0:0:
256,0,81365,5,2,3:2:0:0:
479,137,81651,5,2,0:2:0:0:
443,60,81794,1,2,0:0:0:0:
363,30,81937,1,10,0:2:0:0:
33,137,82223,5,2,0:2:0:0:
69,60,82366,1,2,0:2:0:0:
149,30,82509,2,0,P|213:113|140:250,2,269.999992847443,0|2|0,3:2|0:2|0:0,3:2:0:0:
33,247,83651,5,2,3:2:0:0:
33,247,83937,1,2,0:0:0:0:
69,324,84080,1,2,0:0:0:0:
149,354,84222,1,10,0:0:0:0:
69,324,84366,1,2,0:0:0:0:
33,247,84509,1,2,0:0:0:0:
320,336,84794,6,0,P|357:254|373:154,1,179.999995231629,0|2,3:0|0:0,0:0:0:0:
329,91,85223,1,0,0:0:0:0:
267,31,85366,2,0,P|303:112|320:201,1,179.999995231629,10|2,0:0|0:0,0:0:0:0:
415,276,85794,1,2,0:0:0:0:
320,336,85937,6,0,P|236:368|136:379,1,179.999995231629,0|2,3:2|0:0,0:0:0:0:
74,332,86366,1,2,3:2:0:0:
105,252,86509,2,0,P|189:220|289:209,1,179.999995231629,10|2,0:0|3:2,0:0:0:0:
349,255,86937,1,2,0:0:0:0:
421,325,87080,6,0,P|376:246|392:33,1,269.999992847443,2|0,3:2|3:2,0:0:0:0:
459,60,87651,2,0,P|503:138|487:349,1,269.999992847443,10|0,0:0|0:0,0:0:0:0:
421,325,88223,6,0,P|394:288|373:229,1,89.9999976158143,2|0,3:2|0:0,0:0:0:0:
375,71,88509,2,0,P|345:106|327:167,1,89.9999976158143,2|0,0:0|3:2,0:0:0:0:
255,189,88794,1,10,0:0:0:0:
181,145,88937,1,2,0:0:0:0:
203,62,89080,1,2,0:0:0:0:
132,13,89223,1,2,0:0:0:0:
65,66,89366,6,0,P|77:166|120:245,1,179.999995231629,2|2,3:2|0:2,0:0:0:0:
34,296,89794,1,2,0:2:0:0:
104,361,89937,2,0,P|204:349|283:306,1,179.999995231629,10|2,0:2|0:2,0:0:0:0:
107,148,90509,5,2,3:2:0:0:
512,67,90794,1,2,3:2:0:0:
451,125,90936,1,2,3:2:0:0:
366,115,91079,1,10,0:2:0:0:
352,199,91222,1,2,3:2:0:0:
282,237,91365,1,2,3:2:0:0:
313,316,91509,1,0,3:0:0:0:
256,384,91651,5,6,3:2:0:0:
64,192,91937,1,2,0:2:0:0:
256,0,92223,2,0,P|208:9|156:23,2,89.9999976158143,10|0|0,3:2|0:0|0:2,0:0:0:0:
448,192,92793,2,0,P|411:155|289:133,1,179.999995231629,2|2,3:2|0:2,0:0:0:0:
254,211,93222,1,2,0:2:0:0:
298,289,93365,1,10,0:2:0:0:
298,289,93651,1,2,0:2:0:0:
0,336,93937,5,2,3:2:0:0:
95,147,94223,1,2,0:2:0:0:
259,384,94508,1,10,0:2:0:0:
392,124,94794,1,2,0:2:0:0:
256,0,95079,6,0,P|218:38|196:160,1,179.999995231629,2|2,3:2|3:2,0:0:0:0:
267,208,95508,1,0,3:3:0:0:
354,195,95651,1,8,0:2:0:0:
354,195,95794,1,2,0:0:0:0:
354,195,95937,1,2,0:2:0:0:
512,48,96223,5,2,3:2:0:0:
417,237,96509,1,2,0:2:0:0:
253,0,96794,1,10,0:2:0:0:
153,193,97080,1,2,0:2:0:0:
0,0,97365,2,0,P|-15:66|26:181,1,179.999995231629,2|2,3:2|3:2,0:0:0:0:
80,237,97794,1,2,0:2:0:0:
153,193,97937,2,0,P|200:203|248:223,1,89.9999976158143,10|2,0:2|0:2,0:0:0:0:
294,284,98223,1,2,0:2:0:0:
272,366,98366,1,2,0:0:0:0:
182,384,98508,6,2,P|180:328|324:38,2,359.999990463257,2|8|0,3:2|0:2|3:2,0:1:0:0:
223,256,99794,1,2,3:2:0:0:
223,256,99866,2,0,L|271:248,1,44.9999988079071,2|2,3:2|3:2,0:0:0:0:
289,348,100080,1,2,3:2:0:0:
289,348,100151,2,0,L|337:340,1,44.9999988079071,2|2,3:2|3:2,0:0:0:0:
416,284,100366,1,2,3:2:0:0:
416,284,100437,2,0,L|464:276,1,44.9999988079071,2|2,3:2|3:2,0:0:0:0:
506,384,100651,1,2,3:2:0:0:
506,384,100723,1,2,3:2:0:0:
506,384,100794,1,6,0:2:0:0:
512,0,109937,6,0,P|497:84|424:178,1,179.999995231629,6|2,3:2|0:2,0:0:0:0:
360,180,110365,1,2,3:2:0:0:
282,143,110509,1,10,0:2:0:0:
67,253,110794,1,2,3:2:0:0:
292,267,111079,6,0,P|277:183|204:89,1,179.999995231629,2|2,3:2|0:2,0:0:0:0:
154,155,111507,1,2,3:2:0:0:
85,111,111651,1,10,0:2:0:0:
103,27,111794,1,2,0:2:0:0:
85,111,111937,1,2,3:2:0:0:
154,155,112080,1,2,0:2:0:0:
224,105,112223,6,0,P|266:92|323:86,1,89.9999976158143,6|2,3:2|0:2,0:0:0:0:
397,79,112509,1,2,0:2:0:0:
426,158,112651,1,2,3:2:0:0:
369,222,112794,1,10,0:2:0:0:
284,225,112936,1,2,0:2:0:0:
235,296,113080,2,0,P|245:339|267:392,1,89.9999976158143,2|2,3:2|0:2,0:0:0:0:
116,241,113366,6,0,P|126:198|148:145,1,89.9999976158143,6|2,3:2|0:2,0:0:0:0:
213,249,113651,2,0,P|203:292|181:345,1,89.9999976158143,2|2,0:2|0:2,0:0:0:0:
352,198,113937,6,0,P|342:155|320:102,1,89.9999976158143,14|0,0:2|0:0,0:0:0:0:
255,206,114222,2,0,P|265:249|287:302,1,89.9999976158143,2|2,3:2|3:2,0:0:0:0:
512,384,114508,5,6,3:2:0:0:
495,296,114650,1,2,0:2:0:0:
444,222,114793,1,2,0:2:0:0:
360,204,114936,1,2,3:2:0:0:
282,241,115080,1,10,0:2:0:0:
196,237,115223,1,2,0:2:0:0:
151,164,115365,1,2,3:2:0:0:
204,96,115509,1,2,3:2:0:0:
292,117,115650,6,0,P|277:201|204:295,1,179.999995231629,2|2,3:2|3:2,0:0:0:0:
150,321,116080,1,2,3:2:0:0:
75,278,116222,1,10,0:2:0:0:
78,191,116366,1,2,0:2:0:0:
2,153,116509,2,0,P|46:140|100:135,1,89.9999976158143,2|2,3:2|3:2,0:0:0:0:
259,129,116793,5,6,3:2:0:0:
216,114,116937,1,2,0:2:0:0:
220,30,117079,2,0,P|263:40|316:62,1,89.9999976158143,2|2,0:2|3:2,0:0:0:0:
370,112,117365,5,10,0:2:0:0:
284,83,117507,1,2,0:2:0:0:
313,2,117651,2,0,P|356:12|409:34,1,89.9999976158143,2|2,3:2|0:2,0:0:0:0:
512,0,117937,5,6,3:2:0:0:
495,87,118079,1,2,0:2:0:0:
444,161,118222,1,2,0:2:0:0:
360,180,118365,1,2,0:2:0:0:
282,143,118509,1,14,0:2:0:0:
196,147,118652,1,2,0:0:0:0:
151,220,118794,1,2,3:2:0:0:
204,288,118938,1,2,3:2:0:0:
292,267,119079,6,0,P|277:183|204:89,1,179.999995231629,6|2,3:2|0:2,0:0:0:0:
480,240,119651,2,0,P|489:192|503:140,2,89.9999976158143,10|0|0,3:2|0:0|3:2,0:0:0:0:
163,384,120221,2,0,P|126:347|104:225,1,179.999995231629,2|2,3:2|0:2,0:0:0:0:
182,190,120650,1,2,3:2:0:0:
260,234,120793,1,10,0:2:0:0:
260,234,121079,1,2,0:2:0:0:
512,215,121365,5,2,3:2:0:0:
248,125,121651,1,2,0:2:0:0:
448,106,121936,1,10,0:2:0:0:
183,0,122222,1,2,0:2:0:0:
64,192,122507,6,0,P|102:230|224:252,1,179.999995231629,2|2,3:2|0:2,0:0:0:0:
272,181,122936,1,0,3:2:0:0:
263,96,123080,2,0,P|214:100|159:119,1,89.9999976158143,8|0,0:2|0:2,0:0:0:0:
94,83,123365,1,2,0:2:0:0:
94,83,123509,1,2,0:2:0:0:
36,21,123651,5,2,3:2:0:0:
105,178,123937,1,2,0:2:0:0:
223,5,124222,1,8,0:2:0:0:
298,268,124508,1,2,0:2:0:0:
512,0,124793,2,0,P|527:66|486:181,1,179.999995231629,2|2,3:2|0:2,0:0:0:0:
432,237,125222,1,0,3:2:0:0:
359,193,125365,2,0,P|312:203|264:223,1,89.9999976158143,10|0,0:2|0:0,0:0:0:0:
218,284,125651,1,2,0:2:0:0:
240,366,125794,1,2,0:0:0:0:
330,384,125936,6,2,P|332:328|188:38,2,359.999990463257,2|8|0,3:2|0:2|3:2,0:1:0:0:
289,256,127222,1,2,3:2:0:0:
289,256,127294,2,0,L|234:240,1,44.9999988079071,2|2,3:2|3:2,0:0:0:0:
223,348,127508,1,2,3:2:0:0:
223,348,127580,2,0,L|168:332,1,44.9999988079071,2|2,3:2|3:2,0:0:0:0:
92,277,127794,1,2,3:2:0:0:
92,277,127866,2,0,L|37:261,1,44.9999988079071,2|2,3:2|3:2,0:0:0:0:
6,384,128079,1,2,3:2:0:0:
6,384,128151,1,2,3:2:0:0:
6,384,128222,1,6,3:2:0:0:
0,384,137366,5,6,3:2:0:0:
67,222,137651,1,2,0:2:0:0:
152,204,137794,1,2,0:2:0:0:
230,241,137938,1,10,0:2:0:0:
383,165,138223,1,2,0:2:0:0:
220,117,138508,5,2,3:2:0:0:
287,278,138793,1,2,3:2:0:0:
372,297,138936,1,2,3:2:0:0:
450,260,139080,1,10,0:2:0:0:
256,384,139366,1,2,3:2:0:0:
96,282,139651,6,0,P|74:277|48:266,2,44.9999988079071,2|2|2,3:2|0:0|0:0,0:0:0:0:
57,180,139937,2,0,P|100:190|153:212,1,89.9999976158143,2|2,0:2|0:2,0:0:0:0:
207,265,140223,5,10,0:2:0:0:
121,237,140365,1,2,0:0:0:0:
150,155,140509,1,2,0:2:0:0:
235,181,140651,1,2,0:0:0:0:
235,259,140794,6,0,P|226:238|221:216,2,44.9999988079071,0|0|0,3:2|3:0|3:2,0:0:0:0:
278,341,141080,2,0,P|270:362|265:384,2,44.9999988079071,2|2|2,3:2|3:2|3:2,0:0:0:0:
295,125,141366,2,0,P|303:145|309:167,2,44.9999988079071,10|0|2,3:2|3:0|3:2,0:0:0:0:
231,42,141652,2,0,P|240:21|246:0,2,44.9999988079071,2|2|2,3:2|3:2|3:2,0:0:0:0:
0,0,141937,5,6,3:2:0:0:
16,87,142079,1,2,0:0:0:0:
67,161,142222,1,2,0:2:0:0:
152,180,142365,1,0,3:0:0:0:
230,143,142509,1,10,0:2:0:0:
383,219,142794,1,2,0:2:0:0:
220,267,143079,5,2,3:2:0:0:
287,105,143364,1,2,0:2:0:0:
372,87,143507,1,2,0:2:0:0:
450,124,143651,1,10,0:2:0:0:
256,0,143937,1,2,0:2:0:0:
96,102,144222,5,2,3:2:0:0:
53,117,144366,1,2,0:0:0:0:
57,204,144508,2,0,P|100:194|153:172,1,89.9999976158143,0|2,3:2|0:2,0:0:0:0:
207,119,144794,5,10,0:2:0:0:
121,148,144936,1,2,0:0:0:0:
150,229,145080,2,0,P|193:219|246:197,1,89.9999976158143,0|2,3:2|0:2,0:0:0:0:
265,0,145365,6,0,P|270:21|279:42,2,44.9999988079071,2|0|0,3:2|3:0|3:0,0:0:0:0:
222,167,145651,1,2,3:2:0:0:
221,143,145723,1,0,3:0:0:0:
235,125,145794,1,0,3:2:0:0:
309,217,145937,2,0,P|304:238|295:259,2,44.9999988079071,10|0|0,3:2|3:0|3:0,0:0:0:0:
246,384,146223,2,0,P|241:362|230:336,2,44.9999988079071,0|0|0,3:2|3:0|3:0,0:0:0:0:
163,384,146508,5,6,3:2:0:0:
163,384,146794,1,2,0:2:0:0:
115,312,146937,1,2,0:2:0:0:
167,244,147080,2,0,P|237:238|301:324,1,179.999995231629,10|0,0:2|0:2,0:0:0:0:
375,360,147508,1,0,0:0:0:0:
437,302,147652,5,2,3:2:0:0:
256,192,147937,1,2,0:2:0:0:
479,137,148223,1,10,0:2:0:0:
479,137,148508,5,2,0:2:0:0:
443,60,148651,1,2,3:2:0:0:
363,30,148794,2,0,P|369:100|283:164,1,179.999995231629,2|2,3:2|0:2,0:0:0:0:
211,201,149223,1,2,0:0:0:0:
198,285,149366,2,0,P|240:341|347:331,1,179.999995231629,10|2,0:2|0:2,0:0:0:0:
417,293,149795,1,2,0:2:0:0:
444,211,149938,5,2,3:2:0:0:
275,4,150222,1,2,0:2:0:0:
68,173,150509,1,10,0:2:0:0:
237,380,150794,1,2,0:2:0:0:
352,336,150937,1,2,0:2:0:0:
237,380,151080,5,2,3:2:0:0:
303,185,151366,1,2,0:2:0:0:
148,53,151651,2,0,P|116:141|94:233,1,179.999995231629,10|0,0:2|0:2,0:0:0:0:
136,301,152080,1,2,0:0:0:0:
220,289,152223,2,0,P|244:376|246:395,2,89.9999976158143,2|0|2,3:2|0:0|0:2,0:0:0:0:
136,301,152652,1,2,0:2:0:0:
95,225,152795,1,10,0:2:0:0:
117,137,152937,1,2,0:0:0:0:
55,80,153080,1,2,0:2:0:0:
55,80,153223,1,2,0:2:0:0:
128,37,153366,6,0,P|178:57|244:78,1,89.9999976158143,2|0,3:2|0:0,0:0:0:0:
297,80,153652,1,2,0:0:0:0:
369,36,153794,1,2,0:2:0:0:
447,68,153937,1,10,0:2:0:0:
483,144,154079,1,2,0:0:0:0:
472,228,154222,1,2,0:0:0:0:
395,266,154366,1,2,0:2:0:0:
314,238,154508,5,2,3:2:0:0:
0,384,154794,1,2,0:2:0:0:
36,307,154937,1,2,0:0:0:0:
116,277,155080,1,10,0:2:0:0:
262,181,155366,1,2,0:2:0:0:
311,251,155509,1,2,0:2:0:0:
395,266,155652,6,0,P|443:173|347:50,1,269.999992847443,0|2,3:2|0:0,0:0:0:0:
269,67,156223,2,0,P|220:159|316:282,1,269.999992847443,10|0,0:2|3:0,0:0:0:0:
365,345,156794,5,2,3:2:0:0:
0,384,157080,1,2,0:2:0:0:
77,348,157223,1,2,0:0:0:0:
107,268,157365,1,10,0:2:0:0:
77,348,157509,1,0,3:2:0:0:
0,384,157652,1,0,3:2:0:0:
77,348,157794,1,0,3:2:0:0:
107,268,157937,6,0,P|70:186|54:86,1,179.999995231629,2|2,3:2|0:2,0:0:0:0:
105,28,158366,1,0,3:2:0:0:
167,86,158509,2,0,P|248:122|337:139,1,179.999995231629,10|2,0:2|0:2,0:0:0:0:
415,108,158937,1,2,0:2:0:0:
354,47,159080,6,0,P|322:131|311:231,1,179.999995231629,2|2,3:2|0:2,0:0:0:0:
380,271,159509,1,2,0:2:0:0:
305,337,159652,2,0,P|273:253|262:153,1,179.999995231629,10|2,0:2|0:2,0:0:0:0:
337,139,160080,1,0,3:2:0:0:
429,164,160223,6,0,P|350:119|137:135,1,269.999992847443,2|2,3:2|0:2,0:0:0:0:
157,210,160794,2,0,P|236:255|449:239,1,269.999992847443,10|2,0:2|0:2,0:0:0:0:
421,59,161366,6,0,P|394:96|373:155,1,89.9999976158143,2|0,3:2|0:0,0:0:0:0:
375,313,161652,2,0,P|345:278|327:217,1,89.9999976158143,2|2,0:0|0:2,0:0:0:0:
255,195,161937,1,10,0:2:0:0:
181,239,162080,1,2,0:0:0:0:
203,322,162223,1,2,0:0:0:0:
132,371,162366,1,2,0:2:0:0:
65,318,162509,6,0,P|77:218|120:139,1,179.999995231629,2|2,3:2|0:0,0:0:0:0:
34,88,162937,1,2,0:0:0:0:
104,23,163080,2,0,P|204:35|283:78,1,179.999995231629,10|2,0:2|0:0,0:0:0:0:
107,236,163652,5,2,3:2:0:0:
512,384,163937,1,2,0:0:0:0:
451,326,164079,1,2,0:2:0:0:
366,336,164222,1,10,0:0:0:0:
282,147,164508,1,2,0:0:0:0:
313,68,164652,1,2,0:0:0:0:
256,0,164794,5,6,3:2:0:0:
448,192,165080,1,2,0:0:0:0:
256,384,165366,1,10,0:0:0:0:
368,336,165508,1,2,0:0:0:0:
256,384,165651,1,2,0:0:0:0:
64,192,165936,2,0,P|101:229|223:251,1,179.999995231629,2|2,3:2|0:0,0:0:0:0:
258,173,166365,1,2,3:2:0:0:
214,95,166508,1,10,0:0:0:0:
214,95,166794,1,2,0:0:0:0:
512,48,167080,5,4,3:2:0:0:
417,237,167366,1,2,0:0:0:0:
253,0,167651,1,10,0:0:0:0:
120,260,167937,1,2,0:0:0:0:
320,384,168222,5,2,3:2:0:0:
365,312,168364,1,0,3:0:0:0:
345,233,168507,1,2,0:2:0:0:
345,233,168651,1,0,3:0:0:0:
268,194,168794,1,10,0:0:0:0:
183,208,168937,1,0,3:0:0:0:
151,287,169080,1,2,0:0:0:0:
85,342,169223,1,0,3:0:0:0:
0,336,169366,5,4,3:2:0:0:
74,134,169652,1,2,0:0:0:0:
256,384,169937,1,10,0:0:0:0:
501,235,170223,1,2,0:0:0:0:
503,321,170366,1,0,3:0:0:0:
446,384,170508,5,2,3:2:0:0:
503,321,170650,1,2,0:0:0:0:
501,235,170793,1,2,0:0:0:0:
440,174,170937,1,2,3:2:0:0:
359,191,171080,1,10,0:0:0:0:
273,165,171222,1,0,3:0:0:0:
218,100,171366,1,2,3:2:0:0:
240,18,171509,1,0,3:0:0:0:
330,0,171651,6,2,P|332:56|169:392,2,413.999996929169,2|8|0,3:2|0:2|3:2,0:1:0:0:
289,128,172937,1,2,3:2:0:0:
289,128,173009,2,0,L|240:142,1,51.7499996161461,2|2,3:2|3:2,0:0:0:0:
223,36,173223,1,2,3:2:0:0:
223,36,173294,2,0,L|174:22,1,51.7499996161461,2|2,3:2|3:2,0:0:0:0:
71,78,173509,1,2,3:2:0:0:
71,78,173581,1,2,3:2:0:0:
71,78,173652,1,2,3:2:0:0:
64,103,173723,1,2,3:2:0:0:
60,128,173794,1,2,3:2:0:0:
56,154,173865,1,2,3:2:0:0:
53,179,173937,5,6,3:2:0:0:
