osu file format v14

[General]
AudioFilename: audio.mp3
AudioLeadIn: 0
PreviewTime: 91651
Countdown: 0
SampleSet: Soft
StackLeniency: 0.7
Mode: 0
LetterboxInBreaks: 1
WidescreenStoryboard: 1

[Editor]
Bookmarks: 64223,109937,147080
DistanceSpacing: 1
BeatDivisor: 4
GridSize: 16
TimelineZoom: 1

[Metadata]
Title:Logic Airforce
TitleUnicode:論理空軍
Artist:P-MODEL
ArtistUnicode:P-MODEL
Creator:AJT
Version:Aisforce's Insane
Source:
Tags:Ronri Kūgun Kuugun Sangyou 平沢進 Susumu Hirasawa japanese electronica electronic experimental rock Music Industrial Wastes: P-Model or Die 音楽産業廃棄物 Ongaku Sangyō Haikibutsu Aranel Starrodkirby86 YokesPai Aistre Alphabet Deppyforce
BeatmapID:4171828
BeatmapSetID:2005815

[Difficulty]
HPDrainRate:6
CircleSize:6
OverallDifficulty:6
ApproachRate:6
SliderMultiplier:1.99999990463257
SliderTickRate:4

[Events]
//Background and Video events
0,0,"bg.jpg",0,0
//Break Periods
2,55280,63173
2,128423,136316
//Storyboard Layer 0 (Background)
//Storyboard Layer 1 (Fail)
//Storyboard Layer 2 (Pass)
//Storyboard Layer 3 (Foreground)
//Storyboard Layer 4 (Overlay)
//Storyboard Sound Samples

[TimingPoints]
223,571.428571428571,4,2,5,65,1,0
45937,-100,4,2,5,75,0,0
73366,-100,4,2,5,65,0,0
91651,-100,4,2,5,75,0,0
100794,-66.6666666666667,4,2,5,80,0,1
109937,-66.6666666666667,4,2,5,80,0,1
119080,-100,4,2,5,65,0,0

[Colours]
Combo1 : 147,249,154
Combo2 : 6,215,100
Combo3 : 48,48,48
Combo4 : 223,223,223

[HitObjects]
16,256,27651,5,2,3:2:0:0:
112,256,27937,1,2,0:2:0:0:
112,208,28080,1,2,0:2:0:0:
112,160,28223,1,10,0:2:0:0:
112,352,28794,6,0,L|224:352,1,99.9999952316285,2|2,3:2|0:2,0:0:0:0:
304,352,29366,2,0,L|416:352,1,99.9999952316285,10|2,0:2|0:2,0:0:0:0:
404,352,29794,1,2,0:2:0:0:
404,352,29937,1,2,3:2:0:0:
464,304,30223,1,2,0:2:0:0:
400,256,30509,1,10,0:2:0:0:
460,208,30795,5,2,0:2:0:0:
432,176,30937,1,2,0:2:0:0:
400,144,31080,1,2,3:2:0:0:
460,96,31366,1,2,0:2:0:0:
412,32,31651,1,10,0:2:0:0:
352,80,31937,1,2,0:2:0:0:
320,112,32080,1,2,0:2:0:0:
288,144,32223,2,0,L|208:224,2,99.9999952316285,2|2|10,3:2|0:2|0:2,0:0:0:0:
288,352,33366,6,0,L|176:352,1,99.9999952316285,2|2,3:2|0:2,0:0:0:0:
144,272,33937,2,0,L|32:272,1,99.9999952316285,10|2,0:2|0:2,0:0:0:0:
44,112,34509,2,0,L|144:112,1,99.9999952316285,2|0,3:2|0:2,0:0:0:0:
160,80,34937,1,2,0:2:0:0:
176,48,35080,2,0,L|276:48,1,99.9999952316285,10|2,0:2|0:2,0:0:0:0:
352,32,35651,5,2,3:2:0:0:
416,192,35937,1,2,0:2:0:0:
352,352,36223,1,10,0:2:0:0:
352,352,36651,1,2,0:2:0:0:
352,352,36794,6,0,P|256:384|160:352,1,199.999990463257,2|10,3:2|0:2,0:0:0:0:
208,192,37937,2,0,P|256:208|304:192,1,99.9999952316285,2|2,3:2|0:2,0:0:0:0:
301,193,38366,1,2,0:0:0:0:
301,193,38509,1,10,0:2:0:0:
160,48,39080,5,2,3:2:0:0:
48,48,39366,1,2,0:2:0:0:
48,160,39651,1,10,0:2:0:0:
160,160,39937,1,2,0:2:0:0:
208,160,40080,1,2,0:2:0:0:
256,160,40223,1,2,3:2:0:0:
256,272,40509,1,2,0:2:0:0:
256,320,40651,2,0,L|432:320,1,149.999992847443,2|2,0:0|0:2,0:0:0:0:
448,320,41223,1,2,0:2:0:0:
480,320,41366,6,0,P|464:224|368:128,1,199.999990463257,2|10,3:2|0:2,0:0:0:0:
256,16,42365,1,2,0:2:0:0:
256,16,42508,1,2,3:2:0:0:
111,146,42937,1,0,0:2:0:0:
111,146,43079,2,0,P|48:222|32:320,1,199.999990463257,10|2,0:2|3:2,0:0:0:0:
256,192,44223,12,2,45651,3:2:0:0:
128,112,45937,5,6,3:2:0:0:
192,272,46223,1,2,0:2:0:0:
256,112,46509,1,10,0:2:0:0:
320,272,46794,1,2,0:2:0:0:
384,112,47080,1,2,3:2:0:0:
384,112,47937,6,0,L|496:112,1,99.9999952316285,2|2,3:2|3:2,0:0:0:0:
352,192,48509,2,0,L|464:192,1,99.9999952316285,2|10,3:2|0:2,0:0:0:0:
256,272,49080,1,2,0:2:0:0:
384,272,49366,1,2,3:2:0:0:
512,272,49651,1,2,3:2:0:0:
128,112,50223,6,0,L|16:112,1,99.9999952316285,2|2,3:2|3:2,0:0:0:0:
160,192,50795,2,0,L|48:192,1,99.9999952316285,2|10,3:2|0:2,0:0:0:0:
256,272,51366,1,2,0:2:0:0:
128,272,51652,1,2,3:2:0:0:
0,272,51937,1,2,3:2:0:0:
256,192,52794,12,6,55080,3:2:0:0:
128,224,64223,6,0,L|256:64,1,199.999990463257,6|10,3:2|0:2,0:0:0:0:
256,192,65080,1,2,0:2:0:0:
384,160,65366,2,0,L|259:316,1,199.999990463257,2|10,3:2|0:2,0:0:0:0:
256,192,66223,1,2,3:2:0:0:
128,224,66509,6,0,L|16:224,1,99.9999952316285,2|2,3:2|0:2,0:0:0:0:
80,336,67080,1,10,0:2:0:0:
128,336,67223,1,2,0:0:0:0:
176,336,67366,1,2,0:2:0:0:
228,224,67651,2,0,L|128:224,1,99.9999952316285,2|2,3:2|0:2,0:0:0:0:
228,224,68223,2,0,L|328:224,1,99.9999952316285,10|2,2:2|0:2,0:0:0:0:
368,208,68651,1,2,0:0:0:0:
400,176,68794,6,0,P|384:112|272:0,1,199.999990463257,6|10,3:2|0:2,0:0:0:0:
256,144,69651,1,2,3:2:0:0:
214,12,69937,2,0,P|143:82|112:176,1,199.999990463257,2|10,3:2|0:2,0:0:0:0:
256,144,70794,1,2,3:2:0:0:
256,240,71080,6,0,L|256:368,1,99.9999952316285,2|2,3:2|0:2,0:0:0:0:
368,272,71651,1,10,0:2:0:0:
368,224,71794,1,2,0:0:0:0:
368,176,71937,1,2,3:2:0:0:
368,48,72223,2,0,L|480:48,1,99.9999952316285,2|2,3:2|0:2,0:0:0:0:
368,48,72794,2,0,L|256:48,1,99.9999952316285,10|0,0:2|0:2,0:0:0:0:
224,48,73223,1,2,0:0:0:0:
176,48,73366,5,6,3:2:0:0:
128,160,73651,1,2,0:2:0:0:
192,256,73937,1,10,0:2:0:0:
192,256,74509,2,0,L|192:368,1,99.9999952316285,2|2,3:2|0:2,0:0:0:0:
320,256,75080,2,0,L|320:356,1,99.9999952316285,10|2,0:2|0:2,0:0:0:0:
320,356,75509,1,2,0:2:0:0:
320,356,75651,1,2,3:2:0:0:
432,320,75937,5,2,0:2:0:0:
432,320,76080,1,2,0:2:0:0:
432,320,76223,1,10,0:2:0:0:
432,208,76509,1,2,0:2:0:0:
352,160,76794,2,0,L|256:224,1,99.9999952316285,2|2,3:2|0:2,0:0:0:0:
272,80,77366,2,0,L|176:144,1,99.9999952316285,10|2,0:2|0:2,0:0:0:0:
160,176,77794,1,2,0:2:0:0:
128,208,77937,5,2,3:2:0:0:
16,208,78223,1,2,0:2:0:0:
80,112,78509,1,10,0:2:0:0:
80,112,79080,2,0,P|128:64|144:16,1,99.9999952316285,2|2,3:2|0:2,0:0:0:0:
224,32,79651,2,0,P|246:76|284:108,1,99.9999952316285,10|2,0:2|0:2,0:0:0:0:
284,108,80080,1,2,0:2:0:0:
284,108,80223,1,2,3:2:0:0:
384,48,80509,1,2,0:2:0:0:
416,80,80651,1,2,0:2:0:0:
448,112,80794,1,10,0:2:0:0:
448,192,81080,1,2,0:2:0:0:
448,288,81366,5,2,3:2:0:0:
256,352,81651,1,2,0:2:0:0:
64,288,81937,1,10,0:2:0:0:
64,288,82366,5,2,0:2:0:0:
64,288,82509,2,0,P|80:224|160:112,1,199.999990463257,0|8,3:2|0:2,3:2:0:0:
206,200,83651,2,0,P|177:241|160:288,1,99.9999952316285,2|2,3:2|0:0,0:0:0:0:
240,288,84223,2,0,L|464:288,1,199.999990463257,10|0,0:0|3:0,0:0:0:0:
512,144,85080,5,2,0:0:0:0:
448,32,85366,1,10,0:0:0:0:
368,80,85651,1,2,0:0:0:0:
368,128,85794,1,2,0:0:0:0:
416,128,85937,1,0,3:2:0:0:
416,192,86223,1,2,0:0:0:0:
368,192,86366,1,0,3:0:0:0:
320,192,86509,1,10,0:0:0:0:
208,192,86794,1,2,3:2:0:0:
48,192,87080,6,0,P|160:272|208:336,1,199.999990463257,2|10,3:2|0:0,0:0:0:0:
256,128,88080,1,0,0:0:0:0:
256,128,88223,1,2,3:2:0:0:
313,320,88651,1,0,3:2:0:0:
313,320,88794,2,0,P|379:245|464:192,1,199.999990463257,10|2,0:0|3:2,0:0:0:0:
256,192,89937,12,2,91366,3:2:0:0:
176,272,91651,5,6,3:2:0:0:
336,272,91937,1,2,0:2:0:0:
336,112,92223,1,10,0:2:0:0:
176,112,92509,1,2,0:2:0:0:
256,192,92794,1,2,3:2:0:0:
256,192,93651,6,0,L|128:192,1,99.9999952316285,2|2,0:2|3:2,0:0:0:0:
256,192,94223,2,0,L|384:192,1,99.9999952316285,2|10,0:2|0:2,0:0:0:0:
128,304,94794,1,2,0:2:0:0:
256,304,95080,1,2,3:2:0:0:
384,304,95366,1,2,3:2:0:0:
208,192,95937,6,0,L|80:192,1,99.9999952316285,2|2,0:2|3:2,0:0:0:0:
304,192,96509,2,0,L|432:192,1,99.9999952316285,2|10,0:2|0:2,0:0:0:0:
128,80,97080,1,2,0:2:0:0:
256,80,97366,1,2,3:2:0:0:
384,80,97652,1,2,3:2:0:0:
256,192,98509,12,2,100509,3:2:0:0:
80,256,100794,6,0,L|80:16,1,224.999997854233,6|0,3:2|0:0,0:0:0:0:
144,32,101365,1,10,0:2:0:0:
144,96,101509,1,2,0:0:0:0:
208,96,101651,1,2,0:0:0:0:
400,96,101937,1,0,3:0:0:0:
400,96,102223,6,0,L|400:192,1,74.9999992847443,2|2,0:0|0:0,0:0:0:0:
304,171,102509,2,0,L|304:96,1,74.9999992847443,10|2,0:2|0:0,0:0:0:0:
208,96,102794,2,0,L|208:192,1,74.9999992847443,2|2,0:0|0:0,0:0:0:0:
144,192,103080,5,6,3:2:0:0:
192,240,103223,1,2,0:0:0:0:
256,240,103366,1,2,0:0:0:0:
320,240,103509,1,2,0:0:0:0:
368,288,103651,1,10,0:2:0:0:
480,192,103937,5,2,0:0:0:0:
400,32,104223,2,0,L|240:32,1,149.999998569489,4|0,3:2|0:0,0:0:0:0:
100,32,104794,2,0,L|260:32,1,149.999998569489,12|0,0:2|0:0,0:0:0:0:
256,192,105366,6,0,L|256:288,4,74.9999992847443,4|2|2|2|8,3:2|0:0|0:0|0:0|0:2,0:0:0:0:
256,32,106223,1,2,0:0:0:0:
437,74,106509,6,0,L|384:128,1,74.9999992847443,2|2,3:2|0:0,0:0:0:0:
448,176,106794,2,0,L|384:240,1,74.9999992847443,2|2,0:0|0:0,0:0:0:0:
416,288,107080,2,0,L|341:288,1,74.9999992847443,10|2,0:2|0:0,0:0:0:0:
288,368,107366,2,0,L|192:368,1,74.9999992847443,2|2,0:0|0:0,0:0:0:0:
128,368,107651,6,0,P|64:224|160:112,1,299.999997138977,4|8,3:2|0:2,0:0:0:0:
256,16,108509,1,2,0:0:0:0:
352,16,108794,2,0,L|502:16,1,149.999998569489,4|0,3:2|0:0,0:0:0:0:
416,80,109366,2,0,L|266:80,1,149.999998569489,12|0,0:2|0:0,0:0:0:0:
336,96,109937,6,0,P|400:192|336:256,1,224.999997854233,6|2,3:2|3:2,0:0:0:0:
335,256,110509,1,10,0:2:0:0:
256,256,110651,1,2,0:2:0:0:
176,256,110794,1,2,3:2:0:0:
64,16,111080,6,0,L|25:80,1,74.9999992847443,2|0,3:2|0:2,0:0:0:0:
96,128,111366,2,0,L|134:63,1,74.9999992847443,2|2,0:2|3:2,0:0:0:0:
256,0,111651,2,0,L|217:64,1,74.9999992847443,10|2,0:2|0:2,0:0:0:0:
288,112,111937,2,0,L|326:47,1,74.9999992847443,2|2,3:2|0:2,0:0:0:0:
400,112,112223,5,6,3:2:0:0:
384,192,112366,1,2,0:2:0:0:
320,240,112509,1,2,0:2:0:0:
256,240,112651,1,2,3:2:0:0:
192,240,112794,1,10,0:2:0:0:
128,192,112937,1,2,0:2:0:0:
112,112,113080,1,2,3:2:0:0:
112,112,113366,2,0,P|144:64|256:64,1,149.999998569489,6|2,3:2|0:2,0:0:0:0:
400,272,113937,2,0,P|368:320|256:320,1,149.999998569489,14|2,0:2|3:2,0:0:0:0:
106,192,114509,6,0,L|410:192,2,299.999997138977,6|10|2,3:2|0:2|3:2,0:0:0:0:
224,368,115937,6,0,P|256:304|288:288,1,74.9999992847443,2|2,3:2|3:2,0:0:0:0:
336,368,116223,2,0,P|368:304|400:288,1,74.9999992847443,10|2,0:2|0:2,0:0:0:0:
448,368,116509,2,0,P|480:304|512:288,1,74.9999992847443,2|2,3:2|3:2,0:0:0:0:
480,208,116794,5,6,3:2:0:0:
432,160,116937,1,2,0:2:0:0:
368,128,117080,1,2,0:2:0:0:
144,128,117366,1,10,0:2:0:0:
80,160,117509,1,2,0:2:0:0:
32,208,117652,1,2,3:2:0:0:
32,208,117937,6,0,L|176:272,1,149.999998569489,6|2,3:2|0:2,0:0:0:0:
342,268,118509,2,0,L|480:208,1,149.999998569489,14|2,0:2|3:2,0:0:0:0:
336,144,119080,5,6,3:2:0:0:
256,0,119366,1,2,0:2:0:0:
176,144,119651,1,10,0:2:0:0:
336,144,119937,1,0,3:2:0:0:
256,288,120223,1,2,3:2:0:0:
64,352,121080,6,0,P|96:288|160:288,1,99.9999952316285,2|2,0:2|3:2,0:0:0:0:
64,192,121651,2,0,L|176:192,1,99.9999952316285,2|10,0:2|0:2,0:0:0:0:
64,32,122223,1,2,0:2:0:0:
144,112,122509,1,2,3:2:0:0:
256,144,122794,1,2,0:2:0:0:
448,352,123366,6,0,P|416:288|352:288,1,99.9999952316285,2|2,0:2|3:2,0:0:0:0:
448,192,123937,2,0,L|336:192,1,99.9999952316285,2|8,0:2|0:2,0:0:0:0:
448,32,124509,1,2,0:2:0:0:
368,112,124795,1,2,3:2:0:0:
256,144,125080,1,2,0:2:0:0:
256,192,125937,12,6,128223,3:2:0:0:
160,112,137366,6,0,P|256:80|352:112,1,199.999990463257,6|10,3:2|0:2,0:0:0:0:
256,192,138223,1,2,0:2:0:0:
352,272,138509,2,0,P|256:304|160:272,1,199.999990463257,2|10,3:2|0:2,0:0:0:0:
256,192,139366,1,2,3:2:0:0:
160,112,139651,6,0,L|160:0,1,99.9999952316285,2|2,3:2|0:2,0:0:0:0:
80,176,140223,1,10,0:2:0:0:
80,128,140366,1,2,0:0:0:0:
80,80,140509,1,2,0:2:0:0:
0,240,140794,2,0,L|0:128,1,99.9999952316285,0|2,3:2|0:2,0:0:0:0:
0,240,141366,2,0,L|0:352,1,99.9999952316285,10|2,0:2|0:2,0:0:0:0:
48,352,141794,1,2,0:2:0:0:
96,368,141937,6,0,P|208:304|208:240,1,199.999990463257,6|10,3:2|0:2,0:0:0:0:
256,128,142794,1,2,0:2:0:0:
302,245,143080,2,0,P|324:338|416:368,1,199.999990463257,2|10,3:2|0:2,0:0:0:0:
496,272,143937,1,2,0:2:0:0:
416,176,144223,6,0,L|304:144,1,99.9999952316285,2|0,3:2|3:2,0:0:0:0:
416,64,144794,1,10,0:2:0:0:
368,48,144937,1,2,0:0:0:0:
320,32,145080,1,0,3:2:0:0:
192,148,145365,2,0,L|96:176,1,99.9999952316285,2|0,3:2|3:2,0:0:0:0:
192,32,145937,2,0,L|95:59,1,99.9999952316285,10|0,0:2|0:2,0:0:0:0:
48,80,146366,1,2,0:0:0:0:
0,96,146509,5,6,3:2:0:0:
0,240,146794,1,2,0:2:0:0:
64,240,146937,1,2,0:2:0:0:
128,240,147080,1,10,0:2:0:0:
128,240,147651,2,0,L|128:352,1,99.9999952316285,2|2,3:2|0:2,0:0:0:0:
208,336,148223,2,0,L|320:336,1,99.9999952316285,10|2,0:2|0:2,0:0:0:0:
304,304,148651,1,2,3:2:0:0:
304,272,148794,1,2,3:2:0:0:
400,256,149080,5,2,0:2:0:0:
400,304,149223,1,2,0:0:0:0:
400,352,149366,1,10,0:2:0:0:
480,304,149651,1,2,0:2:0:0:
480,208,149937,1,2,3:2:0:0:
400,144,150223,2,0,L|400:32,1,99.9999952316285,2|10,0:2|0:2,0:0:0:0:
256,16,150794,1,2,0:2:0:0:
256,80,150937,1,2,0:2:0:0:
256,144,151080,5,2,3:2:0:0:
112,144,151366,2,0,L|112:44,1,99.9999952316285,2|10,0:2|0:2,0:0:0:0:
112,192,152223,1,2,3:2:0:0:
64,256,152509,2,0,L|0:336,1,99.9999952316285,2|10,0:2|0:2,0:0:0:0:
128,336,153080,1,2,0:2:0:0:
160,336,153223,1,2,0:2:0:0:
192,336,153366,1,2,3:2:0:0:
384,336,153651,1,2,0:0:0:0:
352,336,153794,1,2,0:2:0:0:
320,336,153937,1,10,0:2:0:0:
256,336,154223,5,2,0:0:0:0:
160,192,154509,1,2,3:2:0:0:
256,48,154794,1,2,0:2:0:0:
352,192,155080,1,10,0:2:0:0:
352,192,155509,1,2,0:2:0:0:
352,192,155651,6,0,P|384:256|352:384,1,199.999990463257,0|10,3:2|0:2,0:0:0:0:
256,304,156794,2,0,L|256:192,1,99.9999952316285,2|2,3:2|0:2,0:0:0:0:
256,204,157223,1,2,0:0:0:0:
256,204,157366,1,10,0:2:0:0:
32,192,157937,5,2,3:2:0:0:
32,320,158223,1,2,0:2:0:0:
160,320,158509,1,10,0:2:0:0:
160,288,158651,1,2,0:0:0:0:
160,256,158794,1,2,0:2:0:0:
160,224,158937,1,2,0:2:0:0:
160,192,159080,1,2,3:2:0:0:
32,192,159366,1,2,0:2:0:0:
32,192,159509,1,2,0:2:0:0:
32,192,159651,1,10,0:2:0:0:
32,80,159937,1,2,0:2:0:0:
32,16,160080,1,0,3:2:0:0:
96,16,160223,6,0,L|304:16,1,199.999990463257,2|10,3:2|0:2,0:0:0:0:
416,16,161223,1,2,0:2:0:0:
416,16,161366,2,0,L|208:16,1,199.999990463257,2|10,3:2|0:2,0:0:0:0:
256,192,162509,12,2,164509,0:0:0:0:
144,192,164794,5,6,3:2:0:0:
256,80,165080,1,2,0:0:0:0:
368,192,165366,1,10,0:0:0:0:
256,304,165652,1,2,0:0:0:0:
144,192,165937,1,2,3:2:0:0:
256,192,166794,6,0,L|224:96,1,99.9999952316285,2|4,0:0|3:2,0:0:0:0:
256,192,167366,2,0,L|288:96,1,99.9999952316285,2|10,0:0|0:0,0:0:0:0:
128,96,167937,1,2,0:0:0:0:
256,16,168223,1,2,3:2:0:0:
384,96,168509,1,2,0:2:0:0:
208,192,169080,6,0,L|176:288,1,99.9999952316285,2|4,0:0|3:2,0:0:0:0:
304,192,169652,2,0,L|336:288,1,99.9999952316285,2|10,0:0|0:0,0:0:0:0:
128,288,170223,1,2,0:0:0:0:
256,368,170509,1,2,3:2:0:0:
384,288,170795,1,2,0:0:0:0:
256,192,171651,12,6,173937,3:2:0:0:
