osu file format v14

[General]
AudioFilename: audio.mp3
AudioLeadIn: 0
PreviewTime: 180059
Countdown: 0
SampleSet: Soft
StackLeniency: 0.7
Mode: 0
LetterboxInBreaks: 0
WidescreenStoryboard: 0

[Editor]
Bookmarks: 79122
DistanceSpacing: 1.1
BeatDivisor: 8
GridSize: 8
TimelineZoom: 1

[Metadata]
Title:True Love ft. Lily Allen
TitleUnicode:True Love ft. Lily Allen
Artist:P!nk
ArtistUnicode:P!nk
Creator:DTM9 Nowa
Version:Stingy's Normal Love
Source:
Tags:Alecia Beth Moore Pink The Truth About Love Stingy Mkguh Mir
BeatmapID:1380298
BeatmapSetID:651376

[Difficulty]
HPDrainRate:3
CircleSize:3
OverallDifficulty:3
ApproachRate:4.5
SliderMultiplier:1.5
SliderTickRate:1

[Events]
//Background and Video events
0,0,"TLWP.jpg",0,0
//Break Periods
2,150259,153799
//Storyboard Layer 0 (Background)
//Storyboard Layer 1 (Fail)
//Storyboard Layer 2 (Pass)
//Storyboard Layer 3 (Foreground)
//Storyboard Sound Samples

[TimingPoints]
10059.817888941,625,4,2,1,50,1,0
30059,-100,4,2,1,60,0,0
47559,-100,4,2,1,40,0,0
50059,-95.2380952380952,4,2,1,70,0,1
69434,-95.2380952380952,4,2,1,60,0,0
70059,-95.2380952380952,4,2,1,70,0,1
77403,-95.2380952380952,4,2,1,40,0,0
80059,-100,4,2,1,50,0,0
97559,-100,4,2,1,40,0,0
98497,-100,4,2,1,50,0,0
100059,-100,4,2,1,60,0,0
117559,-100,4,2,1,40,0,0
120059,-95.2380952380952,4,2,1,70,0,1
139434,-95.2380952380952,4,2,1,60,0,0
140059,-95.2380952380952,4,2,1,70,0,1
147403,-95.2380952380952,4,2,1,40,0,0
150059,-100,4,2,1,50,0,0
160059,-100,4,2,1,40,0,0
161934,-100,4,2,1,45,0,0
162559,-100,4,2,1,50,0,0
180059,-95.2380952380952,4,2,1,70,0,1
199434,-95.2380952380952,4,2,1,60,0,0
200059,-95.2380952380952,4,2,1,70,0,1
220059,-105.263157894737,4,2,1,45,0,0
225997,-105.263157894737,4,2,1,30,0,0
226622,-105.263157894737,4,2,1,25,0,0
227247,-105.263157894737,4,2,1,20,0,0
227872,-105.263157894737,4,2,1,15,0,0
228497,-105.263157894737,4,2,1,10,0,0
229044,-105.263157894737,4,2,69,5,0,0

[Colours]
Combo1 : 204,119,236
Combo2 : 238,39,17
Combo3 : 184,22,188
Combo4 : 255,102,102

[HitObjects]
32,112,10059,6,0,P|80:64|160:64,1,150,2|10,0:0|0:0,0:0:0:0:
228,106,10997,1,0,0:0:0:0:
260,181,11309,2,0,L|268:269,1,75,2|2,0:0|0:0,0:0:0:0:
349,258,11934,2,0,L|357:170,1,75,10|0,0:0|0:0,0:0:0:0:
387,106,12559,5,0,0:0:0:0:
340,37,12872,2,0,P|298:28|252:40,1,75,2|10,0:0|0:0,0:0:0:0:
228,106,13497,2,0,B|195:122|156:113|156:113|132:150|78:154,1,150,0|2,0:0|0:0,0:0:0:0:
18,117,14434,2,0,P|11:154|18:191,1,75,10|2,0:0|0:0,0:0:0:0:
84,238,15059,6,0,P|91:275|84:312,1,75,0|2,0:0|0:0,0:0:0:0:
152,358,15684,1,10,0:0:0:0:
221,313,15997,2,0,L|389:313,1,150,0|2,0:0|0:0,0:0:0:0:
453,313,16934,1,10,0:0:0:0:
478,149,17559,6,0,B|471:78|400:29|400:29|330:68,2,225,2|0|10,0:0|0:0|0:0,0:0:0:0:
453,313,20059,6,0,P|367:330|296:326,1,150,2|10,0:0|0:0,0:0:0:0:
225,307,20997,1,0,0:0:0:0:
176,240,21309,2,0,L|188:138,1,75,2|2,0:0|0:0,0:0:0:0:
267,164,21934,2,0,L|275:238,1,75,10|2,0:0|0:0,0:0:0:0:
319,308,22559,5,0,0:0:0:0:
366,240,22872,2,0,P|371:196|359:132,1,75,2|10,0:0|0:0,0:0:0:0:
339,88,23497,2,0,P|282:61|191:90,1,150,0|2,0:0|0:0,0:0:0:0:
149,145,24434,2,0,P|144:189|156:253,1,75,10|2,0:0|0:0,0:0:0:0:
195,285,25059,6,0,P|200:329|188:393,1,75,0|2,0:0|0:0,0:0:0:0:
117,380,25684,1,10,0:0:0:0:
40,349,25997,2,0,P|10:299|0:197,1,150,0|2,0:0|0:0,0:0:0:0:
39,137,26934,1,10,0:0:0:0:
179,230,27559,6,0,B|235:208|235:208|267:25,2,225,2|0|8,0:0|0:0|0:0,0:0:0:0:
56,337,30059,6,0,P|100:359|138:361,1,75,0|2,0:0|0:0,0:0:0:0:
202,332,30684,1,10,0:0:0:0:
269,284,30997,2,0,P|313:262|417:280,1,150,2|2,0:0|0:0,0:0:0:0:
433,356,31934,2,0,L|352:371,1,75,10|2,0:0|0:0,0:0:0:0:
276,372,32559,6,0,L|195:357,1,75,0|2,0:0|0:0,0:0:0:0:
121,341,33184,1,10,0:0:0:0:
41,318,33497,2,0,P|19:241|36:150,2,150,2|2|2,0:0|0:0|0:0,0:0:0:0:
121,341,35059,6,0,L|205:341,1,75,0|2,0:0|0:0,0:0:0:0:
267,299,35684,1,10,0:0:0:0:
338,341,35997,2,0,B|418:341|418:341|473:266,1,150,2|2,0:0|0:0,0:0:0:0:
389,240,36934,2,0,P|346:228|289:239,1,75,10|2,0:0|0:0,0:0:0:0:
267,299,37559,6,0,P|224:311|167:300,1,75,0|2,0:0|0:0,0:0:0:0:
120,271,38184,1,10,0:0:0:0:
67,207,38497,2,0,L|46:56,2,150,2|2|2,0:0|0:0|0:0,0:0:0:0:
120,271,40059,6,0,P|163:283|220:272,1,75,0|2,0:0|0:0,0:0:0:0:
264,240,40684,1,10,0:0:0:0:
304,168,40997,2,0,L|295:90,1,75,2|0,0:0|0:0,0:0:0:0:
368,53,41621,1,2,0:0:0:0:
413,123,41934,2,0,P|456:135|513:124,1,75,10|2,0:0|0:0,0:0:0:0:
507,212,42559,6,0,L|499:300,1,75,0|2,0:0|0:0,0:0:0:0:
437,340,43184,1,10,0:0:0:0:
373,286,43497,2,0,P|293:254|213:270,2,150,2|2|2,0:0|0:0|0:0,0:0:0:0:
256,192,45059,12,0,47559,0:0:0:0:
16,96,50059,6,0,P|80:80|162:124,1,157.499995193482,6|8,0:0|0:0,0:0:0:0:
195,198,50997,1,2,0:0:0:0:
218,281,51309,2,0,L|322:301,1,78.7499975967408
380,312,51934,2,0,L|484:292,1,78.7499975967408,8|0,0:0|0:0,0:0:0:0:
504,224,52559,6,0,P|489:181|457:143,2,78.7499975967408,2|0|8,0:0|0:0|0:0,0:0:0:0:
457,297,53497,2,0,P|442:340|410:378,1,78.7499975967408,2|0,0:0|0:0,0:0:0:0:
336,354,54122,1,2,0:0:0:0:
254,323,54434,2,0,P|214:315|166:320,1,78.7499975967408,10|2,0:0|0:0,0:0:0:0:
98,280,55059,6,0,L|86:114,1,157.499995193482,2|8,0:0|0:0,0:0:0:0:
165,87,55997,2,0,L|171:172,1,78.7499975967408,2|0,0:0|0:0,0:0:0:0:
237,220,56622,1,0,0:0:0:0:
299,160,56934,2,0,P|336:146|383:150,1,78.7499975967408,8|0,0:0|0:0,0:0:0:0:
442,201,57559,6,0,L|450:322,2,118.124996395111,2|2|0,0:0|0:0|0:0,0:0:0:0:
374,147,58809,2,0,L|381:36,2,78.7499975967408,2|2|10,0:0|0:0|0:0,0:0:0:0:
306,201,59747,1,2,0:0:0:0:
229,160,60059,6,0,P|168:132|65:170,1,157.499995193482,6|8,0:0|0:0,0:0:0:0:
22,215,60997,1,2,0:0:0:0:
3,299,61309,2,0,P|3:339|16:381,1,78.7499975967408,0|0,0:0|0:0,0:0:0:0:
89,333,61934,2,0,P|89:293|102:251,1,78.7499975967408,10|0,0:0|0:0,0:0:0:0:
157,193,62559,6,0,L|241:154,2,78.7499975967408,2|0|8,0:0|0:0|0:0,0:0:0:0:
217,255,63497,2,0,P|227:292|227:331,1,78.7499975967408,2|0,0:0|0:0,0:0:0:0:
302,376,64122,1,2,0:0:0:0:
318,291,64434,2,0,P|307:253|307:214,1,78.7499975967408,10|2,0:0|0:0,0:0:0:0:
390,237,65059,6,0,P|454:171|442:88,1,157.499995193482,2|8,0:0|0:0,0:0:0:0:
394,45,65997,2,0,L|315:31,1,78.7499975967408,2|0,0:0|0:0,0:0:0:0:
247,83,66622,1,0,0:0:0:0:
186,145,66934,2,0,L|107:159,1,78.7499975967408,8|0,0:0|0:0,0:0:0:0:
53,225,67559,6,0,P|67:314|99:361,2,118.124996395111,2|2|0,0:0|0:0|0:0,0:0:0:0:
108,158,68809,2,0,P|116:113|111:76,1,78.7499975967408,2|2,0:0|0:0,0:0:0:0:
179,26,69434,1,10,0:0:0:0:
249,76,69747,1,0,0:0:0:0:
319,26,70059,6,0,P|362:18|403:22,1,78.7499975967408,6|0,0:0|0:0,0:0:0:0:
443,94,70684,2,0,P|400:102|359:98,1,78.7499975967408,10|0,0:0|0:0,0:0:0:0:
295,150,71309,2,0,P|287:213|298:280,2,118.124996395111,2|2|2,0:0|0:0|0:0,0:0:0:0:
249,76,72559,6,0,L|160:63,1,78.7499975967408,2|0,0:0|0:0,0:0:0:0:
97,110,73184,1,8,0:0:0:0:
27,162,73497,2,0,L|-1:337,1,157.499995193482,0|2,0:0|0:0,0:0:0:0:
75,363,74434,2,0,L|89:278,1,78.7499975967408,10|0,0:0|0:0,0:0:0:0:
168,315,75059,6,0,P|211:323|252:319,1,78.7499975967408,6|0,0:0|0:0,0:0:0:0:
292,247,75684,2,0,P|249:239|208:243,1,78.7499975967408,10|0,0:0|0:0,0:0:0:0:
144,191,76309,2,0,P|136:128|147:61,2,118.124996395111,2|2|0,0:0|0:0|0:0,0:0:0:0:
43,130,80059,6,0,P|122:116|192:148,1,150,2|10,0:0|0:0,0:0:0:0:
244,198,80997,1,0,0:0:0:0:
269,276,81309,2,0,P|268:332|239:379,2,112.5,2|2|0,0:0|0:0|0:0,0:0:0:0:
244,198,82559,6,0,P|207:190|161:193,2,75,0|2|10,0:0|0:0|0:0,0:0:0:0:
325,213,83497,2,0,P|418:214|492:176,1,150,0|2,0:0|0:0,0:0:0:0:
511,121,84434,2,0,L|505:43,1,75,10|2,0:0|0:0,0:0:0:0:
430,11,85059,6,0,B|396:3|396:3|357:10,2,75,0|2|10,0:0|0:0|0:0,0:0:0:0:
505,46,85997,2,0,L|519:224,1,150,0|2,0:0|0:0,0:0:0:0:
491,273,86934,1,10,0:0:0:0:
337,333,87559,6,0,B|298:349|251:336|251:336|240:301|240:301|191:277|137:305,2,225,2|0|10,0:0|0:0|0:0,0:0:0:0:
400,180,90059,6,0,P|401:120|350:22,2,150,2|10|2,0:0|0:0|0:0,0:0:0:0:
351,247,91622,1,2,0:0:0:0:
277,284,91934,2,0,L|177:266,1,75,10|0,0:0|0:0,0:0:0:0:
138,219,92559,5,0,0:0:0:0:
86,154,92872,2,0,L|68:54,2,75,2|10|2,0:0|0:0|0:0,0:0:0:0:
46,228,93809,2,0,L|64:328,1,75,2|2,0:0|0:0,0:0:0:0:
141,308,94434,1,10,0:0:0:0:
190,150,95059,6,0,P|244:105|349:105,1,150,2|10,0:0|0:0,0:0:0:0:
397,128,95997,2,0,P|442:141|476:142,2,75,0|2|2,0:0|0:0|0:0,0:0:0:0:
389,45,96934,1,10,0:0:0:0:
320,192,97559,6,0,B|368:232|460:240|460:240|460:276|441:312,2,225,2|2|2,0:0|0:0|0:0,0:0:0:0:
283,35,100059,6,0,L|189:42,1,75,0|2,0:0|0:0,0:0:0:0:
158,106,100684,1,10,0:0:0:0:
77,86,100997,2,0,P|3:116|25:194,1,150,2|2,0:0|0:0,0:0:0:0:
52,244,101934,2,0,L|146:251,1,75,10|2,0:0|0:0,0:0:0:0:
194,297,102559,6,0,P|200:332|193:374,2,75,0|2|10,0:0|0:0|0:0,0:0:0:0:
232,223,103497,2,0,B|255:154|255:154|229:65,2,150,2|2|0,0:0|0:0|0:0,0:0:0:0:
278,290,105059,6,0,P|316:301|362:295,1,75,0|2,0:0|0:0,0:0:0:0:
428,268,105684,1,10,0:0:0:0:
483,206,105997,2,0,L|439:53,1,150,2|2,0:0|0:0,0:0:0:0:
370,19,106934,2,0,P|332:8|286:14,1,75,10|2,0:0|0:0,0:0:0:0:
229,58,107559,6,0,P|191:69|145:63,2,75,0|2|10,0:0|0:0|0:0,0:0:0:0:
304,91,108497,2,0,B|329:120|329:120|337:176|302:243,2,150,2|2|0,0:0|0:0|0:0,0:0:0:0:
229,58,110059,6,0,L|139:50,2,75,0|2|10,0:0|0:0|0:0,0:0:0:0:
304,91,110997,1,2,0:0:0:0:
379,124,111309,2,0,L|469:116,2,75,0|2|10,0:0|0:0|0:0,0:0:0:0:
340,196,112247,1,2,0:0:0:0:
383,265,112559,6,0,P|389:307|376:358,1,75,0|2,0:0|0:0,0:0:0:0:
309,376,113184,1,10,0:0:0:0:
227,365,113497,2,0,B|147:350|147:350|53:350,2,150,0|2|0,0:0|0:0|0:0,0:0:0:0:
256,192,115059,12,2,117559,0:0:0:0:
496,288,120059,6,0,P|432:304|350:260,1,157.499995193482,6|8,0:0|0:0,0:0:0:0:
317,186,120997,1,2,0:0:0:0:
294,103,121309,2,0,P|261:86|190:83,1,78.7499975967408,0|0,0:0|0:0,0:0:0:0:
143,119,121934,2,0,P|110:136|39:139,1,78.7499975967408,8|0,0:0|0:0,0:0:0:0:
11,207,122559,6,0,L|19:292,2,78.7499975967408,2|0|8,0:0|0:0|0:0,0:0:0:0:
69,142,123497,2,0,L|77:57,1,78.7499975967408,2|0,0:0|0:0,0:0:0:0:
156,30,124122,1,2,0:0:0:0:
236,60,124434,2,0,P|276:68|324:63,1,78.7499975967408,10|0,0:0|0:0,0:0:0:0:
387,111,125059,6,0,L|399:277,1,157.499995193482,2|8,0:0|0:0,0:0:0:0:
320,304,125997,2,0,L|314:219,1,78.7499975967408,2|0,0:0|0:0,0:0:0:0:
248,171,126622,1,0,0:0:0:0:
186,231,126934,2,0,P|149:245|102:241,1,78.7499975967408,8|0,0:0|0:0,0:0:0:0:
43,190,127559,6,0,B|43:130|43:130|77:50,2,118.124996395111,2|2|0,0:0|0:0|0:0,0:0:0:0:
111,244,128809,2,0,L|111:352,2,78.7499975967408,2|2|10,0:0|0:0|0:0,0:0:0:0:
179,190,129747,1,2,0:0:0:0:
256,231,130059,6,0,P|317:259|420:221,1,157.499995193482,6|8,0:0|0:0,0:0:0:0:
463,176,130997,1,2,0:0:0:0:
482,92,131309,2,0,P|482:52|469:10,1,78.7499975967408,0|0,0:0|0:0,0:0:0:0:
396,58,131934,2,0,P|396:98|383:140,1,78.7499975967408,8|0,0:0|0:0,0:0:0:0:
326,198,132559,6,0,L|326:284,2,78.7499975967408,2|0|8,0:0|0:0|0:0,0:0:0:0:
268,136,133497,2,0,P|258:99|258:60,1,78.7499975967408,2|0,0:0|0:0,0:0:0:0:
183,17,134122,1,2,0:0:0:0:
167,100,134434,2,0,P|178:138|178:177,1,78.7499975967408,10|2,0:0|0:0,0:0:0:0:
95,154,135059,6,0,P|31:220|43:303,1,157.499995193482,2|8,0:0|0:0,0:0:0:0:
91,346,135997,2,0,L|170:360,1,78.7499975967408,2|0,0:0|0:0,0:0:0:0:
238,308,136622,1,0,0:0:0:0:
299,246,136934,2,0,L|378:232,1,78.7499975967408,8|2,0:0|0:0,0:0:0:0:
432,166,137559,6,0,P|428:105|386:30,2,118.124996395111,2|2|0,0:0|0:0|0:0,0:0:0:0:
377,233,138809,2,0,L|374:315,1,78.7499975967408,2|2,0:0|0:0,0:0:0:0:
306,365,139434,1,10,0:0:0:0:
236,315,139747,1,2,0:0:0:0:
166,365,140059,6,0,L|82:369,1,78.7499975967408,6|0,0:0|0:0,0:0:0:0:
45,292,140684,2,0,L|129:288,1,78.7499975967408,10|0,0:0|0:0,0:0:0:0:
195,240,141309,2,0,P|203:177|192:110,2,118.124996395111,2|2|0,0:0|0:0|0:0,0:0:0:0:
236,315,142559,6,0,L|325:328,1,78.7499975967408,2|0,0:0|0:0,0:0:0:0:
388,281,143184,1,8,0:0:0:0:
458,229,143497,2,0,L|486:54,1,157.499995193482,0|2,0:0|0:0,0:0:0:0:
410,28,144434,2,0,L|396:113,1,78.7499975967408,10|0,0:0|0:0,0:0:0:0:
317,76,145059,6,0,L|233:72,1,78.7499975967408,6|0,0:0|0:0,0:0:0:0:
198,149,145684,2,0,L|282:153,1,78.7499975967408,10|0,0:0|0:0,0:0:0:0:
342,208,146309,2,0,P|350:271|339:338,2,118.124996395111,2|2|0,0:0|0:0|0:0,0:0:0:0:
256,192,147559,12,0,150059,0:0:0:0:
256,192,155059,12,0,158809,0:0:0:0:
57,148,160059,5,0,0:0:0:0:
134,180,160372,2,0,P|138:143|130:106,2,75,2|2|2,0:0|0:0|0:0,0:0:0:0:
184,245,161309,2,0,P|189:275|178:324,2,75,2|2|10,0:0|0:0|0:0,0:0:0:0:
216,169,162247,1,2,0:0:0:0:
296,153,162559,6,0,L|375:144,1,75,0|2,0:0|0:0,0:0:0:0:
452,134,163184,1,8,0:0:0:0:
469,53,163497,2,0,L|220:83,1,225,2|8,0:0|0:0,0:0:0:0:
143,209,165059,5,0,0:0:0:0:
85,268,165372,2,0,P|48:272|11:264,2,75,2|10|2,0:0|0:0|0:0,0:0:0:0:
163,292,166309,2,0,P|193:287|242:298,1,75,2|2,0:0|0:0,0:0:0:0:
306,339,166934,1,10,0:0:0:0:
385,362,167247,6,0,P|438:366|505:284,2,150,2|2|2,0:0|0:0|0:0,0:0:0:0:
420,287,168809,1,0,0:0:0:0:
420,287,170059,5,0,0:0:0:0:
453,211,170372,2,0,P|459:154|454:127,1,75,2|10,0:0|0:0,0:0:0:0:
420,62,170997,1,2,0:0:0:0:
345,27,171309,2,0,L|248:19,2,75,2|0|10,0:0|0:0|0:0,0:0:0:0:
420,62,172247,1,2,0:0:0:0:
365,124,172559,6,0,P|347:174|369:236,2,112.5,2|2|2,0:0|0:0|0:0,0:0:0:0:
420,62,173809,2,0,L|517:54,2,75,0|0|8,0:0|0:0|0:0,0:0:0:0:
305,180,175059,5,0,0:0:0:0:
288,261,175372,1,2,0:0:0:0:
269,341,175684,2,0,L|145:355,2,112.5,10|2|0,0:0|0:0|0:0,0:0:0:0:
351,332,176934,2,0,P|399:339|441:354,1,75,8|2,0:0|0:0,0:0:0:0:
496,306,177559,6,0,B|515:261|492:219|492:219|504:182|504:182|475:138|504:83|504:83|469:19|346:8|305:99,1,450,0|8,0:0|0:0,0:0:0:0:
243,232,180059,6,0,P|166:263|127:207,1,157.499995193482,6|8,0:0|0:0,0:0:0:0:
118,126,180997,1,2,0:0:0:0:
165,53,181309,2,0,L|247:40,1,78.7499975967408,0|0,0:0|0:0,0:0:0:0:
318,75,181934,1,8,0:0:0:0:
394,116,182247,1,0,0:0:0:0:
469,158,182559,6,0,P|465:221|446:263,2,78.7499975967408,2|0|8,0:0|0:0|0:0,0:0:0:0:
394,116,183497,2,0,L|305:107,1,78.7499975967408,2|0,0:0|0:0,0:0:0:0:
242,154,184122,1,2,0:0:0:0:
155,162,184434,2,0,L|66:171,1,78.7499975967408,10|0,0:0|0:0,0:0:0:0:
3,219,185059,6,0,P|76:190|142:228,1,157.499995193482,2|8,0:0|0:0,0:0:0:0:
176,304,185997,1,2,0:0:0:0:
226,233,186309,2,0,L|309:195,2,78.7499975967408,0|0|8,0:0|0:0|0:0,0:0:0:0:
142,215,187247,1,0,0:0:0:0:
59,190,187559,6,0,B|47:142|47:142|68:59,2,118.124996395111,2|2|0,0:0|0:0|0:0,0:0:0:0:
142,215,188809,1,2,0:0:0:0:
160,299,189122,1,2,0:0:0:0:
241,328,189434,2,0,P|294:320|322:330,1,78.7499975967408,10|2,0:0|0:0,0:0:0:0:
399,299,190059,6,0,L|424:135,1,157.499995193482,6|8,0:0|0:0,0:0:0:0:
372,72,190997,1,2,0:0:0:0:
291,103,191309,2,0,P|238:111|210:101,1,78.7499975967408,0|0,0:0|0:0,0:0:0:0:
138,63,191934,1,8,0:0:0:0:
60,101,192247,1,0,0:0:0:0:
28,181,192559,6,0,L|14:273,2,78.7499975967408,2|0|8,0:0|0:0|0:0,0:0:0:0:
60,101,193497,2,0,L|152:87,1,78.7499975967408,2|0,0:0|0:0,0:0:0:0:
195,153,194122,1,2,0:0:0:0:
253,216,194434,2,0,L|345:230,1,78.7499975967408,10|2,0:0|0:0,0:0:0:0:
388,292,195059,6,0,P|417:224|378:152,1,157.499995193482,2|8,0:0|0:0,0:0:0:0:
299,124,195997,1,2,0:0:0:0:
212,119,196309,2,0,P|186:163|176:212,1,78.7499975967408,0|0,0:0|0:0,0:0:0:0:
97,220,196934,2,0,P|71:176|61:127,1,78.7499975967408,8|2,0:0|0:0,0:0:0:0:
61,62,197559,6,0,B|116:30|116:30|177:48,2,118.124996395111,2|2|0,0:0|0:0|0:0,0:0:0:0:
63,149,198809,2,0,P|41:182|29:219,1,78.7499975967408,2|2,0:0|0:0,0:0:0:0:
6,303,199434,1,10,0:0:0:0:
90,281,199747,1,2,0:0:0:0:
173,303,200059,6,0,L|268:333,1,78.7499975967408,6|0,0:0|0:0,0:0:0:0:
330,352,200684,1,10,0:0:0:0:
309,267,200997,1,0,0:0:0:0:
322,181,201309,2,0,P|342:141|404:90,2,118.124996395111,2|2|0,0:0|0:0|0:0,0:0:0:0:
309,267,202559,6,0,P|276:255|231:203,1,78.7499975967408,2|0,0:0|0:0,0:0:0:0:
243,139,203184,1,8,0:0:0:0:
231,52,203497,2,0,P|198:64|153:116,2,78.7499975967408,0|2|2,0:0|0:0|0:0,0:0:0:0:
320,48,204434,1,10,0:0:0:0:
396,93,204747,1,0,0:0:0:0:
430,172,205059,6,0,L|422:263,1,78.7499975967408,6|2,0:0|0:0,0:0:0:0:
357,306,205684,1,10,0:0:0:0:
281,263,205997,1,2,0:0:0:0:
202,299,206309,2,0,B|158:314|158:314|51:291,2,118.124996395111,2|2|0,0:0|0:0|0:0,0:0:0:0:
281,263,207559,6,0,B|351:235|417:285,2,118.124996395111,2|2|0,0:0|0:0|0:0,0:0:0:0:
210,212,208809,2,0,L|177:140,1,78.7499975967408,2|2,0:0|0:0,0:0:0:0:
101,98,209434,1,10,0:0:0:0:
25,140,209747,1,2,0:0:0:0:
38,225,210059,6,0,L|5:297,2,78.7499975967408,6|0|10,0:0|0:0|0:0,0:0:0:0:
25,140,210997,1,0,0:0:0:0:
6,55,211309,2,0,P|52:25|138:26,2,118.124996395111,2|2|0,0:0|0:0|0:0,0:0:0:0:
25,140,212559,6,0,L|46:248,1,78.7499975967408,2|0,0:0|0:0,0:0:0:0:
58,302,213184,1,8,0:0:0:0:
125,247,213497,2,0,P|180:240|213:247,1,78.7499975967408,0|2,0:0|0:0,0:0:0:0:
278,285,214122,1,2,0:0:0:0:
349,333,214434,2,0,P|404:340|437:333,1,78.7499975967408,10|0,0:0|0:0,0:0:0:0:
497,285,215059,6,0,L|508:205,2,78.7499975967408,6|2|10,0:0|0:0|0:0,0:0:0:0:
426,336,215997,1,0,0:0:0:0:
347,299,216309,2,0,P|287:283|227:303,2,118.124996395111,2|2|0,0:0|0:0|0:0,0:0:0:0:
426,336,217559,6,0,B|480:364|480:364|524:324,2,118.124996395111,2|2|0,0:0|0:0|0:0,0:0:0:0:
419,249,218809,2,0,L|412:170,1,78.7499975967408,2|2,0:0|0:0,0:0:0:0:
336,127,219434,1,10,0:0:0:0:
328,40,219747,1,2,0:0:0:0:
257,89,220059,6,0,B|213:91|184:66|184:66|112:112|40:76,1,213.749994292259,2|2,0:0|0:0,0:0:0:0:
55,82,222559,6,0,B|44:123|51:169|51:169|72:192|72:192|79:259|152:275,1,213.749994292259,2|2,0:0|0:0,0:0:0:0:
331,329,225372,6,0,B|371:198|479:233|539:144|497:8|374:8|331:70|331:70|288:8|158:13|126:140|175:233|267:193|287:284,1,854.999977169037,2|0,0:0|0:0,0:0:0:0:
