osu file format v14

[General]
AudioFilename: audio.mp3
AudioLeadIn: 0
PreviewTime: 180059
Countdown: 0
SampleSet: Soft
StackLeniency: 0.7
Mode: 0
LetterboxInBreaks: 0
WidescreenStoryboard: 0

[Editor]
Bookmarks: 215997
DistanceSpacing: 0.1
BeatDivisor: 8
GridSize: 4
TimelineZoom: 1

[Metadata]
Title:True Love ft. Lily Allen
TitleUnicode:True Love ft. Lily Allen
Artist:P!nk
ArtistUnicode:P!nk
Creator:DTM9 Nowa
Version:Mk's Advanced Love
Source:
Tags:Alecia Beth Moore Pink The Truth About Love Stingy Mkguh Mir
BeatmapID:1380295
BeatmapSetID:651376

[Difficulty]
HPDrainRate:5
CircleSize:4
OverallDifficulty:5.8
ApproachRate:7
SliderMultiplier:1.7
SliderTickRate:1

[Events]
//Background and Video events
0,0,"TLWP.jpg",0,0
//Break Periods
//Storyboard Layer 0 (Background)
//Storyboard Layer 1 (Fail)
//Storyboard Layer 2 (Pass)
//Storyboard Layer 3 (Foreground)
//Storyboard Sound Samples

[TimingPoints]
10059.817888941,625,4,2,1,60,1,0
30059,-100,4,2,1,70,0,0
47872,-133.333333333333,4,2,1,50,0,0
50059,-90.9090909090909,4,2,1,90,0,1
77872,-133.333333333333,4,2,1,60,0,1
80059,-100,4,2,1,60,0,0
100059,-100,4,2,1,70,0,0
117872,-133.333333333333,4,2,1,60,0,0
120059,-90.9090909090909,4,2,1,90,0,1
147872,-133.333333333333,4,2,1,60,0,1
150059,-100,4,2,1,60,0,0
160059,-133.333333333333,4,2,1,50,0,0
162559,-100,4,2,1,70,0,0
180059,-90.9090909090909,4,2,1,90,0,1
220059,-133.333333333333,4,2,1,40,0,0
225372,-133.333333333333,4,2,1,45,0,0
225997,-133.333333333333,4,2,1,30,0,0
226622,-133.333333333333,4,2,1,25,0,0
227247,-133.333333333333,4,2,1,20,0,0
227872,-133.333333333333,4,2,1,15,0,0
228497,-133.333333333333,4,2,1,10,0,0
229044,-133.333333333333,4,2,69,5,0,0

[Colours]
Combo1 : 204,119,236
Combo2 : 238,39,17
Combo3 : 184,22,188
Combo4 : 255,102,102

[HitObjects]
20,120,10059,6,0,L|116:104,1,85,4|4,0:3|0:3,0:0:0:0:
196,88,10684,1,8,0:0:0:0:
264,24,10997,2,0,P|240:88|280:184,1,170,4|4,0:3|0:3,0:0:0:0:
356,228,11934,1,8,0:0:0:0:
368,136,12247,1,0,0:0:0:0:
272,256,12559,5,4,0:3:0:0:
304,344,12872,1,4,0:3:0:0:
388,300,13184,1,8,0:0:0:0:
448,372,13497,2,0,B|488:304|488:304|468:208,1,170,4|4,0:3|0:3,0:0:0:0:
448,124,14434,1,8,0:0:0:0:
376,184,14747,1,0,0:0:0:0:
285,78,15059,6,0,P|237:86|197:78,1,85,4|4,0:3|0:3,0:0:0:0:
108,72,15684,1,8,0:0:0:0:
68,156,15997,2,0,L|72:248,1,85,4|0,0:3|0:0,0:0:0:0:
76,336,16622,1,4,3:0:0:0:
156,284,16934,2,0,P|196:276|248:284,1,85,8|0,0:0|0:0,0:0:0:0:
400,328,17559,6,0,P|408:280|380:224,2,85,4|4|8,0:3|0:3|0:0,0:0:0:0:
316,284,18497,2,0,L|344:80,1,170,4|8,0:3|0:0,0:0:0:0:
256,68,19434,1,8,0:0:0:0:
176,116,19747,1,4,0:3:0:0:
176,116,19903,1,0,0:0:0:0:
176,116,20059,6,0,P|184:184|176:216,1,85,4|4,0:3|0:3,0:0:0:0:
104,252,20684,1,8,0:0:0:0:
140,340,20997,2,0,L|320:332,1,170,4|4,0:3|0:3,0:0:0:0:
364,256,21934,1,8,0:0:0:0:
404,340,22247,1,0,0:0:0:0:
476,244,22559,5,4,0:3:0:0:
492,152,22872,1,4,0:3:0:0:
400,136,23184,1,8,0:0:0:0:
416,44,23497,2,0,P|342:64|307:149,1,170,4|4,0:3|0:3,0:0:0:0:
256,224,24434,1,8,0:0:0:0:
204,148,24747,1,0,0:0:0:0:
204,148,24903,1,0,0:0:0:0:
204,148,25059,6,0,L|112:144,1,85,4|4,0:3|0:3,0:0:0:0:
28,172,25684,1,8,0:0:0:0:
88,244,25997,2,0,P|96:300|88:340,2,85,4|0|4,0:3|0:0|0:3,0:0:0:0:
28,172,26934,1,8,0:0:0:0:
96,108,27247,1,0,0:0:0:0:
96,108,27403,1,0,0:0:0:0:
96,108,27559,6,0,L|192:112,1,85,4|4,0:3|0:3,0:0:0:0:
256,52,28184,1,8,0:0:0:0:
332,108,28497,2,0,P|360:176|320:264,1,170,4|0,0:3|3:0,0:0:0:0:
256,324,29434,1,8,0:0:0:0:
184,264,29747,1,4,0:3:0:0:
184,264,29903,1,0,0:0:0:0:
184,264,30059,6,0,P|136:256|96:268,1,85,4|0,0:0|0:0,0:0:0:0:
32,200,30684,1,8,0:0:0:0:
100,136,30997,2,0,P|112:92|96:44,1,85,4|0,0:3|0:0,0:0:0:0:
188,20,31622,1,4,0:3:0:0:
256,84,31934,1,8,0:0:0:0:
324,20,32247,1,0,0:0:0:0:
324,20,32403,1,0,0:0:0:0:
324,20,32559,6,0,L|420:36,1,85,4|4,0:3|0:3,0:0:0:0:
468,104,33184,1,8,0:0:0:0:
392,156,33497,1,0,0:0:0:0:
308,116,33809,2,0,P|297:159|312:208,1,85,2|0,0:0|0:3,0:0:0:0:
386,245,34434,1,8,0:0:0:0:
400,344,34747,1,0,0:0:0:0:
400,344,34903,1,0,0:0:0:0:
400,344,35059,6,0,L|304:372,1,85,4|4,0:3|0:3,0:0:0:0:
256,296,35684,1,8,0:0:0:0:
192,364,35997,2,0,L|111:341,1,85,4|0,0:3|0:0,0:0:0:0:
25,300,36622,1,4,0:3:0:0:
107,256,36934,2,0,P|115:212|99:156,1,85,8|0,0:0|0:0,0:0:0:0:
92,48,37559,5,4,0:3:0:0:
180,20,37872,1,4,0:3:0:0:
256,76,38184,1,8,0:0:0:0:
332,20,38497,2,0,P|420:68|404:152,1,170,4|4,0:3|0:3,0:0:0:0:
388,216,39434,1,8,0:0:0:0:
320,152,39747,1,4,0:3:0:0:
480,184,40059,6,0,L|512:272,1,85,4|4,0:3|0:3,0:0:0:0:
444,332,40684,1,8,0:0:0:0:
356,304,40997,2,0,P|276:280|188:312,1,170,4|4,0:3|0:3,0:0:0:0:
108,280,41934,1,8,0:0:0:0:
156,200,42247,1,0,0:0:0:0:
156,200,42403,1,0,0:0:0:0:
156,200,42559,6,0,P|172:140|148:96,1,85,4|4,0:3|0:3,0:0:0:0:
212,40,43184,1,8,0:0:0:0:
304,40,43497,1,4,0:3:0:0:
346,119,43809,2,0,P|339:161|356:200,1,85,0|4,0:3|0:3,0:0:0:0:
432,256,44434,1,8,0:0:0:0:
376,332,44747,1,0,0:0:0:0:
376,332,44903,1,0,0:0:0:0:
376,332,45059,6,0,L|260:324,1,85,4|0,0:3|0:0,0:0:0:0:
204,288,45684,1,8,0:0:0:0:
296,208,45997,2,0,B|328:156|328:156|308:36,1,170,4|4,0:3|0:3,0:0:0:0:
224,88,46934,2,0,P|168:104|128:88,1,85,8|0,0:0|0:0,0:0:0:0:
60,56,47559,5,2,0:0:0:0:
60,56,47872,2,0,L|54:209,1,127.500004863739,2|2,0:0|0:0,0:0:0:0:
72,268,50059,6,0,P|88:312|216:280,1,187.000005706787,4|8,0:0|0:0,0:0:0:0:
256,216,50997,1,0,0:0:0:0:
305,304,51309,2,0,P|386:336|440:268,1,187.000005706787,2|8,0:0|0:0,0:0:0:0:
452,164,52247,1,0,0:0:0:0:
348,164,52559,6,0,P|328:112|344:52,1,93.5000028533936,2|0,0:0|0:0,0:0:0:0:
228,144,53184,2,0,P|248:196|232:256,1,93.5000028533936,8|0,0:0|0:0,0:0:0:0:
144,200,53809,1,2,0:0:0:0:
104,104,54122,1,0,0:0:0:0:
172,28,54434,1,8,0:0:0:0:
276,40,54747,1,0,0:0:0:0:
352,108,55059,6,0,P|384:200|328:280,1,187.000005706787,2|8,0:0|0:0,0:0:0:0:
256,216,55997,1,0,0:0:0:0:
170,271,56309,2,0,P|127:192|160:108,1,187.000005706787,2|8,0:0|0:0,0:0:0:0:
252,60,57247,1,0,0:0:0:0:
320,140,57559,6,0,L|416:136,1,93.5000028533936,2|0,0:0|0:0,0:0:0:0:
484,240,58184,2,0,L|385:247,1,93.5000028533936,8|0,0:0|0:0,0:0:0:0:
288,256,58809,1,2,0:0:0:0:
288,256,58966,1,8,0:0:0:0:
288,256,59122,1,0,0:0:0:0:
200,200,59434,1,8,0:0:0:0:
276,132,59747,1,0,0:0:0:0:
344,56,60059,6,0,P|252:20|168:60,1,187.000005706787,4|8,0:0|0:0,0:0:0:0:
100,124,60997,1,0,0:0:0:0:
164,204,61309,2,0,P|256:240|340:200,1,187.000005706787,2|8,0:0|0:0,0:0:0:0:
404,132,62247,1,0,0:0:0:0:
332,207,62559,6,0,L|356:315,1,93.5000028533936,2|0,0:0|0:0,0:0:0:0:
256,380,63184,2,0,L|232:280,1,93.5000028533936,8|0,0:0|0:0,0:0:0:0:
152,228,63809,1,2,0:0:0:0:
132,128,64122,1,0,0:0:0:0:
208,56,64434,1,8,0:0:0:0:
308,76,64747,1,0,0:0:0:0:
324,176,65059,6,0,P|368:188|416:172,2,93.5000028533936,2|0|8,0:0|0:0|0:0,0:0:0:0:
256,252,65997,2,0,P|200:224|76:260,1,187.000005706787,2|0,0:0|0:0,0:0:0:0:
108,348,66934,1,8,0:0:0:0:
76,144,67559,6,0,P|84:96|72:52,1,93.5000028533936,2|0,0:0|0:0,0:0:0:0:
200,92,68184,2,0,P|191:137|203:182,1,93.5000028533936,8|0,0:0|0:0,0:0:0:0:
280,252,68809,1,0,0:0:0:0:
280,252,68966,1,8,0:0:0:0:
280,252,69122,1,0,0:0:0:0:
356,184,69434,1,8,0:0:0:0:
434,250,69747,1,0,0:0:0:0:
312,340,70059,6,0,L|196:332,1,93.5000028533936,4|0,0:0|0:0,0:0:0:0:
116,316,70684,1,8,0:0:0:0:
168,228,70997,1,0,0:0:0:0:
80,172,71309,2,0,P|84:100|72:68,1,93.5000028533936,2|0,0:0|0:0,0:0:0:0:
164,24,71934,1,8,0:0:0:0:
240,92,72247,1,0,0:0:0:0:
328,36,72559,6,0,L|428:40,2,93.5000028533936,2|0|8,0:0|0:0|0:0,0:0:0:0:
240,92,73497,1,0,0:0:0:0:
240,92,73653,1,2,0:0:0:0:
240,92,73809,2,0,P|236:140|244:192,1,93.5000028533936
312,260,74434,1,8,0:0:0:0:
356,168,74747,1,0,0:0:0:0:
220,264,75059,6,0,L|116:260,1,93.5000028533936,2|0,0:0|0:0,0:0:0:0:
56,160,75684,2,0,L|160:164,1,93.5000028533936,8|0,0:0|0:0,0:0:0:0:
252,152,76309,1,2,0:0:0:0:
260,48,76622,1,0,0:0:0:0:
158,32,76934,2,0,L|64:28,2,93.5000028533936,8|0|2,0:0|0:0|0:0,0:0:0:0:
232,72,77872,6,0,P|292:88|360:68,1,127.500004863739,2|2,0:0|0:0,0:0:0:0:
436,208,79122,2,0,L|444:248,2,31.8750012159348,0|0|8,0:0|0:0|0:0,0:0:0:0:
352,168,79747,1,0,0:0:0:0:
292,240,80059,6,0,P|240:248|200:236,1,85,4|4,0:3|0:3,0:0:0:0:
128,192,80684,1,8,0:0:0:0:
208,144,80997,2,0,L|196:320,1,170,4|4,0:3|0:3,0:0:0:0:
268,376,81934,1,8,0:0:0:0:
336,312,82247,1,0,0:0:0:0:
196,313,82559,5,4,0:3:0:0:
103,301,82872,1,4,0:3:0:0:
160,227,83184,1,8,0:0:0:0:
67,210,83497,2,0,P|59:134|123:50,1,170,4|4,0:3|0:3,0:0:0:0:
190,13,84434,1,8,0:0:0:0:
251,83,84747,1,0,0:0:0:0:
343,71,85059,6,0,L|443:59,2,85,4|4|8,0:3|0:3|0:0,0:0:0:0:
250,85,85997,2,0,B|266:153|266:153|222:261,1,170,4|4,0:3|0:3,0:0:0:0:
173,321,86934,1,8,0:0:0:0:
132,240,87247,1,0,0:0:0:0:
280,312,87559,5,4,0:3:0:0:
372,296,87872,1,4,0:3:0:0:
312,224,88184,1,8,0:0:0:0:
400,192,88497,2,0,P|408:136|396:100,1,85,4|0,0:3|0:0,0:0:0:0:
344,36,89122,1,4,0:3:0:0:
260,80,89434,2,0,P|212:92|172:80,1,85,8|0,0:0|0:0,0:0:0:0:
140,60,89903,1,0,0:0:0:0:
140,60,90059,6,0,L|148:176,1,85,4|0,0:3|0:0,0:0:0:0:
156,236,90684,1,8,0:0:0:0:
88,300,90997,2,0,P|152:260|240:296,1,170,4|4,0:3|0:3,0:0:0:0:
312,340,91934,1,8,0:0:0:0:
372,268,92247,1,0,0:0:0:0:
357,175,92559,6,0,L|453:156,1,85,4|4,0:3|0:3,0:0:0:0:
464,68,93184,1,8,0:0:0:0:
374,38,93497,2,0,B|326:48|326:48|272:88|272:88|216:98,1,170,4|4,0:3|0:3,0:0:0:0:
126,106,94434,1,8,0:0:0:0:
160,20,94747,1,0,0:0:0:0:
216,176,95059,6,0,P|225:221|204:268,1,85,4|4,0:3|0:3,0:0:0:0:
148,328,95684,1,8,0:0:0:0:
148,328,95997,2,0,P|220:296|308:332,1,170,4|4,0:3|0:3,0:0:0:0:
394,317,96934,1,8,0:0:0:0:
458,249,97247,1,0,0:0:0:0:
388,186,97559,6,0,P|378:144|386:103,2,85,4|4|8,0:3|0:3|0:0,0:0:0:0:
467,60,98497,2,0,B|415:68|415:68|347:52|347:52|267:60,1,170,4|4,0:3|0:3,0:0:0:0:
196,52,99434,1,8,0:0:0:0:
236,136,99747,1,4,0:3:0:0:
236,136,99903,1,4,0:3:0:0:
236,136,100059,6,4,P|244:180|232:224,1,85,4|4,0:0|0:3,0:3:0:0:
192,304,100684,1,8,0:0:0:0:
116,252,100997,2,0,P|76:244|32:252,2,85,4|0|4,0:3|0:0|0:3,0:0:0:0:
192,304,101934,1,8,0:0:0:0:
288,264,102247,1,0,0:0:0:0:
288,264,102403,1,0,0:0:0:0:
288,264,102559,6,0,L|380:268,1,85,4|4,0:3|0:3,0:0:0:0:
441,203,103184,1,8,0:0:0:0:
370,141,103497,1,4,0:3:0:0:
447,88,103809,2,0,P|457:43|445:0,1,85,0|4,0:0|0:3,0:0:0:0:
364,48,104434,2,0,P|313:39|266:55,1,85,8|0,0:0|0:0,0:0:0:0:
238,64,104903,1,0,0:0:0:0:
238,64,105059,6,0,B|253:182,1,85,4|4,0:3|0:3,0:0:0:0:
266,240,105684,1,8,0:0:0:0:
176,213,105997,2,0,B|120:219|120:219|61:197|61:197|0:205,1,170,4|4,0:3|0:3,0:0:0:0:
25,248,106778,1,0,0:0:0:0:
25,248,106934,2,0,P|36:302|22:348,1,85,8|0,0:0|0:0,0:0:0:0:
121,351,107559,6,0,L|222:356,1,85,4|4,0:3|0:3,0:0:0:0:
286,307,108184,1,8,0:0:0:0:
209,253,108497,1,4,0:3:0:0:
275,187,108809,2,0,P|284:126|262:86,1,85,0|4,0:0|0:3,0:0:0:0:
207,41,109434,1,8,0:0:0:0:
135,101,109747,1,4,0:3:0:0:
135,101,109903,1,0,0:0:0:0:
135,101,110059,6,0,P|88:111|43:96,2,85,4|4|8,0:3|0:3|0:0,0:0:0:0:
207,41,110997,2,0,B|238:97|211:150|211:150|227:212,1,170,4|4,0:3|0:3,0:0:0:0:
255,292,111934,1,8,0:0:0:0:
312,214,112247,1,0,0:0:0:0:
385,271,112559,6,4,P|432:280|473:269,1,85,4|4,0:3|0:3,0:0:0:0:
503,185,113184,1,8,0:0:0:0:
433,123,113497,1,4,0:3:0:0:
346,158,113809,2,0,L|256:151,1,85,0|4,0:0|0:3,0:0:0:0:
184,97,114434,1,8,0:0:0:0:
264,49,114747,1,0,0:0:0:0:
177,187,115059,6,0,P|121:194|88:184,2,85,4|4|8,0:3|0:3|0:0,0:0:0:0:
261,151,115997,2,0,P|305:218|265:310,1,170,4|4,0:3|0:3,0:0:0:0:
202,351,116934,1,8,0:0:0:0:
151,271,117247,1,0,0:0:0:0:
278,298,117559,5,2,0:0:0:0:
278,298,117872,2,0,L|415:245,1,127.500004863739,2|2,0:0|0:0,0:0:0:0:
440,116,120059,6,0,B|432:60|432:60|364:92|284:80,1,187.000005706787,4|8,0:0|0:0,0:0:0:0:
256,168,120997,1,0,0:0:0:0:
206,82,121309,2,0,B|148:92|80:60|80:60|72:116,1,187.000005706787,2|8,0:0|0:0,0:0:0:0:
60,216,122247,1,0,0:0:0:0:
164,220,122559,6,0,L|180:332,1,93.5000028533936,2|0,0:0|0:0,0:0:0:0:
284,240,123184,2,0,L|264:124,1,93.5000028533936,8|0,0:0|0:0,0:0:0:0:
364,184,123809,1,2,0:0:0:0:
408,280,124122,1,0,0:0:0:0:
340,356,124434,1,8,0:0:0:0:
236,344,124747,1,0,0:0:0:0:
160,276,125059,6,0,B|128:192|128:192|176:100,1,187.000005706787,2|8,0:0|0:0,0:0:0:0:
256,168,125997,1,0,0:0:0:0:
339,105,126309,2,0,B|384:192|384:192|352:276,1,187.000005706787,2|8,0:0|0:0,0:0:0:0:
260,324,127247,1,0,0:0:0:0:
192,244,127559,6,0,P|147:255|100:240,1,93.5000028533936,2|0,0:0|0:0,0:0:0:0:
28,144,128184,2,0,P|74:129|124:144,1,93.5000028533936,8|0,0:0|0:0,0:0:0:0:
224,128,128809,1,2,0:0:0:0:
224,128,128966,1,8,0:0:0:0:
224,128,129122,1,0,0:0:0:0:
312,184,129434,1,8,0:0:0:0:
236,252,129747,1,0,0:0:0:0:
168,328,130059,6,0,B|240:376|276:304|348:344,1,187.000005706787,4|8,0:0|0:0,0:0:0:0:
412,260,130997,1,0,0:0:0:0:
344,180,131309,2,0,B|272:132|236:204|164:164,1,187.000005706787,2|8,0:0|0:0,0:0:0:0:
108,252,132247,1,0,0:0:0:0:
164,164,132559,6,0,P|176:116|156:64,1,93.5000028533936,2|0,0:0|0:0,0:0:0:0:
276,12,133184,2,0,P|264:60|284:112,1,93.5000028533936,8|0,0:0|0:0,0:0:0:0:
360,156,133809,1,2,0:0:0:0:
380,256,134122,1,0,0:0:0:0:
304,328,134434,1,8,0:0:0:0:
204,308,134747,1,0,0:0:0:0:
188,208,135059,6,0,L|84:212,2,93.5000028533936,2|0|8,0:0|0:0|0:0,0:0:0:0:
256,132,135997,2,0,B|312:160|312:160|436:136,1,187.000005706787,2|0,0:0|0:0,0:0:0:0:
424,36,136934,1,8,0:0:0:0:
434,136,137247,1,0,0:0:0:0:
448,236,137559,6,0,L|444:340,1,93.5000028533936,2|0,0:0|0:0,0:0:0:0:
312,292,138184,2,0,L|316:192,1,93.5000028533936,8|0,0:0|0:0,0:0:0:0:
236,132,138809,1,0,0:0:0:0:
236,132,138966,1,8,0:0:0:0:
236,132,139122,1,0,0:0:0:0:
152,192,139434,1,8,0:0:0:0:
152,192,139747,1,0,0:0:0:0:
200,44,140059,6,0,L|316:52,1,93.5000028533936,4|0,0:0|0:0,0:0:0:0:
396,68,140684,1,8,0:0:0:0:
344,156,140997,1,0,0:0:0:0:
432,212,141309,2,0,P|428:284|440:316,1,93.5000028533936,2|0,0:0|0:0,0:0:0:0:
348,360,141934,1,8,0:0:0:0:
272,292,142247,1,0,0:0:0:0:
184,348,142559,6,0,L|84:344,2,93.5000028533936,2|0|8,0:0|0:0|0:0,0:0:0:0:
272,292,143497,1,0,0:0:0:0:
272,292,143653,1,2,0:0:0:0:
272,292,143809,2,0,P|276:244|268:192,1,93.5000028533936
200,124,144434,1,8,0:0:0:0:
156,216,144747,1,0,0:0:0:0:
292,120,145059,6,0,L|396:124,1,93.5000028533936,2|0,0:0|0:0,0:0:0:0:
456,224,145684,2,0,L|352:220,1,93.5000028533936,8|0,0:0|0:0,0:0:0:0:
260,232,146309,1,2,0:0:0:0:
252,336,146622,1,0,0:0:0:0:
352,352,146934,2,0,L|446:356,2,93.5000028533936,8|0|2,0:0|0:0|0:0,0:0:0:0:
280,312,147872,6,0,B|228:288|208:328|156:308,1,127.500004863739,2|2,0:0|0:0,0:0:0:0:
80,192,149122,2,0,L|72:152,2,31.8750012159348,0|0|8,0:0|0:0|0:0,0:0:0:0:
160,224,149747,1,0,0:0:0:0:
256,192,150059,12,4,152559,0:3:0:0:
52,160,153184,6,0,P|128:192|208:152,1,170,8|2,0:0|0:0,0:0:0:0:
268,92,154122,1,4,0:3:0:0:
308,176,154434,2,0,P|300:220|316:276,1,85,8|0,0:0|0:0,0:0:0:0:
396,208,155059,6,0,B|416:156|392:96|392:96|420:48|372:20|344:64|344:64|288:88|232:60,1,340,4|2,0:3|0:0,0:0:0:0:
140,44,156622,1,4,0:3:0:0:
96,124,156934,2,0,P|92:172|96:228,1,85,8|0,0:0|0:0,0:0:0:0:
148,284,157559,6,0,L|240:276,2,85,4|0|8,0:3|0:3|0:0,0:0:0:0:
244,200,158497,2,0,P|308:252|212:352,1,255,4|8,0:3|0:0,0:0:0:0:
108,120,160059,6,0,P|160:108|244:128,1,127.500004863739,4|2,0:3|0:0,0:0:0:0:
336,224,161309,2,0,P|284:236|200:216,1,127.500004863739,0|8,0:0|0:0,0:0:0:0:
132,184,162247,1,0,0:0:0:0:
72,256,162559,6,0,L|76:344,2,85,4|4|8,0:3|0:3|0:0,0:0:0:0:
132,184,163497,2,0,B|152:124|152:124|132:80|132:80|152:-4,1,170,4|4,0:3|0:3,0:0:0:0:
224,72,164434,1,8,0:0:0:0:
300,16,164747,1,0,0:0:0:0:
364,84,165059,6,0,P|408:92|460:76,2,85,4|4|8,0:3|0:3|0:0,0:0:0:0:
280,120,165997,2,0,L|300:304,1,170,4|4,0:3|0:3,0:0:0:0:
312,380,166934,1,8,0:0:0:0:
384,320,167247,1,0,0:0:0:0:
221,322,167559,6,0,L|136:334,1,85,4|4,0:3|0:3,0:0:0:0:
56,288,168184,1,8,0:0:0:0:
124,220,168497,6,0,P|153:149|112:64,1,170,4|2,0:3|0:0,0:0:0:0:
184,36,169434,1,2,0:0:0:0:
248,6,169747,1,2,0:0:0:0:
302,117,170059,6,0,P|292:161|313:213,2,85,4|4|8,0:3|0:3|0:0,0:0:0:0:
372,176,170997,2,0,P|360:248|256:256,1,170,4|4,0:3|0:3,0:0:0:0:
184,256,171934,1,8,0:0:0:0:
124,184,172247,1,0,0:0:0:0:
156,96,172559,6,0,B|192:68|192:68|196:16,1,85,4|4,0:3|0:3,0:0:0:0:
356,96,173184,2,0,B|320:68|320:68|316:16,1,85,8|4,0:0|0:3,0:0:0:0:
256,204,174122,1,4,0:3:0:0:
256,204,174434,2,0,L|256:304,1,85,8|0,0:0|0:0,0:0:0:0:
256,336,174903,1,0,0:0:0:0:
256,336,175059,6,0,P|208:348|168:332,1,85,4|4,0:3|0:3,0:0:0:0:
96,288,175684,1,8,0:0:0:0:
16,240,175997,2,0,L|140:112,1,170,4|4,0:3|0:3,0:0:0:0:
208,64,176934,1,8,0:0:0:0:
304,64,177247,1,0,0:0:0:0:
256,144,177559,6,0,L|256:240,1,85,8|0,0:3|0:0,0:0:0:0:
365,312,178497,6,0,P|255:368|147:311,1,255,2|8,0:0|0:0,0:0:0:0:
100,232,179747,1,0,0:0:0:0:
120,132,180059,6,0,B|168:136|168:136|200:176,1,93.5000028533936,4|0,0:0|0:0,0:0:0:0:
256,324,180684,2,0,L|256:230,1,93.5000028533936,8|0,0:0|0:0,0:0:0:0:
392,132,181309,2,0,B|344:136|344:136|312:176,1,93.5000028533936,2|0,0:0|0:0,0:0:0:0:
256,88,181934,1,8,0:0:0:0:
256,88,182247,1,0,0:0:0:0:
196,168,182559,6,0,L|128:240,1,93.5000028533936,2|0,0:0|0:0,0:0:0:0:
256,348,183184,2,0,L|256:252,1,93.5000028533936,8|0,0:0|0:0,0:0:0:0:
316,168,183809,2,0,L|380:235,1,93.5000028533936,2|0,0:0|0:0,0:0:0:0:
448,312,184434,1,8,0:0:0:0:
472,212,184747,1,0,0:0:0:0:
312,288,185059,6,0,L|244:220,2,93.5000028533936,2|0|8,0:0|0:0|0:0,0:0:0:0:
388,360,185997,2,0,P|444:312|420:200,1,187.000005706787,2|0,0:0|0:0,0:0:0:0:
412,108,186934,1,8,0:0:0:0:
312,80,187247,1,0,0:0:0:0:
188,164,187559,6,0,P|144:136|140:76,2,93.5000028533936,2|0|8,0:0|0:0|0:0,0:0:0:0:
255,86,188497,1,0,0:0:0:0:
324,164,188809,1,2,0:0:0:0:
324,164,188966,1,8,0:0:0:0:
324,164,189122,2,0,P|368:136|372:76,2,93.5000028533936,0|8|0,0:0|0:0|0:0,0:0:0:0:
256,240,190059,6,0,L|160:308,1,93.5000028533936,4|0,0:0|0:0,0:0:0:0:
17,254,190684,2,0,L|107:199,1,93.5000028533936,8|0,0:0|0:0,0:0:0:0:
188,159,191309,1,2,0:0:0:0:
188,55,191622,1,0,0:0:0:0:
95,100,191934,1,8,0:0:0:0:
95,100,192247,1,0,0:0:0:0:
257,109,192559,6,0,P|305:124|354:105,1,93.5000028533936,2|0,0:0|0:0,0:0:0:0:
480,192,193184,2,0,L|364:192,1,93.5000028533936,8|0,0:0|0:0,0:0:0:0:
257,275,193809,2,0,P|305:260|354:279,1,93.5000028533936,2|0,0:0|0:0,0:0:0:0:
440,312,194434,1,8,0:0:0:0:
440,312,194747,1,0,0:0:0:0:
386,192,195059,6,0,B|386:136|386:136|414:100,2,93.5000028533936,2|0|8,0:0|0:0|0:0,0:0:0:0:
292,152,195997,2,0,B|292:272|292:272|244:320,1,187.000005706787,2|2,0:0|0:0,0:0:0:0:
148,288,196934,1,8,0:0:0:0:
100,196,197247,1,0,0:0:0:0:
148,36,197559,6,0,L|184:132,1,93.5000028533936,2|0,0:0|0:0,0:0:0:0:
256,292,198184,2,0,L|256:192,1,93.5000028533936,8|0,0:0|0:0,0:0:0:0:
331,123,198809,1,2,0:0:0:0:
331,123,198966,1,8,0:0:0:0:
331,123,199122,2,0,L|364:36,1,93.5000028533936,0|8,0:0|0:0,0:0:0:0:
460,68,199747,1,0,0:0:0:0:
429,166,200059,5,4,0:0:0:0:
356,238,200372,1,0,0:0:0:0:
261,198,200684,1,8,0:0:0:0:
272,95,200997,1,0,0:0:0:0:
373,78,201309,1,2,0:0:0:0:
429,166,201622,1,0,0:0:0:0:
488,249,201934,2,0,P|499:296|480:356,1,93.5000028533936,8|0,0:0|0:0,0:0:0:0:
388,332,202559,5,2,0:0:0:0:
295,286,202872,1,0,0:0:0:0:
200,325,203184,1,8,0:0:0:0:
113,269,203497,1,0,0:0:0:0:
113,269,203653,1,0,0:0:0:0:
113,269,203809,2,0,P|120:215|95:163,1,93.5000028533936,2|0,0:0|0:0,0:0:0:0:
44,96,204434,1,8,0:0:0:0:
44,96,204747,1,0,0:0:0:0:
195,119,205059,5,4,0:0:0:0:
291,155,205372,1,0,0:0:0:0:
334,61,205684,1,8,0:0:0:0:
237,24,205997,1,0,0:0:0:0:
195,119,206309,1,2,0:0:0:0:
143,208,206622,1,0,0:0:0:0:
86,293,206934,2,0,L|180:354,1,93.5000028533936,8|0,0:0|0:0,0:0:0:0:
256,292,207559,5,2,0:0:0:0:
368,252,207872,1,0,0:0:0:0:
272,184,208184,2,0,P|260:132|276:88,1,93.5000028533936,8|0,0:0|0:0,0:0:0:0:
357,18,208809,1,0,0:0:0:0:
357,18,208966,1,8,0:0:0:0:
357,18,209122,1,0,0:0:0:0:
438,97,209434,2,0,P|449:141|437:186,1,93.5000028533936,8|0,0:0|0:0,0:0:0:0:
384,276,210059,5,4,0:0:0:0:
320,356,210372,1,0,0:0:0:0:
256,276,210684,1,8,0:0:0:0:
128,276,210997,1,2,0:0:0:0:
192,356,211309,1,2,0:0:0:0:
256,276,211622,1,0,0:0:0:0:
256,172,211934,2,0,L|256:64,1,93.5000028533936,8|0,0:0|0:0,0:0:0:0:
168,24,212559,5,2,0:0:0:0:
80,80,212872,2,0,P|32:164|76:236,1,187.000005706787,2|0,0:0|0:0,0:0:0:0:
116,264,213653,1,0,0:0:0:0:
116,264,213809,2,0,P|164:252|212:268,1,93.5000028533936,2|0,0:0|0:0,0:0:0:0:
396,264,214434,2,0,P|348:252|300:268,1,93.5000028533936,8|0,0:0|0:0,0:0:0:0:
180,156,215059,5,4,0:0:0:0:
256,88,215372,1,0,0:0:0:0:
332,156,215684,1,8,0:0:0:0:
256,228,215997,1,0,0:0:0:0:
180,156,216309,1,2,0:0:0:0:
108,84,216622,1,0,0:0:0:0:
76,180,216934,2,0,P|64:236|84:284,1,93.5000028533936,8|0,0:0|0:0,0:0:0:0:
152,336,217559,5,2,0:0:0:0:
200,244,217872,1,0,0:0:0:0:
256,332,218184,1,8,0:0:0:0:
312,244,218497,1,0,0:0:0:0:
360,336,218809,1,2,0:0:0:0:
360,336,218966,1,8,0:0:0:0:
360,336,219122,1,0,0:0:0:0:
448,284,219434,2,0,P|460:232|440:184,1,93.5000028533936,8|0,0:0|0:0,0:0:0:0:
371,134,220059,6,0,B|315:158|279:128|281:121|242:95|187:120,2,191.250007295609,2|2|0,0:0|0:0|0:0,0:0:0:0:
257,210,222559,6,0,B|241:151|276:120|283:123|314:89|299:31,2,191.250007295609,2|2|0,0:0|0:0|0:0,0:0:0:0:
446,223,225372,6,0,B|391:261|374:313|361:372|361:372|311:318|246:274|150:305|138:179|208:98|309:156|309:156|369:98|438:125|455:185,1,765.000029182435,2|0,0:0|0:0,0:0:0:0:
