osu file format v14

[General]
AudioFilename: audio.mp3
AudioLeadIn: 0
PreviewTime: 180059
Countdown: 0
SampleSet: Soft
StackLeniency: 0.7
Mode: 0
LetterboxInBreaks: 0
WidescreenStoryboard: 1

[Editor]
DistanceSpacing: 0.1
BeatDivisor: 4
GridSize: 4
TimelineZoom: 1

[Metadata]
Title:True Love ft. Lily Allen
TitleUnicode:True Love ft. Lily Allen
Artist:P!nk
ArtistUnicode:P!nk
Creator:DTM9 Nowa
Version:Easy Love
Source:
Tags:Alecia Beth Moore Pink The Truth About Love Stingy Mkguh Mir
BeatmapID:1448728
BeatmapSetID:651376

[Difficulty]
HPDrainRate:2
CircleSize:2.5
OverallDifficulty:1.5
ApproachRate:2
SliderMultiplier:1.1
SliderTickRate:1

[Events]
//Background and Video events
0,0,"TLWP.jpg",0,0
//Break Periods
//Storyboard Layer 0 (Background)
//Storyboard Layer 1 (Fail)
//Storyboard Layer 2 (Pass)
//Storyboard Layer 3 (Foreground)
//Storyboard Sound Samples

[TimingPoints]
10059.817888941,625,4,2,1,50,1,0
30059,-100,4,2,1,60,0,0
47559,-100,4,2,1,40,0,0
50059,-100,4,2,1,70,0,1
69434,-100,4,2,1,60,0,0
70059,-100,4,2,1,70,0,1
77403,-100,4,2,1,40,0,0
80059,-100,4,2,1,50,0,0
97559,-100,4,2,1,40,0,0
98497,-100,4,2,1,50,0,0
100059,-100,4,2,1,60,0,0
117559,-100,4,2,1,40,0,0
120059,-100,4,2,1,70,0,1
139434,-100,4,2,1,60,0,0
140059,-100,4,2,1,70,0,1
147403,-100,4,2,1,40,0,0
150059,-100,4,2,1,50,0,0
160059,-100,4,2,1,40,0,0
161934,-100,4,2,1,45,0,0
162559,-100,4,2,1,50,0,0
180059,-100,4,2,1,70,0,1
199434,-100,4,2,1,60,0,0
200059,-100,4,2,1,70,0,1
220059,-100,4,2,1,45,0,0
225997,-100,4,2,1,30,0,0
226622,-100,4,2,1,25,0,0
227247,-100,4,2,1,20,0,0
227872,-100,4,2,1,15,0,0
228497,-100,4,2,1,10,0,0
229044,-100,4,2,69,5,0,0

[Colours]
Combo1 : 204,119,236
Combo2 : 238,39,17
Combo3 : 184,22,188
Combo4 : 255,102,102

[HitObjects]
83,92,10059,6,0,P|145:108|194:103,1,110,2|10,0:0|0:0,0:0:0:0:
290,59,11309,1,2,0:0:0:0:
365,138,11934,1,10,0:0:0:0:
440,217,12559,2,0,L|466:163,2,55,0|2|10,0:0|0:0|0:0,0:0:0:0:
391,315,13809,1,2,0:0:0:0:
286,282,14434,1,10,0:0:0:0:
186,329,15059,6,0,L|169:383,2,55,0|2|10,0:0|0:0|0:0,0:0:0:0:
142,227,16309,2,0,L|108:122,1,110,2|10,0:0|0:0,0:0:0:0:
167,30,17559,2,0,P|191:50|216:62,1,55,2|2,0:0|0:0,0:0:0:0:
256,94,18184,2,0,P|314:81|366:82,1,110,10|0,0:0|0:0,0:0:0:0:
485,285,20059,6,0,L|369:296,1,110,2|10,0:0|0:0,0:0:0:0:
265,306,21309,1,2,0:0:0:0:
159,274,21934,1,10,0:0:0:0:
55,311,22559,2,0,L|66:370,2,55,0|2|10,0:0|0:0|0:0,0:0:0:0:
4,213,23809,2,0,P|23:156|20:90,1,110,2|10,0:0|0:0,0:0:0:0:
102,60,25059,6,0,P|108:86|120:111,2,55,0|2|10,0:0|0:0|0:0,0:0:0:0:
203,18,26309,1,2,0:0:0:0:
304,60,26934,1,10,0:0:0:0:
405,102,27559,1,2,0:0:0:0:
434,149,27872,2,0,L|427:259,1,110,2|0,0:0|0:0,0:0:0:0:
100,70,30059,5,0,0:0:0:0:
150,47,30372,2,0,L|264:40,1,110,2|2,0:0|0:0,0:0:0:0:
317,133,31622,2,0,L|207:139,1,110,2|2,0:0|0:0,0:0:0:0:
157,161,32559,1,0,0:0:0:0:
106,181,32872,2,0,L|45:170,2,55,2|10|2,0:0|0:0|0:0,0:0:0:0:
172,268,34122,2,0,L|159:323,2,55,2|10|2,0:0|0:0|0:0,0:0:0:0:
220,241,35059,1,0,0:0:0:0:
267,268,35372,6,0,P|327:276|380:261,1,110,2|2,0:0|0:0,0:0:0:0:
474,219,36622,2,0,P|482:159|467:106,1,110,2|2,0:0|0:0,0:0:0:0:
425,79,37559,1,0,0:0:0:0:
378,109,37872,2,0,L|370:166,2,55,2|10|2,0:0|0:0|0:0,0:0:0:0:
280,58,39122,2,0,L|272:1,2,55,2|10|2,0:0|0:0|0:0,0:0:0:0:
239,95,40059,1,2,0:0:0:0:
193,126,40372,6,0,L|77:110,1,110,2|2,0:0|0:0,0:0:0:0:
42,212,41622,2,0,L|152:224,1,110,2|2,0:0|0:0,0:0:0:0:
186,266,42559,1,0,0:0:0:0:
216,312,42872,2,0,L|202:368,2,55,2|10|2,0:0|0:0|0:0,0:0:0:0:
289,230,44122,2,0,L|275:174,2,55,2|10|2,0:0|0:0|0:0,0:0:0:0:
329,267,45059,1,0,0:0:0:0:
382,279,45372,6,0,P|438:266|486:233,1,110,2|2,0:0|0:0,0:0:0:0:
511,132,46622,2,0,P|498:75|465:27,1,110,2|2,0:0|0:0,0:0:0:0:
205,121,50059,6,0,L|382:108,2,165,6|2|8,0:0|0:0|0:0,0:0:0:0:
108,174,52559,2,0,P|89:260|117:330,1,165,2|2,0:0|0:0,0:0:0:0:
226,324,54122,2,0,P|230:296|225:260,2,55,2|10|2,0:0|0:0|0:0,0:0:0:0:
196,370,55059,6,0,L|382:358,2,165,2|2|8,0:0|0:0|0:0,0:0:0:0:
97,321,57559,2,0,P|80:267|84:208,1,110,2|10,0:0|0:0,0:0:0:0:
154,131,58809,2,0,P|183:131|215:138,1,55,2|2,0:0|0:0,0:0:0:0:
257,162,59434,2,0,P|286:162|318:155,1,55,10|0,0:0|0:0,0:0:0:0:
365,145,60059,6,0,P|338:224|351:317,2,165,6|2|10,0:0|0:0|0:0,0:0:0:0:
436,61,62559,2,0,P|343:50|267:5,1,165,2|2,0:0|0:0,0:0:0:0:
181,64,64122,2,0,P|152:52|122:50,2,55,2|10|2,0:0|0:0|0:0,0:0:0:0:
218,105,65059,6,0,P|196:180|205:273,2,165,2|2|8,0:0|0:0|0:0,0:0:0:0:
302,34,67559,2,0,P|354:18|409:21,1,110,2|8,0:0|0:0,0:0:0:0:
481,104,68809,2,0,P|482:131|477:171,2,55,2|2|10,0:0|0:0|0:0,0:0:0:0:
409,21,70059,6,0,B|305:58|305:58|204:19|204:19|176:89|82:119|12:89,1,440,6|2,0:0|0:0,0:0:0:0:
48,196,73184,1,8,0:0:0:0:
74,303,73809,2,0,L|52:370,2,55,2|2|8,0:0|0:0|0:0,0:0:0:0:
177,264,75059,6,0,P|319:198|163:114,1,412.5,6|2,0:0|0:0,0:0:0:0:
58,334,78809,2,0,P|108:371|164:379,1,110,2|8,0:0|0:0,0:0:0:0:
208,368,79747,1,0,0:0:0:0:
252,335,80059,6,0,P|267:274|257:223,1,110,2|10,0:0|0:0,0:0:0:0:
189,142,81309,1,2,0:0:0:0:
243,46,81934,1,10,0:0:0:0:
342,93,82559,2,0,P|375:96|408:91,2,55,0|2|10,0:0|0:0|0:0,0:0:0:0:
243,46,83809,1,2,0:0:0:0:
135,69,84434,1,10,0:0:0:0:
27,92,85059,6,0,L|9:35,2,55,0|2|10,0:0|0:0|0:0,0:0:0:0:
48,200,86309,1,2,0:0:0:0:
6,301,86934,1,10,0:0:0:0:
96,364,87559,2,0,P|157:312|237:322,1,165,2|0,0:0|0:0,0:0:0:0:
272,39,90059,6,0,L|386:24,1,110,2|10,0:0|0:0,0:0:0:0:
483,64,91309,1,2,0:0:0:0:
433,161,91934,1,8,0:0:0:0:
383,258,92559,2,0,L|389:321,2,55,0|2|10,0:0|0:0|0:0,0:0:0:0:
293,194,93809,1,2,0:0:0:0:
191,236,94434,1,10,0:0:0:0:
86,203,95059,6,0,P|60:144|67:87,1,110,2|10,0:0|0:0,0:0:0:0:
165,58,96309,2,0,P|225:35|281:45,2,110,2|10|2,0:0|0:0|0:0,0:0:0:0:
87,203,98497,2,0,L|56:313,2,110,2|2|0,0:0|0:0|0:0,0:0:0:0:
138,183,100059,1,0,0:0:0:0:
190,165,100372,6,0,P|243:177|298:174,1,110,2|2,0:0|0:0,0:0:0:0:
405,149,101622,2,0,P|387:199|384:255,1,110,2|2,0:0|0:0,0:0:0:0:
392,309,102559,1,0,0:0:0:0:
412,360,102872,2,0,L|470:349,2,55,2|10|2,0:0|0:0|0:0,0:0:0:0:
301,362,104122,2,0,L|243:351,2,55,2|10|2,0:0|0:0|0:0,0:0:0:0:
333,317,105059,1,0,0:0:0:0:
351,265,105372,6,0,P|351:209|332:158,1,110,2|2,0:0|0:0,0:0:0:0:
250,86,106622,2,0,P|302:72|347:40,1,110,2|2,0:0|0:0,0:0:0:0:
394,70,107559,1,0,0:0:0:0:
442,98,107872,2,0,L|501:83,2,55,2|10|2,0:0|0:0|0:0,0:0:0:0:
364,176,109122,2,0,L|305:161,2,55,2|10|2,0:0|0:0|0:0,0:0:0:0:
402,216,110059,1,0,0:0:0:0:
413,270,110372,6,0,P|398:325|359:367,1,110,2|2,0:0|0:0,0:0:0:0:
256,383,111622,2,0,P|206:359|158:297,1,110,2|2,0:0|0:0,0:0:0:0:
153,267,112559,1,0,0:0:0:0:
156,212,112872,2,0,L|165:156,2,55,2|10|2,0:0|0:0|0:0,0:0:0:0:
57,260,114122,2,0,L|66:316,2,55,2|10|2,0:0|0:0|0:0,0:0:0:0:
28,214,115059,1,0,0:0:0:0:
0,167,115372,6,0,L|13:45,1,110,2|2,0:0|0:0,0:0:0:0:
116,23,116622,2,0,L|129:145,1,110,2|2,0:0|0:0,0:0:0:0:
263,263,120059,6,0,L|443:245,2,165,6|2|8,0:0|0:0|0:0,0:0:0:0:
172,325,122559,2,0,P|156:253|99:177,1,165,2|2,0:0|0:0,0:0:0:0:
21,254,124122,2,0,P|14:284|17:330,2,55,2|10|2,0:0|0:0|0:0,0:0:0:0:
7,200,125059,6,0,P|26:110|14:33,2,165,2|2|8,0:0|0:0|0:0,0:0:0:0:
13,308,127559,2,0,P|73:283|136:281,1,110,2|8,0:0|0:0,0:0:0:0:
224,253,128809,2,0,P|260:262|291:266,1,55,2|2,0:0|0:0,0:0:0:0:
330,281,129434,2,0,P|365:270|394:258,1,55,10|2,0:0|0:0,0:0:0:0:
436,256,130059,6,0,P|464:175|448:86,2,165,6|2|8,0:0|0:0|0:0,0:0:0:0:
330,281,132559,2,0,L|144:270,1,165,2|2,0:0|0:0,0:0:0:0:
56,256,134122,2,0,P|66:290|65:321,2,55,2|10|2,0:0|0:0|0:0,0:0:0:0:
26,209,135059,6,0,P|77:148|71:67,2,165,2|2|8,0:0|0:0|0:0,0:0:0:0:
66,309,137559,2,0,P|125:301|186:317,1,110,2|8,0:0|0:0,0:0:0:0:
273,358,138809,2,0,L|278:303,2,55,2|2|10,0:0|0:0|0:0,0:0:0:0:
381,376,140059,6,0,B|403:156|403:156|328:75|328:75|317:187,1,440,6|2,0:0|0:0,0:0:0:0:
245,266,143184,1,8,0:0:0:0:
137,243,143809,2,0,L|64:258,2,55,2|2|10,0:0|0:0|0:0,0:0:0:0:
120,134,145059,6,0,B|227:112|227:112|306:38|306:38|390:103|497:77,1,412.5,6|2,0:0|0:0,0:0:0:0:
484,218,150059,6,0,P|473:279|438:313,1,110,2|10,0:0|0:0,0:0:0:0:
336,277,151309,1,2,0:0:0:0:
239,329,151934,2,0,L|106:343,2,110,10|2|10,0:0|0:0|0:0,0:0:0:0:
336,277,153809,2,0,P|351:218|332:162,1,110,2|10,0:0|0:0,0:0:0:0:
256,192,155059,12,2,160059,0:0:0:0:
129,108,161934,6,0,L|205:116,1,55,10|2,0:0|0:0,0:0:0:0:
285,157,162872,1,2,0:0:0:0:
387,117,163497,2,0,B|427:222|427:222|399:335,1,220,2|0,0:0|0:0,0:0:0:0:
357,359,165059,5,0,0:0:0:0:
306,338,165372,2,0,P|259:225|65:184,1,330,2|2,0:0|0:0,0:0:0:0:
1,96,167872,1,2,0:0:0:0:
63,5,168497,2,0,P|122:24|179:22,1,110,2|2,0:0|0:0,0:0:0:0:
334,4,170059,5,0,0:0:0:0:
383,30,170372,2,0,L|410:209,1,165,2|2,0:0|0:0,0:0:0:0:
354,289,171934,1,10,0:0:0:0:
248,258,172559,2,0,L|275:79,2,165,2|2|8,0:0|0:0|0:0,0:0:0:0:
156,318,175059,5,0,0:0:0:0:
119,214,175684,2,0,L|5:176,2,110,10|0|8,0:0|0:0|0:0,0:0:0:0:
224,181,177559,1,0,0:0:0:0:
224,181,179434,1,8,0:0:0:0:
326,223,180059,6,0,P|347:121|381:57,2,165,6|2|8,0:0|0:0|0:0,0:0:0:0:
272,319,182559,2,0,P|234:268|133:246,1,165,2|2,0:0|0:0,0:0:0:0:
39,292,184122,2,0,L|26:362,2,55,2|10|2,0:0|0:0|0:0,0:0:0:0:
42,237,185059,6,0,L|18:71,2,165,2|2|8,0:0|0:0|0:0,0:0:0:0:
135,294,187559,2,0,P|160:240|206:205,1,110,2|10,0:0|0:0,0:0:0:0:
278,132,188809,2,0,P|302:150|328:158,1,55,2|2,0:0|0:0,0:0:0:0:
361,198,189434,2,0,P|391:198|417:189,1,55,10|2,0:0|0:0,0:0:0:0:
467,206,190059,6,0,L|446:385,2,165,6|2|8,0:0|0:0|0:0,0:0:0:0:
378,141,192559,2,0,P|344:194|238:217,1,165,2|2,0:0|0:0,0:0:0:0:
154,166,194122,2,0,P|146:133|145:97,2,55,2|10|2,0:0|0:0|0:0,0:0:0:0:
137,218,195059,6,0,P|153:288|142:379,2,165,2|2|8,0:0|0:0|0:0,0:0:0:0:
69,131,197559,2,0,P|128:111|180:68,1,110,2|8,0:0|0:0,0:0:0:0:
251,152,198809,2,0,L|242:213,2,55,2|2|10,0:0|0:0|0:0,0:0:0:0:
338,84,200059,6,0,B|416:6|416:6|456:108|456:108|378:186|378:186|418:288,1,440,6|2,0:0|0:0,0:0:0:0:
339,364,203184,1,8,0:0:0:0:
239,317,203809,2,0,L|254:258,2,55,2|2|10,0:0|0:0|0:0,0:0:0:0:
131,341,205059,6,0,B|86:239|86:239|133:139|133:139|81:37,1,330,6|8,0:0|0:0,0:0:0:0:
192,22,207559,2,0,L|252:122,1,110,2|8,0:0|0:0,0:0:0:0:
345,169,208809,2,0,P|374:168|403:158,1,55,2|2,0:0|0:0,0:0:0:0:
453,166,209434,2,0,P|475:188|501:199,1,55,10|2,0:0|0:0,0:0:0:0:
505,252,210059,6,0,B|458:286|405:294|405:294|383:347|326:365|326:365|273:357|241:300|241:300|187:298|138:269,1,440,6|2,0:0|0:0,0:0:0:0:
71,180,213184,1,8,0:0:0:0:
10,271,213809,2,0,L|-4:342,2,55,2|2|10,0:0|0:0|0:0,0:0:0:0:
71,180,215059,6,0,B|97:134|98:75|98:75|148:120|197:120|197:120|229:73|309:52,1,330,6|8,0:0|0:0,0:0:0:0:
388,98,217559,2,0,P|397:153|382:215,1,110,2|8,0:0|0:0,0:0:0:0:
286,252,218809,2,0,P|249:257|217:253,1,55,2|2,0:0|0:0,0:0:0:0:
177,263,219434,2,0,P|141:252|113:235,1,55,10|2,0:0|0:0,0:0:0:0:
72,233,220059,6,0,P|31:159|44:69,1,165,2|2,0:0|0:0,0:0:0:0:
307,25,222559,2,0,P|348:99|335:189,1,165,2|2,0:0|0:0,0:0:0:0:
188,297,225372,6,0,B|219:195|303:222|350:153|317:47|221:47|188:95|188:95|154:47|53:51|28:150|66:222|143:194|160:252,1,660,2|0,0:0|0:0,0:0:0:0:
