osu file format v14

[General]
AudioFilename: audio.mp3
AudioLeadIn: 0
PreviewTime: 180059
Countdown: 0
SampleSet: Soft
StackLeniency: 0.7
Mode: 0
LetterboxInBreaks: 0
WidescreenStoryboard: 0

[Editor]
DistanceSpacing: 0.1
BeatDivisor: 16
GridSize: 4
TimelineZoom: 1

[Metadata]
Title:True Love ft. Lily Allen
TitleUnicode:True Love ft. Lily Allen
Artist:P!nk
ArtistUnicode:P!nk
Creator:DTM9 Nowa
Version:Hard Love
Source:
Tags:Alecia Beth Moore Pink The Truth About Love Stingy Mkguh Mir
BeatmapID:1380299
BeatmapSetID:651376

[Difficulty]
HPDrainRate:6
CircleSize:4.5
OverallDifficulty:6
ApproachRate:8
SliderMultiplier:1.7
SliderTickRate:1

[Events]
//Background and Video events
0,0,"TLWP.jpg",0,0
//Break Periods
//Storyboard Layer 0 (Background)
//Storyboard Layer 1 (Fail)
//Storyboard Layer 2 (Pass)
//Storyboard Layer 3 (Foreground)
//Storyboard Sound Samples

[TimingPoints]
10059.817888941,625,4,2,1,50,1,0
30059,-100,4,2,1,60,0,0
47559,-100,4,2,1,40,0,0
50059,-83.3333333333333,4,2,1,70,0,1
69434,-83.3333333333333,4,2,1,60,0,0
70059,-83.3333333333333,4,2,1,70,0,1
77403,-100,4,2,1,40,0,0
80059,-100,4,2,1,50,0,0
97559,-133.333333333333,4,2,1,40,0,0
98497,-100,4,2,1,50,0,0
100059,-100,4,2,1,60,0,0
117559,-100,4,2,1,40,0,0
120059,-83.3333333333333,4,2,1,70,0,1
139434,-83.3333333333333,4,2,1,60,0,0
140059,-83.3333333333333,4,2,1,70,0,1
147403,-100,4,2,1,40,0,0
150059,-100,4,2,1,50,0,0
160059,-125,4,2,1,40,0,0
161934,-125,4,2,1,45,0,0
180059,-83.3333333333333,4,2,1,70,0,1
199434,-83.3333333333333,4,2,1,60,0,0
200059,-83.3333333333333,4,2,1,70,0,1
220059,-133.333333333333,4,2,1,45,0,0
225997,-133.333333333333,4,2,1,30,0,0
226622,-133.333333333333,4,2,1,25,0,0
227247,-133.333333333333,4,2,1,20,0,0
227872,-133.333333333333,4,2,1,15,0,0
228497,-133.333333333333,4,2,1,10,0,0
229044,-133.333333333333,4,2,69,5,0,0

[Colours]
Combo1 : 204,119,236
Combo2 : 238,39,17
Combo3 : 184,22,188
Combo4 : 255,102,102

[HitObjects]
123,76,10059,6,0,L|211:64,1,85,2|0,0:0|0:0,0:0:0:0:
311,26,10684,2,0,L|399:38,1,85,10|0,0:0|0:0,0:0:0:0:
503,61,11309,2,0,P|503:94|491:123,1,56.6666666666667,2|0,0:0|0:0,0:0:0:0:
474,133,11622,2,0,L|484:186,1,42.5,2|0,0:0|0:0,0:0:0:0:
465,246,11934,2,0,L|455:334,1,85,10|0,0:0|0:0,0:0:0:0:
385,344,12403,1,0,0:0:0:0:
385,344,12481,1,0,0:0:0:0:
385,344,12559,2,0,L|377:288,1,42.5
319,249,12872,6,0,P|274:242|224:252,2,85,2|10|0,0:0|0:0|0:0,0:0:0:0:
385,175,13809,2,0,P|368:132|334:94,1,85,2|0,0:0|0:0,0:0:0:0:
218,77,14434,2,0,L|205:130,1,42.5,10|2,0:0|0:0,0:0:0:0:
144,154,14747,2,0,L|131:96,1,42.5,2|0,0:0|0:0,0:0:0:0:
71,149,15059,5,0,0:0:0:0:
129,243,15372,1,2,0:0:0:0:
188,336,15684,2,0,L|288:323,1,85,10|0,0:0|0:0,0:0:0:0:
333,282,16153,1,2,0:0:0:0:
333,282,16309,2,0,L|433:295,1,85,2|0,0:0|0:0,0:0:0:0:
485,205,16934,2,0,L|400:194,1,85,10|0,0:0|0:0,0:0:0:0:
343,156,17403,1,2,0:0:0:0:
343,156,17559,6,0,L|300:150,1,42.5,2|0,0:0|0:0,0:0:0:0:
272,82,17872,2,0,L|230:88,1,42.5,2|0,0:0|0:0,0:0:0:0:
194,152,18184,2,0,L|107:143,1,85,10|0,0:0|0:0,0:0:0:0:
0,126,18809,1,0,0:0:0:0:
47,226,19122,2,0,L|40:299,1,63.75,10|0,0:0|0:0,0:0:0:0:
39,302,19434,1,10,0:0:0:0:
105,336,19591,2,0,L|116:251,1,85,2|0,0:0|0:0,0:0:0:0:
173,205,20059,6,0,P|219:217|275:211,1,85,2|0,0:0|0:0,0:0:0:0:
350,157,20684,2,0,P|338:203|344:259,1,85,10|0,0:0|0:0,0:0:0:0:
424,312,21309,1,2,0:0:0:0:
315,334,21622,2,0,L|266:324,1,42.5,2|0,0:0|0:0,0:0:0:0:
224,275,21934,2,0,L|138:292,1,85,10|2,0:0|0:0,0:0:0:0:
64,280,22403,1,0,0:0:0:0:
64,280,22481,1,0,0:0:0:0:
64,280,22559,5,0,0:0:0:0:
91,173,22872,1,2,0:0:0:0:
46,71,23184,2,0,L|129:54,1,85,10|0,0:0|0:0,0:0:0:0:
234,90,23809,2,0,L|275:81,1,42.5,2|0,0:0|0:0,0:0:0:0:
334,37,24122,2,0,L|375:45,1,42.5,2|2,0:0|0:0,0:0:0:0:
432,93,24434,2,0,L|473:84,2,42.5,10|0|2,0:0|0:0|0:0,0:0:0:0:
381,155,24903,1,0,0:0:0:0:
381,155,24981,1,0,0:0:0:0:
381,155,25059,5,0,0:0:0:0:
365,272,25372,2,0,L|370:321,1,42.5,2|0,0:0|0:0,0:0:0:0:
310,359,25684,2,0,P|279:322|239:310,1,85,10|0,0:0|0:0,0:0:0:0:
139,341,26309,2,0,P|106:346|87:345,1,42.5,2|0,0:0|0:0,0:0:0:0:
27,324,26622,1,2,0:0:0:0:
56,217,26934,2,0,L|34:121,1,85,10|0,0:0|0:0,0:0:0:0:
99,88,27403,1,2,0:0:0:0:
99,88,27481,1,0,0:0:0:0:
99,88,27559,6,0,L|117:173,2,85,2|2|8,0:0|0:0|0:0,0:0:0:0:
191,26,28497,1,0,0:0:0:0:
294,65,28809,1,0,0:0:0:0:
360,45,28966,1,0,0:0:0:0:
426,25,29122,2,0,L|438:100,1,63.75,2|0,0:0|0:0,0:0:0:0:
438,99,29434,1,10,0:0:0:0:
387,149,29591,2,0,L|375:238,1,85,2|0,0:0|0:0,0:0:0:0:
375,233,29981,1,0,0:0:0:0:
375,233,30059,5,0,0:0:0:0:
291,329,30372,2,0,L|241:321,1,42.5,2|2,0:0|0:0,0:0:0:0:
177,312,30684,1,10,0:0:0:0:
54,346,30997,2,0,P|65:288|53:246,1,85,2|0,0:0|0:0,0:0:0:0:
11,195,31466,1,0,0:0:0:0:
11,195,31622,2,0,L|16:140,1,42.5,2|0,0:0|0:0,0:0:0:0:
75,110,31934,2,0,L|67:25,2,85,10|2|0,0:0|0:0|0:0,0:0:0:0:
137,150,32716,5,2,0:0:0:0:
208,131,32872,2,0,L|257:136,1,42.5,2|0,0:0|0:0,0:0:0:0:
323,160,33184,2,0,P|346:125|387:110,1,85,10|2,0:0|0:0,0:0:0:0:
489,185,33809,2,0,L|495:233,1,42.5,2|0,0:0|0:0,0:0:0:0:
475,298,34122,1,2,0:0:0:0:
406,273,34278,2,0,P|382:270|356:274,1,42.5,2|8,0:0|0:0,0:0:0:0:
294,296,34591,2,0,P|270:299|246:297,1,42.5,2|0,0:0|0:0,0:0:0:0:
185,267,34903,1,2,0:0:0:0:
185,267,34981,1,0,0:0:0:0:
185,267,35059,5,0,0:0:0:0:
187,139,35372,2,0,L|192:84,1,42.5,2|2,0:0|0:0,0:0:0:0:
256,63,35684,2,0,P|302:68|347:55,2,85,10|2|0,0:0|0:0|0:0,0:0:0:0:
133,26,36622,1,2,0:0:0:0:
61,51,36778,1,2,0:0:0:0:
11,108,36934,2,0,L|20:199,1,85,10|2,0:0|0:0,0:0:0:0:
64,263,37403,1,0,0:0:0:0:
64,263,37481,1,0,0:0:0:0:
64,263,37559,5,0,0:0:0:0:
171,194,37872,2,0,L|227:201,1,42.5,2|0,0:0|0:0,0:0:0:0:
274,240,38184,2,0,L|330:233,2,42.5,10|2|2,0:0|0:0|0:0,0:0:0:0:
177,323,38809,1,2,0:0:0:0:
64,263,39122,2,0,L|54:211,1,42.5,2|0,0:0|0:0,0:0:0:0:
10,164,39434,1,10,0:0:0:0:
27,92,39591,2,0,L|37:40,1,42.5,2|0,0:0|0:0,0:0:0:0:
108,25,39903,1,2,0:0:0:0:
108,25,39981,1,0,0:0:0:0:
108,25,40059,5,0,0:0:0:0:
227,69,40372,2,0,L|287:61,1,42.5,2|0,0:0|0:0,0:0:0:0:
330,22,40684,2,0,L|390:30,1,42.5,10|0,0:0|0:0,0:0:0:0:
425,79,40997,2,0,P|415:121|426:169,1,85,2|0,0:0|0:0,0:0:0:0:
460,227,41466,1,0,0:0:0:0:
419,288,41622,2,0,L|421:333,2,42.5,2|2|10,0:0|0:0|0:0,0:0:0:0:
325,200,42247,1,2,0:0:0:0:
271,248,42403,1,0,0:0:0:0:
271,248,42481,1,0,0:0:0:0:
271,248,42559,5,0,0:0:0:0:
147,214,42872,2,0,L|105:205,1,42.5,2|2,0:0|0:0,0:0:0:0:
42,168,43184,2,0,P|51:125|41:80,1,85,10|0,0:0|0:0,0:0:0:0:
154,23,43809,1,2,0:0:0:0:
223,69,43966,1,0,0:0:0:0:
223,69,44122,2,0,L|270:64,1,42.5,2|0,0:0|0:0,0:0:0:0:
327,25,44434,2,0,L|413:32,1,85,10|0,0:0|0:0,0:0:0:0:
479,81,44903,1,2,0:0:0:0:
479,81,44981,1,0,0:0:0:0:
479,81,45059,5,0,0:0:0:0:
433,200,45372,2,0,P|429:225|433:254,1,42.5,2|0,0:0|0:0,0:0:0:0:
384,299,45684,2,0,P|345:276|292:278,1,85,10|2,0:0|0:0,0:0:0:0:
195,337,46309,1,0,0:0:0:0:
131,301,46466,1,2,0:0:0:0:
131,301,46544,1,0,0:0:0:0:
131,301,46622,2,0,L|127:251,1,42.5,2|0,0:0|0:0,0:0:0:0:
66,219,46934,2,0,L|76:128,1,85,10|2,0:0|0:0,0:0:0:0:
144,28,47559,5,2,0:0:0:0:
144,28,47872,1,2,0:0:0:0:
249,137,48497,6,0,B|290:159|346:146|346:146|382:124|418:123|463:143|463:143|450:153|430:154,1,255,2|0,0:0|0:0,0:0:0:0:
132,216,50059,6,0,P|108:171|109:121,1,101.999996887207,6|0,0:0|0:0,0:0:0:0:
228,24,50684,1,8,0:0:0:0:
365,91,50997,2,0,P|420:102|477:88,2,101.999996887207,2|0|0,0:0|0:0|0:0,0:0:0:0:
228,24,51934,2,0,P|173:13|116:27,1,101.999996887207,8|0,0:0|0:0,0:0:0:0:
74,75,52403,1,0,0:0:0:0:
93,148,52559,6,0,P|98:198|84:251,1,101.999996887207,2|0,0:0|0:0,0:0:0:0:
24,294,53028,1,0,0:0:0:0:
94,324,53184,1,8,0:0:0:0:
228,250,53497,2,0,P|281:241|330:250,1,101.999996887207,2|0,0:0|0:0,0:0:0:0:
447,345,54122,1,2,0:0:0:0:
471,272,54278,2,0,L|485:213,1,50.9999984436036,2|8,0:0|0:0,0:0:0:0:
435,163,54590,2,0,L|410:58,1,101.999996887207,2|0,0:0|0:0,0:0:0:0:
346,23,55059,6,0,P|315:63|253:72,1,101.999996887207,2|0,0:0|0:0,0:0:0:0:
192,53,55528,1,0,0:0:0:0:
209,127,55684,1,8,0:0:0:0:
160,272,55997,2,0,L|148:379,2,101.999996887207,2|0|0,0:0|0:0|0:0,0:0:0:0:
64,152,56934,2,0,L|52:45,1,101.999996887207,8|0,0:0|0:0,0:0:0:0:
115,7,57403,1,0,0:0:0:0:
185,37,57559,6,0,P|238:46|308:30,1,101.999996887207,2|0,0:0|0:0,0:0:0:0:
359,58,58028,2,0,P|390:54|416:58,1,50.9999984436036,2|8,0:0|0:0,0:0:0:0:
477,92,58340,2,0,P|481:123|477:149,1,50.9999984436036,2|0,0:0|0:0,0:0:0:0:
433,203,58653,2,0,L|369:211,1,50.9999984436036,2|2,0:0|0:0,0:0:0:0:
316,248,58965,1,10,0:0:0:0:
316,248,59122,1,0,0:0:0:0:
240,235,59278,2,0,L|176:227,1,50.9999984436036,2|8,0:0|0:0,0:0:0:0:
114,209,59590,2,0,P|124:153|105:106,1,101.999996887207,2|0,0:0|0:0,0:0:0:0:
64,49,60059,6,0,L|171:33,1,101.999996887207,6|0,0:0|0:0,0:0:0:0:
316,14,60684,1,8,0:0:0:0:
256,154,60997,2,0,P|245:206|252:270,2,101.999996887207,2|0|0,0:0|0:0|0:0,0:0:0:0:
404,193,61934,2,0,P|414:242|411:293,1,101.999996887207,8|0,0:0|0:0,0:0:0:0:
357,346,62403,1,0,0:0:0:0:
281,361,62559,6,0,L|170:346,1,101.999996887207,2|0,0:0|0:0,0:0:0:0:
104,336,63028,1,0,0:0:0:0:
29,353,63184,1,8,0:0:0:0:
119,230,63497,2,0,P|127:180|116:128,1,101.999996887207,2|0,0:0|0:0,0:0:0:0:
26,7,64122,1,2,0:0:0:0:
97,32,64278,2,0,L|158:22,1,50.9999984436036,2|8,0:0|0:0,0:0:0:0:
215,58,64590,2,0,L|315:74,1,101.999996887207,2|0,0:0|0:0,0:0:0:0:
400,56,65059,6,0,P|389:111|399:162,1,101.999996887207,2|0,0:0|0:0,0:0:0:0:
426,226,65528,1,0,0:0:0:0:
404,299,65684,1,8,0:0:0:0:
265,234,65997,2,0,P|212:227|164:239,2,101.999996887207,2|0|0,0:0|0:0|0:0,0:0:0:0:
357,356,66934,2,0,P|410:363|458:351,1,101.999996887207,8|0,0:0|0:0,0:0:0:0:
502,289,67403,1,0,0:0:0:0:
472,218,67559,6,0,P|461:166|471:112,1,101.999996887207,2|2,0:0|0:0,0:0:0:0:
415,62,68028,2,0,P|389:65|364:60,1,50.9999984436036,2|8,0:0|0:0,0:0:0:0:
290,42,68340,2,0,P|265:37|239:40,1,50.9999984436036,2|0,0:0|0:0,0:0:0:0:
174,79,68653,2,0,L|169:131,1,50.9999984436036,2|0,0:0|0:0,0:0:0:0:
222,192,68966,1,10,0:0:0:0:
222,192,69122,1,0,0:0:0:0:
274,248,69278,2,0,L|279:300,1,50.9999984436036,2|8,0:0|0:0,0:0:0:0:
341,343,69590,2,0,P|392:324|450:337,1,101.999996887207,2|0,0:0|0:0,0:0:0:0:
470,262,70059,6,0,P|428:227|410:170,1,101.999996887207,6|0,0:0|0:0,0:0:0:0:
500,23,70684,2,0,P|479:69|440:100,1,101.999996887207,10|0,0:0|0:0,0:0:0:0:
292,135,71309,1,2,0:0:0:0:
146,87,71622,2,0,L|87:92,1,50.9999984436036,2|0,0:0|0:0,0:0:0:0:
50,163,71934,1,8,0:0:0:0:
50,163,72090,2,0,L|100:167,1,50.9999984436036,2|0,0:0|0:0,0:0:0:0:
146,239,72403,1,2,0:0:0:0:
146,239,72559,6,0,L|253:229,1,101.999996887207,2|0,0:0|0:0,0:0:0:0:
398,261,73184,1,8,0:0:0:0:
352,114,73497,1,0,0:0:0:0:
279,136,73653,1,2,0:0:0:0:
279,136,73809,2,0,L|220:124,1,50.9999984436036,0|0,0:0|0:0,0:0:0:0:
163,85,74122,1,2,0:0:0:0:
163,85,74278,2,0,L|104:97,1,50.9999984436036,2|8,0:0|0:0,0:0:0:0:
30,82,74590,2,0,P|43:129|33:180,1,101.999996887207,2|0,0:0|0:0,0:0:0:0:
6,252,75059,6,0,P|49:246|111:259,1,101.999996887207,6|0,0:0|0:0,0:0:0:0:
226,384,75684,2,0,P|196:349|179:289,1,101.999996887207,10|0,0:0|0:0,0:0:0:0:
264,168,76309,1,2,0:0:0:0:
394,247,76622,2,0,L|405:307,1,50.9999984436036,2|2,0:0|0:0,0:0:0:0:
329,348,76934,1,8,0:0:0:0:
329,348,77090,2,0,L|318:288,1,50.9999984436036,2|0,0:0|0:0,0:0:0:0:
255,252,77403,6,0,P|208:237|127:255,1,127.499996109009,2|2,0:0|0:0,0:0:0:0:
132,251,78497,5,0,0:0:0:0:
192,316,78809,1,2,0:0:0:0:
192,316,79122,2,0,L|198:373,2,42.5,2|2|8,0:0|0:0|0:0,0:0:0:0:
272,249,79591,2,0,L|266:306,2,42.5,2|2|0,0:0|0:0|0:0,0:0:0:0:
341,215,80059,6,0,P|384:222|427:213,1,85,2|0,0:0|0:0,0:0:0:0:
412,105,80684,2,0,P|370:96|329:104,1,85,10|0,0:0|0:0,0:0:0:0:
233,156,81309,2,0,P|206:157|178:151,1,42.5,2|0,0:0|0:0,0:0:0:0:
134,108,81622,2,0,P|133:81|139:53,1,42.5,2|2,0:0|0:0,0:0:0:0:
185,11,81934,1,8,0:0:0:0:
256,30,82090,2,0,L|312:23,1,42.5,2|0,0:0|0:0,0:0:0:0:
376,52,82403,1,0,0:0:0:0:
376,52,82481,1,0,0:0:0:0:
376,52,82559,5,0,0:0:0:0:
491,43,82872,2,0,L|484:102,1,42.5,2|0,0:0|0:0,0:0:0:0:
486,159,83184,2,0,L|496:250,1,85,10|0,0:0|0:0,0:0:0:0:
465,312,83653,1,0,0:0:0:0:
465,312,83809,2,0,P|438:310|412:317,1,42.5,2|0,0:0|0:0,0:0:0:0:
352,332,84122,2,0,P|330:334|309:331,1,42.5,2|0,0:0|0:0,0:0:0:0:
243,300,84434,2,0,L|189:308,1,42.5,10|0,0:0|0:0,0:0:0:0:
132,281,84747,1,2,0:0:0:0:
63,255,84903,1,0,0:0:0:0:
63,255,84981,1,0,0:0:0:0:
63,255,85059,5,0,0:0:0:0:
77,145,85372,2,0,L|67:91,1,42.5,2|0,0:0|0:0,0:0:0:0:
104,38,85684,2,0,P|150:48|197:39,1,85,10|0,0:0|0:0,0:0:0:0:
261,68,86153,1,0,0:0:0:0:
261,68,86309,2,0,P|287:65|312:68,1,42.5,2|0,0:0|0:0,0:0:0:0:
374,86,86622,2,0,P|395:88|416:87,1,42.5,2|0,0:0|0:0,0:0:0:0:
488,70,86934,1,10,0:0:0:0:
466,140,87090,2,0,L|471:196,1,42.5,2|0,0:0|0:0,0:0:0:0:
446,256,87403,1,0,0:0:0:0:
446,256,87481,1,0,0:0:0:0:
446,256,87559,5,2,0:0:0:0:
337,236,87872,2,0,L|288:243,1,42.5,2|0,0:0|0:0,0:0:0:0:
227,271,88184,2,0,L|138:257,1,85,10|0,0:0|0:0,0:0:0:0:
35,285,88809,1,0,0:0:0:0:
47,193,89122,2,0,L|38:122,1,63.75,2|0,0:0|0:0,0:0:0:0:
37,117,89434,1,10,0:0:0:0:
87,63,89590,2,0,P|137:71|183:62,1,85,2|0,0:0|0:0,0:0:0:0:
239,38,90059,6,0,P|281:33|322:41,1,85,2|0,0:0|0:0,0:0:0:0:
406,112,90684,2,0,P|413:153|409:195,1,85,10|0,0:0|0:0,0:0:0:0:
311,245,91309,2,0,L|262:240,1,42.5,2|0,0:0|0:0,0:0:0:0:
202,271,91622,2,0,L|159:275,1,42.5,2|0,0:0|0:0,0:0:0:0:
98,235,91934,1,8,0:0:0:0:
56,175,92090,2,0,L|61:133,1,42.5,0|0,0:0|0:0,0:0:0:0:
45,61,92403,1,0,0:0:0:0:
45,61,92481,1,0,0:0:0:0:
45,61,92559,5,0,0:0:0:0:
153,78,92872,2,0,L|205:69,1,42.5,2|0,0:0|0:0,0:0:0:0:
267,55,93184,1,10,0:0:0:0:
361,111,93497,1,2,0:0:0:0:
307,207,93809,2,0,L|310:257,1,42.5,2|0,0:0|0:0,0:0:0:0:
266,309,94122,2,0,L|263:351,1,42.5,2|0,0:0|0:0,0:0:0:0:
192,368,94434,1,10,0:0:0:0:
124,346,94590,1,0,0:0:0:0:
124,346,94747,2,0,L|121:303,1,42.5,2|0,0:0|0:0,0:0:0:0:
150,236,95059,6,0,L|155:145,1,85,2|0,0:0|0:0,0:0:0:0:
255,104,95684,2,0,L|260:195,1,85,10|0,0:0|0:0,0:0:0:0:
346,257,96309,1,2,0:0:0:0:
428,183,96622,2,0,L|430:137,1,42.5,2|0,0:0|0:0,0:0:0:0:
406,69,96934,2,0,P|360:76|307:66,1,85,10|0,0:0|0:0,0:0:0:0:
218,36,97559,6,0,L|153:28,1,63.7500024318696,2|0,0:0|0:0,0:0:0:0:
183,119,98184,2,0,L|122:111,1,47.8125018239022,10|2,0:0|0:0,0:0:0:0:
109,123,98497,6,0,P|89:113|60:104,2,42.5,2|2|0,0:0|0:0|0:0,0:0:0:0:
146,199,98965,1,2,0:0:0:0:
146,199,99122,2,0,L|188:194,1,42.5,2|0,0:0|0:0,0:0:0:0:
261,178,99434,2,0,P|302:194|371:198,1,85,10|0,0:0|0:0,0:0:0:0:
419,236,99903,1,0,0:0:0:0:
419,236,99981,1,0,0:0:0:0:
419,236,100059,5,0,0:0:0:0:
464,92,100372,2,0,L|456:44,1,42.5,2|2,0:0|0:0,0:0:0:0:
387,74,100684,2,0,L|379:122,1,42.5,10|0,0:0|0:0,0:0:0:0:
316,154,100997,2,0,P|271:145|227:149,1,85,2|0,0:0|0:0,0:0:0:0:
168,123,101465,1,2,0:0:0:0:
168,123,101622,2,0,P|140:126|116:121,1,42.5,2|0,0:0|0:0,0:0:0:0:
54,139,101934,2,0,L|46:191,1,42.5,10|0,0:0|0:0,0:0:0:0:
96,237,102247,2,0,L|104:289,1,42.5,2|0,0:0|0:0,0:0:0:0:
53,333,102559,5,0,0:0:0:0:
178,310,102872,2,0,L|230:316,1,42.5,2|0,0:0|0:0,0:0:0:0:
287,284,103184,2,0,L|329:279,1,42.5,10|0,0:0|0:0,0:0:0:0:
385,231,103497,2,0,P|381:206|386:182,1,42.5,2|0,0:0|0:0,0:0:0:0:
419,125,103809,2,0,P|423:83|416:37,2,85,2|2|8,0:0|0:0|0:0,0:0:0:0:
384,189,104590,2,0,P|381:210|385:230,1,42.5,2|0,0:0|0:0,0:0:0:0:
432,300,104903,1,2,0:0:0:0:
432,300,104981,1,0,0:0:0:0:
432,300,105059,5,0,0:0:0:0:
310,338,105372,2,0,L|258:329,1,42.5,2|0,0:0|0:0,0:0:0:0:
204,295,105684,2,0,L|114:310,2,85,10|2|0,0:0|0:0|0:0,0:0:0:0:
295,205,106622,1,2,0:0:0:0:
367,191,106778,1,2,0:0:0:0:
439,177,106934,2,0,L|489:181,1,42.5,10|0,0:0|0:0,0:0:0:0:
512,113,107247,2,0,L|469:109,1,42.5,2|0,0:0|0:0,0:0:0:0:
399,89,107559,5,0,0:0:0:0:
276,125,107872,2,0,L|228:121,1,42.5,2|0,0:0|0:0,0:0:0:0:
174,164,108184,2,0,L|126:168,2,42.5,10|2|2,0:0|0:0|0:0,0:0:0:0:
291,214,108809,1,2,0:0:0:0:
366,111,109122,2,0,L|371:55,1,42.5,2|0,0:0|0:0,0:0:0:0:
425,20,109434,1,10,0:0:0:0:
481,68,109590,2,0,L|486:124,1,42.5,2|0,0:0|0:0,0:0:0:0:
477,189,109903,1,2,0:0:0:0:
477,189,109981,1,0,0:0:0:0:
477,189,110059,5,0,0:0:0:0:
440,311,110372,2,0,L|436:361,1,42.5,2|0,0:0|0:0,0:0:0:0:
364,368,110684,2,0,L|360:318,1,42.5,10|0,0:0|0:0,0:0:0:0:
313,270,110997,2,0,P|269:280|222:272,1,85,2|0,0:0|0:0,0:0:0:0:
166,238,111465,1,0,0:0:0:0:
166,238,111622,2,0,L|162:185,1,42.5,2|2,0:0|0:0,0:0:0:0:
112,142,111934,2,0,L|115:99,1,42.5,10|0,0:0|0:0,0:0:0:0:
163,44,112247,1,2,0:0:0:0:
236,84,112403,1,0,0:0:0:0:
236,84,112481,1,0,0:0:0:0:
236,84,112559,5,0,0:0:0:0:
354,37,112872,2,0,L|404:44,1,42.5,2|0,0:0|0:0,0:0:0:0:
459,82,113184,2,0,P|444:126|449:177,1,85,10|0,0:0|0:0,0:0:0:0:
494,282,113809,2,0,L|490:330,1,42.5,2|0,0:0|0:0,0:0:0:0:
422,298,114122,2,0,L|418:346,1,42.5,2|0,0:0|0:0,0:0:0:0:
348,362,114434,2,0,P|309:341|258:343,1,85,10|0,0:0|0:0,0:0:0:0:
190,353,114903,1,2,0:0:0:0:
190,353,114981,1,0,0:0:0:0:
190,353,115059,5,0,0:0:0:0:
140,235,115372,2,0,L|137:185,1,42.5,2|0,0:0|0:0,0:0:0:0:
187,138,115684,2,0,L|192:53,1,85,10|2,0:0|0:0,0:0:0:0:
314,88,116309,1,0,0:0:0:0:
388,65,116466,1,2,0:0:0:0:
388,65,116544,1,0,0:0:0:0:
388,65,116622,2,0,L|438:72,1,42.5,2|0,0:0|0:0,0:0:0:0:
487,118,116934,2,0,P|482:145|485:163,1,42.5,10|0,0:0|0:0,0:0:0:0:
508,229,117247,2,0,P|513:256|510:274,1,42.5,2|0,0:0|0:0,0:0:0:0:
481,340,117559,5,2,0:0:0:0:
481,340,117872,1,2,0:0:0:0:
231,288,118497,6,0,B|141:302|71:248|71:248|81:295|131:310,1,255,2|0,0:0|0:0,0:0:0:0:
353,246,120059,6,0,P|364:196|354:147,1,101.999996887207,6|0,0:0|0:0,0:0:0:0:
247,37,120684,1,8,0:0:0:0:
115,112,120997,2,0,P|65:122|16:110,2,101.999996887207,2|0|0,0:0|0:0|0:0,0:0:0:0:
247,37,121934,2,0,P|296:26|345:38,1,101.999996887207,8|0,0:0|0:0,0:0:0:0:
391,99,122403,1,0,0:0:0:0:
358,168,122559,6,0,P|353:218|367:271,1,101.999996887207,2|0,0:0|0:0,0:0:0:0:
427,314,123028,1,0,0:0:0:0:
357,344,123184,1,8,0:0:0:0:
210,302,123497,2,0,P|159:296|106:309,1,101.999996887207,2|0,0:0|0:0,0:0:0:0:
1,199,124122,1,2,0:0:0:0:
25,126,124278,2,0,L|19:68,1,50.9999984436036,2|8,0:0|0:0,0:0:0:0:
74,21,124590,2,0,P|122:41|177:39,1,101.999996887207,2|0,0:0|0:0,0:0:0:0:
246,51,125059,6,0,P|292:31|343:31,1,101.999996887207,2|0,0:0|0:0,0:0:0:0:
409,69,125528,1,0,0:0:0:0:
441,137,125684,1,8,0:0:0:0:
362,268,125997,2,0,L|356:379,2,101.999996887207,2|0|0,0:0|0:0|0:0,0:0:0:0:
245,167,126934,2,0,P|194:158|134:174,1,101.999996887207,8|0,0:0|0:0,0:0:0:0:
82,212,127403,1,0,0:0:0:0:
14,176,127559,6,0,L|-1:72,1,101.999996887207,2|2,0:0|0:0,0:0:0:0:
69,43,128028,2,0,L|76:93,1,50.9999984436036,2|8,0:0|0:0,0:0:0:0:
147,122,128340,2,0,P|173:111|204:109,1,50.9999984436036,2|0,0:0|0:0,0:0:0:0:
268,87,128653,2,0,P|294:98|325:100,1,50.9999984436036,2|0,0:0|0:0,0:0:0:0:
391,84,128965,1,10,0:0:0:0:
391,84,129122,1,0,0:0:0:0:
446,135,129278,2,0,L|453:199,1,50.9999984436036,2|8,0:0|0:0,0:0:0:0:
416,253,129590,2,0,L|406:358,1,101.999996887207,2|0,0:0|0:0,0:0:0:0:
333,377,130059,6,0,P|298:337|237:324,1,101.999996887207,6|0,0:0|0:0,0:0:0:0:
124,359,130684,1,8,0:0:0:0:
16,280,130997,2,0,L|-1:160,2,101.999996887207,2|0|0,0:0|0:0|0:0,0:0:0:0:
124,359,131934,2,0,P|134:305|162:261,1,101.999996887207,8|0,0:0|0:0,0:0:0:0:
230,238,132403,1,0,0:0:0:0:
302,263,132559,6,0,P|353:271|407:261,1,101.999996887207,2|0,0:0|0:0,0:0:0:0:
467,222,133028,1,0,0:0:0:0:
496,292,133184,1,8,0:0:0:0:
434,151,133497,2,0,P|426:101|434:48,1,101.999996887207,2|0,0:0|0:0,0:0:0:0:
285,92,134122,1,2,0:0:0:0:
214,121,134278,2,0,P|189:126|154:124,1,50.9999984436036,2|8,0:0|0:0,0:0:0:0:
89,108,134590,2,0,P|97:158|74:212,1,101.999996887207,2|0,0:0|0:0,0:0:0:0:
28,262,135059,6,0,P|77:245|128:259,1,101.999996887207,2|0,0:0|0:0,0:0:0:0:
189,297,135528,1,0,0:0:0:0:
259,266,135684,1,8,0:0:0:0:
404,313,135997,2,0,P|459:321|508:305,2,101.999996887207,2|0|0,0:0|0:0|0:0,0:0:0:0:
313,189,136934,2,0,P|308:157|311:134,1,50.9999984436036,8|0,0:0|0:0,0:0:0:0:
382,164,137247,2,0,P|387:196|384:219,1,50.9999984436036,2|0,0:0|0:0,0:0:0:0:
325,262,137559,6,0,L|203:270,1,101.999996887207,2|2,0:0|0:0,0:0:0:0:
149,246,138028,2,0,L|88:242,1,50.9999984436036,2|8,0:0|0:0,0:0:0:0:
28,211,138340,2,0,P|23:181|29:153,1,50.9999984436036,2|0,0:0|0:0,0:0:0:0:
59,91,138653,2,0,P|86:78|115:76,1,50.9999984436036,2|0,0:0|0:0,0:0:0:0:
180,111,138965,1,10,0:0:0:0:
180,111,139122,1,0,0:0:0:0:
254,131,139278,2,0,P|279:127|301:116,1,50.9999984436036,2|8,0:0|0:0,0:0:0:0:
352,59,139590,2,0,L|337:178,1,101.999996887207,2|0,0:0|0:0,0:0:0:0:
279,207,140059,6,0,P|272:258|291:307,1,101.999996887207,6|0,0:0|0:0,0:0:0:0:
475,361,140684,2,0,P|435:329|385:321,1,101.999996887207,10|0,0:0|0:0,0:0:0:0:
237,359,141309,1,2,0:0:0:0:
119,320,141622,2,0,L|62:326,1,50.9999984436036,2|2,0:0|0:0,0:0:0:0:
28,254,141934,1,10,0:0:0:0:
28,254,142090,2,0,L|85:248,1,50.9999984436036,0|0,0:0|0:0,0:0:0:0:
142,204,142403,1,2,0:0:0:0:
142,204,142559,6,0,P|128:155|139:105,1,101.999996887207,2|0,0:0|0:0,0:0:0:0:
286,151,143184,1,8,0:0:0:0:
148,217,143497,1,0,0:0:0:0:
73,234,143653,1,0,0:0:0:0:
73,234,143809,2,0,L|14:222,1,50.9999984436036,2|0,0:0|0:0,0:0:0:0:
2,149,144122,1,2,0:0:0:0:
2,149,144278,2,0,L|61:137,1,50.9999984436036,2|8,0:0|0:0,0:0:0:0:
127,124,144590,2,0,P|126:73|150:24,1,101.999996887207,2|0,0:0|0:0,0:0:0:0:
221,49,145059,6,0,P|271:39|323:55,1,101.999996887207,6|0,0:0|0:0,0:0:0:0:
392,209,145684,2,0,P|359:170|346:121,1,101.999996887207,10|0,0:0|0:0,0:0:0:0:
498,99,146309,1,2,0:0:0:0:
503,251,146622,1,2,0:0:0:0:
503,251,146778,2,0,L|492:311,1,50.9999984436036,2|8,0:0|0:0,0:0:0:0:
426,338,147090,2,0,L|415:278,1,50.9999984436036,2|0,0:0|0:0,0:0:0:0:
335,286,147403,6,0,P|271:306|200:284,1,127.499996109009,2|0,0:0|0:0,0:0:0:0:
213,292,148497,5,0,0:0:0:0:
120,258,148809,1,2,0:0:0:0:
120,258,149122,2,0,L|118:302,2,42.5,2|0|10,0:0|0:0|0:0,0:0:0:0:
182,182,149591,2,0,L|177:139,2,42.5,2|2|0,0:0|0:0|0:0,0:0:0:0:
261,239,150059,6,0,P|307:250|363:240,1,85,2|0,0:0|0:0,0:0:0:0:
369,130,150684,2,0,P|323:119|267:129,1,85,10|0,0:0|0:0,0:0:0:0:
182,182,151309,2,0,L|127:172,2,42.5,2|0|0,0:0|0:0|0:0,0:0:0:0:
301,226,151934,2,0,L|397:213,1,85,10|0,0:0|0:0,0:0:0:0:
461,185,152403,1,0,0:0:0:0:
461,185,152481,1,0,0:0:0:0:
461,185,152559,6,0,L|509:191,2,42.5,2|0|0,0:0|0:0|0:0,0:0:0:0:
341,140,153184,2,0,L|245:127,1,85,10|0,0:0|0:0,0:0:0:0:
146,185,153809,1,2,0:0:0:0:
248,262,154122,2,0,L|303:254,1,42.5,2|0,0:0|0:0,0:0:0:0:
363,265,154434,2,0,P|371:221|397:192,1,85,10|0,0:0|0:0,0:0:0:0:
477,183,154903,1,0,0:0:0:0:
477,183,154981,1,0,0:0:0:0:
477,183,155059,6,0,L|464:87,1,85,2|0,0:0|0:0,0:0:0:0:
350,44,155684,2,0,L|337:140,1,85,10|0,0:0|0:0,0:0:0:0:
224,185,156309,2,0,L|211:89,1,85,2|0,0:0|0:0,0:0:0:0:
97,46,156934,2,0,L|84:142,1,85,10|0,0:0|0:0,0:0:0:0:
109,255,157559,5,0,0:0:0:0:
214,178,157872,1,0,0:0:0:0:
97,122,158184,1,8,0:0:0:0:
0,209,158497,2,0,P|8:311|94:369,1,212.5
119,360,159356,1,0,0:0:0:0:
119,360,159434,1,8,0:0:0:0:
244,315,159747,1,0,0:0:0:0:
370,357,160059,5,0,0:0:0:0:
370,357,160372,2,0,L|446:350,2,68,2|2|2,0:0|0:0|0:0,0:0:0:0:
277,313,161309,2,0,L|200:306,1,68,2|2,0:0|0:0,0:0:0:0:
114,345,161934,1,10,0:0:0:0:
18,308,162247,1,2,0:0:0:0:
35,237,162403,1,0,0:0:0:0:
35,237,162481,1,0,0:0:0:0:
35,237,162559,6,0,L|29:191,1,34
69,139,162872,2,0,L|77:72,1,68,2|8,0:0|0:0,0:0:0:0:
214,113,163497,2,0,L|222:179,1,68,2|0,0:0|0:0,0:0:0:0:
217,251,163965,1,0,0:0:0:0:
210,322,164122,1,0,0:0:0:0:
325,238,164434,2,0,P|363:233|398:240,1,68,8|0,0:0|0:0,0:0:0:0:
465,266,164903,1,0,0:0:0:0:
465,266,164981,1,0,0:0:0:0:
465,266,165059,6,0,L|467:221,1,34,0|0,0:0|0:0,0:0:0:0:
490,164,165372,2,0,L|488:119,1,34,2|0,0:0|0:0,0:0:0:0:
439,78,165684,2,0,L|432:10,2,68,10|2|2,0:0|0:0|0:0,0:0:0:0:
394,140,166466,1,0,0:0:0:0:
394,140,166544,1,0,0:0:0:0:
394,140,166622,2,0,P|372:141|352:138,1,34,2|0,0:0|0:0,0:0:0:0:
291,118,166934,2,0,P|269:117|249:120,1,34,10|0,0:0|0:0,0:0:0:0:
192,149,167247,1,2,0:0:0:0:
126,121,167403,1,0,0:0:0:0:
126,121,167481,1,0,0:0:0:0:
126,121,167559,5,0,0:0:0:0:
160,259,167872,2,0,L|155:298,1,34,0|2,0:0|0:0,0:0:0:0:
141,362,168184,1,8,0:0:0:0:
11,302,168497,2,0,L|-4:222,1,68,2|0,0:0|0:0,0:0:0:0:
33,172,168965,1,0,0:0:0:0:
100,193,169122,6,0,L|136:188,1,34,2|0,0:0|0:0,0:0:0:0:
172,248,169434,2,0,L|198:223,1,34,2|0,0:0|0:0,0:0:0:0:
263,252,169747,2,0,L|270:216,1,34,2|0,0:0|0:0,0:0:0:0:
336,160,170059,6,0,L|343:195,1,34,0|0,0:0|0:0,0:0:0:0:
394,242,170372,2,0,L|386:277,1,34,2|0,0:0|0:0,0:0:0:0:
343,332,170684,2,0,P|303:340|270:332,1,68,10|2,0:0|0:0,0:0:0:0:
190,220,171309,2,0,P|199:187|220:161,1,68,2|0,0:0|0:0,0:0:0:0:
363,143,171934,2,0,P|387:167|399:198,1,68,10|2,0:0|0:0,0:0:0:0:
387,275,172403,1,0,0:0:0:0:
387,275,172481,1,0,0:0:0:0:
387,275,172559,5,2,0:0:0:0:
333,322,172716,2,0,L|285:315,1,34
232,289,173028,2,0,L|184:296,1,34,0|8,0:0|0:0,0:0:0:0:
132,320,173341,1,2,0:0:0:0:
65,293,173497,2,0,P|51:260|54:219,1,68,2|0,0:0|0:0,0:0:0:0:
87,166,173966,1,0,0:0:0:0:
87,166,174044,1,0,0:0:0:0:
87,166,174122,1,0,0:0:0:0:
226,199,174434,2,0,L|303:188,1,68,8|0,0:0|0:0,0:0:0:0:
371,210,174903,1,0,0:0:0:0:
371,210,174981,1,0,0:0:0:0:
371,210,175059,5,0,0:0:0:0:
489,130,175372,2,0,L|484:88,1,34,2|0,0:0|0:0,0:0:0:0:
421,63,175684,1,10,0:0:0:0:
421,63,175841,2,0,L|416:105,1,34,2|0,0:0|0:0,0:0:0:0:
358,136,176153,2,0,P|342:118|323:104,1,34,2|0,0:0|0:0,0:0:0:0:
268,83,176466,1,0,0:0:0:0:
268,83,176544,1,0,0:0:0:0:
268,83,176622,2,0,L|273:44,2,34,0|2|10,0:0|0:0|0:0,0:0:0:0:
238,148,177090,2,0,L|245:228,1,68,2|0,0:0|0:0,0:0:0:0:
255,229,177481,1,0,0:0:0:0:
255,229,177559,1,0,0:0:0:0:
256,192,177716,12,8,179434,0:0:0:0:
187,268,180059,6,0,P|240:281|289:267,1,101.999996887207,6|0,0:0|0:0,0:0:0:0:
371,142,180684,1,8,0:0:0:0:
270,26,180997,2,0,P|217:13|168:27,2,101.999996887207,2|0|0,0:0|0:0|0:0,0:0:0:0:
371,142,181934,2,0,L|374:250,1,101.999996887207,8|0,0:0|0:0,0:0:0:0:
325,302,182403,1,0,0:0:0:0:
251,278,182559,6,0,P|201:273|148:287,1,101.999996887207,2|0,0:0|0:0,0:0:0:0:
100,342,183028,1,0,0:0:0:0:
76,268,183184,1,8,0:0:0:0:
133,125,183497,2,0,L|140:18,1,101.999996887207,2|0,0:0|0:0,0:0:0:0:
283,75,184122,1,2,0:0:0:0:
352,42,184278,2,0,L|410:36,1,50.9999984436036,2|8,0:0|0:0,0:0:0:0:
468,74,184590,2,0,P|450:122|459:175,1,101.999996887207,2|0,0:0|0:0,0:0:0:0:
482,243,185059,6,0,P|489:292|471:340,1,101.999996887207,2|0,0:0|0:0,0:0:0:0:
399,366,185528,1,0,0:0:0:0:
330,331,185684,1,8,0:0:0:0:
262,193,185997,2,0,L|256:82,2,101.999996887207,2|0|0,0:0|0:0|0:0,0:0:0:0:
205,335,186934,2,0,P|154:344|94:328,1,101.999996887207,8|0,0:0|0:0,0:0:0:0:
50,280,187403,1,0,0:0:0:0:
27,207,187559,6,0,L|12:103,1,101.999996887207,2|0,0:0|0:0,0:0:0:0:
61,46,188028,2,0,P|93:44|116:37,1,50.9999984436036,2|8,0:0|0:0,0:0:0:0:
183,13,188340,2,0,L|190:69,1,50.9999984436036,2|0,0:0|0:0,0:0:0:0:
256,99,188653,2,0,L|249:155,1,50.9999984436036,2|0,0:0|0:0,0:0:0:0:
210,215,188965,1,10,0:0:0:0:
210,215,189122,1,0,0:0:0:0:
173,282,189278,2,0,L|180:346,1,50.9999984436036,2|8,0:0|0:0,0:0:0:0:
249,361,189590,2,0,P|288:322|346:319,1,101.999996887207,2|0,0:0|0:0,0:0:0:0:
405,338,190059,6,0,L|426:226,1,101.999996887207,6|0,0:0|0:0,0:0:0:0:
356,100,190684,1,8,0:0:0:0:
215,162,190997,2,0,P|162:168|105:153,2,101.999996887207,2|0|0,0:0|0:0|0:0,0:0:0:0:
356,100,191934,2,0,P|409:94|466:109,1,101.999996887207,8|0,0:0|0:0,0:0:0:0:
501,166,192403,1,0,0:0:0:0:
499,242,192559,6,0,L|486:356,1,101.999996887207,2|0,0:0|0:0,0:0:0:0:
414,367,193028,1,0,0:0:0:0:
344,335,193184,1,8,0:0:0:0:
193,364,193497,2,0,L|92:330,1,101.999996887207,2|0,0:0|0:0,0:0:0:0:
21,197,194122,1,2,0:0:0:0:
67,136,194278,2,0,P|72:111|70:76,1,50.9999984436036,2|8,0:0|0:0,0:0:0:0:
54,11,194590,2,0,P|101:21|156:9,1,101.999996887207,2|0,0:0|0:0,0:0:0:0:
222,42,195059,6,0,P|269:32|324:44,1,101.999996887207,2|0,0:0|0:0,0:0:0:0:
390,76,195528,1,0,0:0:0:0:
460,45,195684,1,8,0:0:0:0:
379,175,195997,2,0,L|370:290,2,101.999996887207,2|0|0,0:0|0:0|0:0,0:0:0:0:
288,51,196934,2,0,P|256:46|233:49,1,50.9999984436036,8|0,0:0|0:0,0:0:0:0:
166,77,197247,2,0,P|140:78|115:73,1,50.9999984436036,2|0,0:0|0:0,0:0:0:0:
44,45,197559,6,0,L|52:167,1,101.999996887207,2|0,0:0|0:0,0:0:0:0:
87,214,198028,2,0,L|83:275,1,50.9999984436036,2|8,0:0|0:0,0:0:0:0:
135,321,198340,2,0,P|158:301|185:292,1,50.9999984436036,2|0,0:0|0:0,0:0:0:0:
255,288,198653,2,0,P|279:304|295:328,1,50.9999984436036,2|0,0:0|0:0,0:0:0:0:
361,353,198966,1,10,0:0:0:0:
361,353,199122,1,0,0:0:0:0:
429,318,199278,2,0,L|432:257,1,50.9999984436036,2|8,0:0|0:0,0:0:0:0:
392,201,199590,2,0,L|377:82,1,101.999996887207,2|0,0:0|0:0,0:0:0:0:
321,48,200059,6,0,P|270:41|221:60,1,101.999996887207,6|0,0:0|0:0,0:0:0:0:
167,244,200684,2,0,P|199:204|207:154,1,101.999996887207,10|0,0:0|0:0,0:0:0:0:
83,64,201309,1,2,0:0:0:0:
0,192,201622,2,0,L|-5:259,1,50.9999984436036,2|2,0:0|0:0,0:0:0:0:
66,285,201934,1,8,0:0:0:0:
66,285,202091,2,0,L|69:234,1,50.9999984436036,2|0,0:0|0:0,0:0:0:0:
137,197,202403,1,2,0:0:0:0:
136,197,202559,6,0,P|186:207|236:199,1,101.999996887207
191,54,203184,1,8,0:0:0:0:
73,151,203497,1,0,0:0:0:0:
66,227,203653,1,0,0:0:0:0:
66,227,203809,2,0,L|78:286,1,50.9999984436036,2|0,0:0|0:0,0:0:0:0:
147,316,204122,1,2,0:0:0:0:
147,316,204278,2,0,L|159:257,1,50.9999984436036,2|8,0:0|0:0,0:0:0:0:
223,226,204590,2,0,P|278:237|333:226,1,101.999996887207,2|0,0:0|0:0,0:0:0:0:
391,194,205059,6,0,P|401:144|385:92,1,101.999996887207,6|0,0:0|0:0,0:0:0:0:
231,23,205684,2,0,P|270:56|319:69,1,101.999996887207,10|0,0:0|0:0,0:0:0:0:
463,20,206309,1,2,0:0:0:0:
437,170,206622,1,2,0:0:0:0:
437,170,206778,2,0,L|448:230,1,50.9999984436036,2|8,0:0|0:0,0:0:0:0:
488,284,207090,2,0,L|477:344,1,50.9999984436036,2|0,0:0|0:0,0:0:0:0:
408,364,207403,1,2,0:0:0:0:
338,330,207559,6,0,P|290:321|232:334,1,101.999996887207,2|0,0:0|0:0,0:0:0:0:
163,349,208028,2,0,P|135:352|102:345,1,50.9999984436036,2|8,0:0|0:0,0:0:0:0:
54,299,208340,2,0,L|46:241,1,50.9999984436036,2|0,0:0|0:0,0:0:0:0:
82,180,208653,2,0,L|90:122,1,50.9999984436036,2|0,0:0|0:0,0:0:0:0:
66,55,208965,1,10,0:0:0:0:
66,55,209122,1,0,0:0:0:0:
133,18,209278,2,0,L|202:25,1,50.9999984436036,2|8,0:0|0:0,0:0:0:0:
256,47,209590,2,0,L|373:31,1,101.999996887207,2|0,0:0|0:0,0:0:0:0:
426,65,210059,6,0,P|444:116|431:174,1,101.999996887207,6|0,0:0|0:0,0:0:0:0:
280,257,210684,2,0,P|321:225|372:217,1,101.999996887207,10|0,0:0|0:0,0:0:0:0:
266,373,211309,1,2,0:0:0:0:
161,261,211622,2,0,L|151:207,1,50.9999984436036,2|2,0:0|0:0,0:0:0:0:
88,167,211934,1,8,0:0:0:0:
88,167,212090,2,0,L|78:221,1,50.9999984436036,2|0,0:0|0:0,0:0:0:0:
93,292,212403,1,2,0:0:0:0:
93,292,212559,6,0,P|131:329|181:333,1,101.999996887207,2|0,0:0|0:0,0:0:0:0:
308,254,213184,1,8,0:0:0:0:
263,107,213497,1,0,0:0:0:0:
191,134,213653,1,2,0:0:0:0:
191,134,213809,2,0,L|132:122,1,50.9999984436036,2|0,0:0|0:0,0:0:0:0:
75,83,214122,1,2,0:0:0:0:
75,83,214278,2,0,L|16:95,1,50.9999984436036,2|8,0:0|0:0,0:0:0:0:
3,166,214590,2,0,P|16:213|6:264,1,101.999996887207,2|0,0:0|0:0,0:0:0:0:
72,302,215059,6,0,P|106:275|166:255,1,101.999996887207,6|0,0:0|0:0,0:0:0:0:
329,306,215684,2,0,P|285:290|240:247,1,101.999996887207,10|0,0:0|0:0,0:0:0:0:
305,112,216309,1,2,0:0:0:0:
431,198,216622,2,0,L|442:258,1,50.9999984436036,2|2,0:0|0:0,0:0:0:0:
504,289,216934,1,8,0:0:0:0:
504,289,217090,2,0,L|493:349,1,50.9999984436036,2|0,0:0|0:0,0:0:0:0:
426,373,217403,1,2,0:0:0:0:
360,333,217559,6,0,P|306:324|254:335,1,101.999996887207,2|0,0:0|0:0,0:0:0:0:
189,363,218028,2,0,L|179:313,1,50.9999984436036,2|8,0:0|0:0,0:0:0:0:
115,269,218340,2,0,L|125:219,1,50.9999984436036,2|0,0:0|0:0,0:0:0:0:
166,154,218653,2,0,P|167:124|156:95,1,50.9999984436036,2|0,0:0|0:0,0:0:0:0:
98,59,218965,1,10,0:0:0:0:
98,59,219122,1,0,0:0:0:0:
35,102,219278,2,0,P|28:126|29:151,1,50.9999984436036,2|8,0:0|0:0,0:0:0:0:
31,228,219590,2,0,P|38:279|16:347,1,101.999996887207,2|0,0:0|0:0,0:0:0:0:
89,364,220059,6,0,B|216:342|216:342|283:357,1,191.250007295609,2|2,0:0|0:0,0:0:0:0:
281,359,222403,1,2,0:0:0:0:
281,359,222559,6,0,B|341:345|341:345|468:367,1,191.250007295609,2|2,0:0|0:0,0:0:0:0:
506,184,224174,1,2,0:0:0:0:
506,184,224356,2,0,P|470:185|433:199,1,63.7500024318696,2|2,0:0|0:0,0:0:0:0:
193,290,225372,6,0,B|230:172|327:203|382:123|344:0|227:-1|193:55|193:55|154:-1|37:4|7:120|51:203|136:172|163:234,1,765.000029182435,2|0,0:0|0:0,0:0:0:0:
