osu file format v14

[General]
AudioFilename: audio.mp3
AudioLeadIn: 0
PreviewTime: 40250
Countdown: 0
SampleSet: Soft
StackLeniency: 0.2
Mode: 0
LetterboxInBreaks: 0
WidescreenStoryboard: 1
SamplesMatchPlaybackRate: 1

[Editor]
DistanceSpacing: 0.8
BeatDivisor: 4
GridSize: 8
TimelineZoom: 1

[Metadata]
Title:Just Like Fire
TitleUnicode:Just Like Fire
Artist:P!nk
ArtistUnicode:P!nk
Creator:hannody
Version:Hard
Source:
Tags:the Original Motion Picture -Alice Through The Looking Glass
BeatmapID:1612070
BeatmapSetID:766910

[Difficulty]
HPDrainRate:4
CircleSize:3.8
OverallDifficulty:6
ApproachRate:8.4
SliderMultiplier:1.8
SliderTickRate:1

[Events]
//Background and Video events
0,0,"vlcsnap-2018-04-17-15h42m40s13 (2).png",0,0
//Break Periods
//Storyboard Layer 0 (Background)
//Storyboard Layer 1 (Fail)
//Storyboard Layer 2 (Pass)
//Storyboard Layer 3 (Foreground)
//Storyboard Sound Samples

[TimingPoints]
131,736.14074074074,4,2,1,30,1,0
29576,-200,4,2,1,30,0,0
35465,-100,4,2,1,30,0,0
40617,-200,4,2,1,30,0,0
40986,-50,4,2,1,30,0,0
41354,-66.6666666666667,4,2,1,30,0,1
52396,-66.6666666666667,4,2,1,30,0,0
53133,-66.6666666666667,4,2,1,30,0,1
65647,-66.6666666666667,4,2,1,30,0,0

[Colours]
Combo1 : 238,234,87
Combo2 : 241,99,220
Combo3 : 98,137,230
Combo4 : 89,160,238
Combo5 : 224,109,196
Combo6 : 220,233,67
Combo7 : 237,167,71
Combo8 : 242,140,79

[HitObjects]
32,200,131,6,0,P|80:200|112:104,1,135,4|0,0:0|0:0,0:0:0:0:
96,64,867,2,0,L|192:64,1,90,4|4,0:0|0:0,0:0:0:0:
248,112,1419,1,4,0:0:0:0:
312,160,1603,2,0,L|416:160,1,90,4|0,0:0|0:0,0:0:0:0:
456,104,2155,1,0,0:0:0:0:
480,176,2339,1,4,0:0:0:0:
496,248,2523,1,4,0:0:0:0:
424,232,2707,6,0,L|392:344,1,90,4|0,0:0|0:0,0:0:0:0:
256,336,3443,1,0,0:0:0:0:
128,304,3811,1,4,0:0:0:0:
80,368,3995,1,0,0:0:0:0:
48,296,4179,1,0,0:0:0:0:
88,160,4547,1,4,0:0:0:0:
48,296,4915,1,0,0:0:0:0:
88,160,5283,5,0,0:0:0:0:
56,88,5468,1,0,0:0:0:0:
104,24,5652,1,4,0:0:0:0:
136,96,5836,1,4,0:0:0:0:
88,160,6020,6,0,P|88:216|16:264,1,135,4|0,0:0|0:0,0:0:0:0:
72,328,6756,2,0,P|112:320|168:336,1,90,8|0,0:0|0:0,0:0:0:0:
232,352,7308,1,0,0:0:0:0:
272,288,7492,2,0,L|264:352,1,45
344,344,7860,2,0,L|352:288,1,45
360,224,8228,2,0,L|448:216,1,45,8|0,0:0|0:0,0:0:0:0:
400,144,8596,2,0,L|336:152,1,45
280,168,8964,2,0,B|256:216|312:240|272:296,1,135
208,256,9700,1,8,0:0:0:0:
64,192,10068,5,0,0:0:0:0:
208,256,10436,5,0,0:0:0:0:
272,296,10621,5,2,0:0:0:0:
208,336,10805,5,0,0:0:0:0:
64,192,11173,6,0,L|112:184,1,45,8|2,0:0|0:0,0:0:0:0:
128,112,11541,2,0,L|56:120,1,45
88,40,11909,2,0,L|216:32,1,90,4|0,0:0|0:0,0:0:0:0:
240,80,12461,1,0,0:0:0:0:
312,96,12645,1,8,0:0:0:0:
384,112,12829,1,0,0:0:0:0:
456,136,13013,2,0,L|392:144,2,45,0|2|0,0:0|0:0|0:0,0:0:0:0:
464,216,13565,5,0,0:0:0:0:
432,288,13749,1,2,0:0:0:0:
312,216,14117,2,0,L|256:224,1,45,8|0,0:0|0:0,0:0:0:0:
248,296,14485,2,0,L|160:304,1,45
152,240,14853,2,0,B|128:184|168:184|136:104,1,135
72,152,15589,1,8,0:0:0:0:
256,40,15958,5,0,0:0:0:0:
256,248,16326,5,0,0:0:0:0:
232,168,16510,5,2,0:0:0:0:
312,192,16694,5,0,0:0:0:0:
312,192,17062,5,0,0:0:0:0:
256,248,17246,5,2,0:0:0:0:
232,168,17430,1,0,0:0:0:0:
232,168,17798,6,0,L|168:176,1,45,4|0,0:0|0:0,0:0:0:0:
128,224,18166,1,2,0:0:0:0:
64,272,18350,1,2,0:0:0:0:
56,192,18534,2,8,L|64:128,1,45
120,96,18902,2,8,L|112:168,1,45
128,224,19270,5,2,0:0:0:0:
64,272,19454,1,2,0:0:0:0:
136,304,19638,1,2,0:0:0:0:
208,336,19822,1,2,0:0:0:0:
280,360,20006,1,8,0:0:0:0:
280,360,20190,1,8,0:0:0:0:
312,288,20374,2,8,L|328:336,1,45
400,360,20742,2,2,L|384:312,1,45
312,288,21111,2,2,L|336:352,1,45
400,360,21479,6,0,L|360:248,1,90,4|0,0:0|0:0,0:0:0:0:
352,200,22031,5,0,0:0:0:0:
296,144,22215,2,0,L|208:152,1,45,4|0,0:0|0:0,0:0:0:0:
192,192,22583,2,0,L|248:184,1,45
264,256,22951,2,0,L|160:272,1,90,4|0,0:0|0:0,0:0:0:0:
112,312,23503,1,0,0:0:0:0:
40,344,23687,2,0,P|40:296|56:264,1,45,4|0,0:0|0:0,0:0:0:0:
88,240,24055,2,0,P|96:192|88:152,1,90
48,88,24607,1,0,0:0:0:0:
48,88,24791,1,0,0:0:0:0:
112,40,24975,5,0,0:0:0:0:
112,40,25159,1,0,0:0:0:0:
184,80,25343,5,8,0:0:0:0:
184,80,25527,1,8,0:0:0:0:
392,168,25895,2,0,B|344:184|344:184|304:184|304:184|248:208,1,135,2|0,0:0|0:0,0:0:0:0:
208,256,26632,2,0,L|320:216,2,90,2|0|2,0:0|0:0|0:0,0:0:0:0:
64,176,27736,5,0,0:0:0:0:
64,176,27920,1,2,0:0:0:0:
112,112,28104,1,0,0:0:0:0:
112,112,28288,1,2,0:0:0:0:
168,176,28472,5,0,0:0:0:0:
392,168,28840,5,2,0:0:0:0:
344,104,29024,1,2,0:0:0:0:
336,224,29208,1,2,0:0:0:0:
392,168,29392,1,2,0:0:0:0:
344,104,29576,6,2,L|312:104,1,22.5
352,88,29944,2,0,L|320:88,1,22.5
360,72,30312,2,2,L|320:72,1,22.5
272,32,30680,5,0,0:0:0:0:
440,80,30864,1,0,0:0:0:0:
256,24,31048,6,2,L|248:56,1,22.5
456,88,31416,2,0,L|448:128,1,22.5
248,16,31785,2,2,L|240:48,1,22.5
216,112,32153,1,0,0:0:0:0:
216,112,32337,1,0,0:0:0:0:
104,208,32521,6,2,L|96:168,1,22.5
240,128,32889,2,0,L|232:88,1,22.5
88,224,33257,2,2,L|80:184,1,22.5
256,144,33625,1,0,0:0:0:0:
272,168,33809,1,0,0:0:0:0:
288,192,33993,1,2,0:0:0:0:
360,296,34361,5,0,0:0:0:0:
408,192,34729,1,2,0:0:0:0:
400,168,34913,1,2,0:0:0:0:
472,88,35097,1,2,0:0:0:0:
464,112,35281,1,2,0:0:0:0:
312,176,35465,6,0,L|232:168,1,45
272,24,35833,2,2,L|216:16,1,45
304,168,36201,2,0,L|224:160,1,45
280,32,36569,1,2,0:0:0:0:
288,40,36754,1,2,0:0:0:0:
320,160,36938,6,0,L|312:216,1,45
296,48,37306,2,2,L|304:-16,1,45
336,168,37674,2,0,L|328:240,1,45
304,56,38042,2,2,L|312:-16,1,45
352,176,38410,1,0,0:0:0:0:
368,184,38594,1,0,0:0:0:0:
384,192,38778,1,2,0:0:0:0:
400,200,38962,1,2,0:0:0:0:
200,160,39146,5,0,0:0:0:0:
224,128,39330,1,0,0:0:0:0:
248,96,39514,1,2,0:0:0:0:
272,64,39698,1,2,0:0:0:0:
308,11,39882,5,14,0:0:0:0:
296,208,40618,6,0,L|336:200,1,33.75,4|0,0:0|0:0,0:0:0:0:
296,208,40986,2,0,L|440:176,1,135,4|0,0:0|0:0,0:0:0:0:
296,208,41354,2,0,L|448:176,1,135.000005149842,4|0,0:0|0:0,0:0:0:0:
472,104,41906,1,4,0:0:0:0:
424,32,42091,2,0,L|336:24,1,67.5000025749208,4|0,0:0|0:0,0:0:0:0:
184,80,42459,2,0,L|264:88,1,67.5000025749208
424,32,42827,2,0,L|272:16,1,135.000005149842,4|0,0:0|0:0,0:0:0:0:
184,80,43379,1,4,0:0:0:0:
248,232,43563,6,0,P|264:200|248:152,1,67.5000025749208,4|0,0:0|0:0,0:0:0:0:
197,18,43931,2,0,P|181:74|205:106,1,67.5000025749208
152,168,44299,2,0,B|88:176|88:176|16:160,1,135.000005149842,4|0,0:0|0:0,0:0:0:0:
259,169,44851,1,4,0:0:0:0:
352,136,45035,2,0,B|424:128|424:128|528:160,2,135.000005149842,4|0|4,0:0|0:0|0:0,0:0:0:0:
259,169,45955,1,0,0:0:0:0:
288,80,46139,2,0,L|296:0,1,67.5000025749208,0|4,0:0|0:0,0:0:0:0:
259,169,46507,2,0,L|248:256,1,67.5000025749208,4|0,0:0|0:0,0:0:0:0:
288,80,46875,2,0,B|244:76|244:76|224:80|224:80|160:72,1,101.250003862381,8|0,0:0|0:0,0:0:0:0:
128,128,47244,6,0,P|88:104|0:136,1,135.000005149842,4|0,0:0|0:0,0:0:0:0:
64,184,47796,1,4,0:0:0:0:
187,75,47980,6,0,P|195:11|179:-13,1,67.5000025749208,4|0,0:0|0:0,0:0:0:0:
64,184,48348,2,0,P|48:224|88:296,1,67.5000025749208,4|0,0:0|0:0,0:0:0:0:
177,247,48716,2,0,P|137:263|49:247,1,135.000005149842,4|0,0:0|0:0,0:0:0:0:
240,192,49268,1,4,0:0:0:0:
288,264,49452,2,0,L|280:360,1,67.5000025749208,4|0,0:0|0:0,0:0:0:0:
312,136,49820,2,0,L|320:56,1,67.5000025749208
376,208,50188,2,0,B|416:216|416:216|456:216|456:216|528:232,1,135.000005149842,4|0,0:0|0:0,0:0:0:0:
488,136,50740,1,4,0:0:0:0:
464,304,50924,1,4,0:0:0:0:
396,298,51292,6,0,L|500:306,1,67.5000025749208,4|0,0:0|0:0,0:0:0:0:
328,344,51660,2,0,L|248:336,2,67.5000025749208
248,264,52212,1,4,0:0:0:0:
240,248,52396,1,8,0:0:0:0:
144,160,52581,1,8,0:0:0:0:
128,192,52765,1,2,0:0:0:0:
112,224,52949,1,8,0:0:0:0:
96,256,53133,1,2,0:0:0:0:
144,336,53317,5,0,0:0:0:0:
144,336,53409,1,8,0:0:0:0:
144,336,53501,1,0,0:0:0:0:
184,256,53685,1,0,0:0:0:0:
240,344,53869,6,0,L|336:352,1,67.5000025749208,4|0,0:0|0:0,0:0:0:0:
163,262,54237,2,0,L|75:254,1,67.5000025749208,0|4,0:0|0:0,0:0:0:0:
272,224,54605,2,0,B|320:224|320:224|352:200|352:200|448:200,2,135.000005149842,4|0|4,0:0|0:0|0:0,0:0:0:0:
208,160,55525,1,0,0:0:0:0:
280,248,55709,2,0,L|288:328,1,67.5000025749208
208,160,56077,2,0,L|200:16,1,135.000005149842,4|0,0:0|0:0,0:0:0:0:
120,48,56629,1,4,0:0:0:0:
279,56,56813,6,0,P|319:40|383:64,1,101.250003862381,4|0,0:0|0:0,0:0:0:0:
468,56,57181,2,0,P|428:40|364:64,1,101.250003862381
382,151,57549,2,0,B|350:103|406:119|366:39,1,101.250003862381,4|0,0:0|0:0,0:0:0:0:
344,216,57918,2,0,P|384:224|416:216,1,67.5000025749208,0|4,0:0|0:0,0:0:0:0:
312,280,58286,2,0,L|160:288,1,135.000005149842,4|4,0:0|0:0,0:0:0:0:
104,224,58838,1,0,0:0:0:0:
192,320,59022,5,0,0:0:0:0:
88,328,59206,5,4,0:0:0:0:
88,328,59298,1,0,0:0:0:0:
88,328,59390,1,4,0:0:0:0:
104,224,59574,1,0,0:0:0:0:
24,104,59758,5,4,0:0:0:0:
16,88,59942,1,0,0:0:0:0:
96,24,60126,1,4,0:0:0:0:
88,40,60310,1,0,0:0:0:0:
97,156,60494,6,0,P|145:132|209:148,1,101.250003862381,4|0,0:0|0:0,0:0:0:0:
240,200,60862,2,0,P|296:200|336:160,1,101.250003862381,8|0,0:0|0:0,0:0:0:0:
336,96,61230,1,8,0:0:0:0:
416,168,61476,1,4,0:0:0:0:
424,72,61721,1,8,0:0:0:0:
456,248,61966,5,4,0:0:0:0:
416,168,62212,1,8,0:0:0:0:
360,240,62457,1,4,0:0:0:0:
280,296,62702,5,8,0:0:0:0:
360,240,62948,1,4,0:0:0:0:
280,192,63193,1,8,0:0:0:0:
368,328,63439,1,4,0:0:0:0:
376,336,63807,5,12,0:0:0:0:
392,232,63991,1,12,0:0:0:0:
384,344,64175,2,0,L|392:232,1,101.250003862381,4|0,0:0|0:0,0:0:0:0:
328,112,64543,2,0,L|320:224,1,101.250003862381,4|0,0:0|0:0,0:0:0:0:
391,243,64911,2,0,B|439:227|447:267|503:243,1,101.250003862381,12|0,0:0|0:0,0:0:0:0:
320,212,65279,2,12,B|264:188|248:244|184:212,1,135.000005149842,0|0,0:0|0:0,0:0:0:0:
256,192,65739,12,0,70800,0:0:0:0:
