osu file format v14

[General]
AudioFilename: audio.mp3
AudioLeadIn: 0
PreviewTime: 13210
Countdown: 0
SampleSet: Soft
StackLeniency: 0.7
Mode: 1
LetterboxInBreaks: 0
WidescreenStoryboard: 1

[Editor]
DistanceSpacing: 1
BeatDivisor: 4
GridSize: 16
TimelineZoom: 3.700005

[Metadata]
Title:Riot of Color
TitleUnicode:Riot of Color
Artist:OzzyOzrock
ArtistUnicode:OzzyOzrock
Creator:Catgirl
Version:Inner Ozzy
Source:
Tags:
BeatmapID:1728547
BeatmapSetID:824900

[Difficulty]
HPDrainRate:4
CircleSize:4
OverallDifficulty:6
ApproachRate:5
SliderMultiplier:1.4
SliderTickRate:1

[Events]
//Background and Video events
0,0,"beach22.png",0,100
//Break Periods
//Storyboard Layer 0 (Background)
//Storyboard Layer 1 (Fail)
//Storyboard Layer 2 (Pass)
//Storyboard Layer 3 (Foreground)
//Storyboard Sound Samples

[TimingPoints]
410,400,4,2,0,100,1,0
410,-86.9565217391304,4,2,0,100,0,0
13210,-90.9090909090909,4,2,0,100,0,0
13510,-95.2380952380952,4,2,0,100,0,0
13810,-100,4,2,0,100,0,0
38810,-86.9565217391304,4,2,0,100,0,1
41610,-84.7457627118644,4,2,0,100,0,1
41710,-82.6446280991736,4,2,0,100,0,1
41810,-80.6451612903226,4,2,0,100,0,1
41910,-78.7401574803149,4,2,0,100,0,1
42010,-76.9230769230769,4,2,0,100,0,1
44810,-75.187969924812,4,2,0,100,0,1
44910,-73.5294117647059,4,2,0,100,0,1
45010,-71.9424460431655,4,2,0,100,0,1
45110,-70.4225352112676,4,2,0,100,0,1
45210,-68.9655172413793,4,2,0,100,0,1
48010,-67.5675675675676,4,2,0,100,0,1
48110,-66.2251655629139,4,2,0,100,0,1
48210,-64.9350649350649,4,2,0,100,0,1
48310,-63.6942675159236,4,2,0,100,0,1
48410,-62.5,4,2,0,100,0,1
50810,-64.5161290322581,4,2,0,100,0,1
50910,-66.6666666666667,4,2,0,100,0,1
51010,-68.9655172413793,4,2,0,100,0,1
51110,-71.4285714285714,4,2,0,100,0,1
51210,-74.0740740740741,4,2,0,100,0,1
51310,-76.9230769230769,4,2,0,100,0,1
51410,-80,4,2,0,100,0,1
51510,-83.3333333333333,4,2,0,100,0,1
51610,-86.9565217391304,4,2,0,100,0,0
52010,-100,4,2,0,100,0,0
72410,-76.9230769230769,4,2,0,100,0,0
74010,-62.5,4,2,0,100,0,0
75610,-45.4545454545455,4,2,0,100,0,0
77210,40,4,2,0,100,1,0
77210,-400,4,2,0,100,0,1
78810,400,4,2,0,100,1,0
78810,-57.1428571428571,4,2,0,100,0,1
79310,-76.9230769230769,4,2,0,100,0,1
83710,-76.3358778625954,4,2,0,100,0,1
83810,-75.7575757575758,4,2,0,100,0,1
83910,-75.187969924812,4,2,0,100,0,1
84010,-74.6268656716418,4,2,0,100,0,1
84110,-74.0740740740741,4,2,0,100,0,1
84210,-73.5294117647059,4,2,0,100,0,1
84310,-72.992700729927,4,2,0,100,0,1
84410,-72.463768115942,4,2,0,100,0,1
84510,-71.9424460431655,4,2,0,100,0,1
84610,-71.4285714285714,4,2,0,100,0,1
84710,-70.9219858156028,4,2,0,100,0,1
84810,-70.4225352112676,4,2,0,100,0,1
84910,-69.9300699300699,4,2,0,100,0,1
85010,-69.4444444444444,4,2,0,100,0,1
85110,-68.9655172413793,4,2,0,100,0,1
85210,-68.4931506849315,4,2,0,100,0,1
85310,-68.0272108843537,4,2,0,100,0,1
85410,-67.5675675675676,4,2,0,100,0,1
85510,-67.1140939597315,4,2,0,100,0,1
85610,-66.6666666666667,4,2,0,100,0,1
85710,-66.2251655629139,4,2,0,100,0,1
85810,-65.7894736842105,4,2,0,100,0,1
85910,-65.359477124183,4,2,0,100,0,1
86010,-64.9350649350649,4,2,0,100,0,1
86110,-64.5161290322581,4,2,0,100,0,1
86210,-64.1025641025641,4,2,0,100,0,1
86310,-63.6942675159236,4,2,0,100,0,1
86410,-63.2911392405063,4,2,0,100,0,1
86510,-62.8930817610063,4,2,0,100,0,1
86610,-62.5,4,2,0,100,0,1
86710,-62.111801242236,4,2,0,100,0,1
86810,-61.7283950617284,4,2,0,100,0,1
87110,-60.2409638554217,4,2,0,100,0,1
87410,-58.8235294117647,4,2,0,100,0,1
87810,-55.5555555555556,4,2,0,100,0,1
88010,-52.6315789473684,4,2,0,100,0,1
88210,-50,4,2,0,100,0,1
88410,-47.6190476190476,4,2,0,100,0,1
88410,-50,4,2,0,100,0,1
90010,-86.9565217391304,4,2,0,100,0,0
92810,-84.7457627118644,4,2,0,100,0,0
92910,-82.6446280991736,4,2,0,100,0,0
93010,-80.6451612903226,4,2,0,100,0,0
93110,-78.7401574803149,4,2,0,100,0,0
93210,-76.9230769230769,4,2,0,100,0,0
96410,-52.6315789473684,4,2,0,100,0,1
99610,-45.4545454545455,4,2,0,100,0,1
103460,-25,4,2,0,100,0,1
106010,-25,4,2,0,100,0,0

[HitObjects]
256,192,410,5,2,0:0:0:0:
256,192,510,1,0,0:0:0:0:
256,192,710,1,0,0:0:0:0:
256,192,1010,1,2,0:0:0:0:
256,192,1110,1,0,0:0:0:0:
256,192,1310,1,0,0:0:0:0:
256,192,1610,1,2,0:0:0:0:
256,192,1710,1,0,0:0:0:0:
256,192,1910,1,0,0:0:0:0:
256,192,2210,1,2,0:0:0:0:
256,192,2310,1,0,0:0:0:0:
256,192,2510,1,0,0:0:0:0:
256,192,2710,1,0,0:0:0:0:
256,192,2810,1,2,0:0:0:0:
256,192,3010,1,2,0:0:0:0:
256,192,3210,1,0,0:0:0:0:
256,192,3410,1,0,0:0:0:0:
256,192,3610,1,0,0:0:0:0:
256,192,3710,1,2,0:0:0:0:
256,192,3910,1,2,0:0:0:0:
256,192,4210,1,0,0:0:0:0:
256,192,4310,1,2,0:0:0:0:
256,192,4510,1,2,0:0:0:0:
256,192,4810,1,0,0:0:0:0:
256,192,4910,1,2,0:0:0:0:
256,192,5110,1,2,0:0:0:0:
256,192,5410,1,0,0:0:0:0:
256,192,5510,1,2,0:0:0:0:
256,192,5710,1,2,0:0:0:0:
256,192,6010,1,0,0:0:0:0:
256,192,6210,1,0,0:0:0:0:
256,192,6410,1,2,0:0:0:0:
256,192,6610,1,2,0:0:0:0:
256,192,6810,1,0,0:0:0:0:
256,192,6910,1,0,0:0:0:0:
256,192,7110,1,2,0:0:0:0:
256,192,7410,1,0,0:0:0:0:
256,192,7510,1,0,0:0:0:0:
256,192,7710,1,2,0:0:0:0:
256,192,8010,1,0,0:0:0:0:
256,192,8110,1,0,0:0:0:0:
256,192,8310,1,2,0:0:0:0:
256,192,8610,1,0,0:0:0:0:
256,192,8710,1,0,0:0:0:0:
256,192,8910,1,2,0:0:0:0:
256,192,9210,1,0,0:0:0:0:
256,192,9410,1,2,0:0:0:0:
256,192,9610,1,2,0:0:0:0:
256,192,9810,1,0,0:0:0:0:
256,192,10010,1,2,0:0:0:0:
256,192,10110,1,2,0:0:0:0:
256,192,10310,1,0,0:0:0:0:
256,192,10610,1,2,0:0:0:0:
256,192,10710,1,2,0:0:0:0:
256,192,10910,1,0,0:0:0:0:
256,192,11210,1,2,0:0:0:0:
256,192,11310,1,2,0:0:0:0:
256,192,11510,1,0,0:0:0:0:
256,192,11810,1,2,0:0:0:0:
256,192,11910,1,2,0:0:0:0:
256,192,12110,1,0,0:0:0:0:
256,192,12410,1,2,0:0:0:0:
256,192,12610,1,0,0:0:0:0:
256,192,12810,1,0,0:0:0:0:
256,192,13010,1,2,0:0:0:0:
256,192,13210,1,6,0:0:0:0:
256,192,13510,1,2,0:0:0:0:
256,192,13810,1,0,0:0:0:0:
256,192,15010,1,0,0:0:0:0:
256,192,15110,1,2,0:0:0:0:
256,192,15210,1,0,0:0:0:0:
256,192,15310,1,2,0:0:0:0:
256,192,15510,1,2,0:0:0:0:
256,192,15710,1,2,0:0:0:0:
256,192,15810,1,0,0:0:0:0:
256,192,16010,1,2,0:0:0:0:
256,192,16210,1,2,0:0:0:0:
256,192,16410,1,0,0:0:0:0:
256,192,16710,1,0,0:0:0:0:
256,192,17010,1,0,0:0:0:0:
256,192,18210,1,0,0:0:0:0:
256,192,18310,1,0,0:0:0:0:
256,192,18410,1,2,0:0:0:0:
256,192,18510,1,0,0:0:0:0:
256,192,18610,1,0,0:0:0:0:
256,192,18710,1,2,0:0:0:0:
256,192,18810,1,2,0:0:0:0:
256,192,18910,1,0,0:0:0:0:
256,192,19010,1,2,0:0:0:0:
256,192,19110,1,0,0:0:0:0:
256,192,19210,1,2,0:0:0:0:
256,192,19310,1,0,0:0:0:0:
256,192,19410,1,0,0:0:0:0:
256,192,19510,1,2,0:0:0:0:
256,192,19610,1,2,0:0:0:0:
256,192,19910,1,2,0:0:0:0:
256,192,20210,1,0,0:0:0:0:
256,192,21410,1,2,0:0:0:0:
256,192,21510,1,0,0:0:0:0:
256,192,21610,1,2,0:0:0:0:
256,192,21710,1,2,0:0:0:0:
256,192,21910,1,2,0:0:0:0:
256,192,22110,1,0,0:0:0:0:
256,192,22210,1,2,0:0:0:0:
256,192,22410,1,2,0:0:0:0:
256,192,22610,1,0,0:0:0:0:
256,192,22810,1,2,0:0:0:0:
256,192,23110,1,0,0:0:0:0:
256,192,23410,1,2,0:0:0:0:
256,192,24010,1,0,0:0:0:0:
256,192,24410,1,2,0:0:0:0:
256,192,24710,1,2,0:0:0:0:
256,192,25010,1,0,0:0:0:0:
256,192,25210,1,2,0:0:0:0:
256,192,25610,1,0,0:0:0:0:
256,192,26010,1,2,0:0:0:0:
256,192,26210,1,0,0:0:0:0:
256,192,26310,1,0,0:0:0:0:
256,192,26510,1,0,0:0:0:0:
256,192,26710,1,2,0:0:0:0:
256,192,26910,1,2,0:0:0:0:
256,192,27010,1,0,0:0:0:0:
256,192,27110,1,0,0:0:0:0:
256,192,27210,1,2,0:0:0:0:
256,192,27310,1,0,0:0:0:0:
256,192,27410,1,2,0:0:0:0:
256,192,27510,1,2,0:0:0:0:
256,192,27610,1,0,0:0:0:0:
256,192,27810,1,2,0:0:0:0:
256,192,27910,1,0,0:0:0:0:
256,192,28110,1,0,0:0:0:0:
256,192,28310,1,0,0:0:0:0:
256,192,28610,1,0,0:0:0:0:
256,192,28810,1,2,0:0:0:0:
256,192,28910,1,0,0:0:0:0:
256,192,29010,1,2,0:0:0:0:
256,192,29110,1,2,0:0:0:0:
256,192,29210,1,0,0:0:0:0:
256,192,29810,1,2,0:0:0:0:
256,192,29910,1,0,0:0:0:0:
256,192,30010,1,2,0:0:0:0:
256,192,30110,1,2,0:0:0:0:
256,192,30210,1,0,0:0:0:0:
256,192,30310,1,0,0:0:0:0:
256,192,30410,1,2,0:0:0:0:
256,192,30510,1,0,0:0:0:0:
256,192,30610,1,2,0:0:0:0:
256,192,30710,1,2,0:0:0:0:
256,192,30810,1,0,0:0:0:0:
256,192,31110,1,0,0:0:0:0:
256,192,31410,1,2,0:0:0:0:
256,192,31610,1,2,0:0:0:0:
256,192,32410,1,2,0:0:0:0:
256,192,32610,1,0,0:0:0:0:
256,192,32710,1,0,0:0:0:0:
256,192,32910,1,0,0:0:0:0:
256,192,33110,1,0,0:0:0:0:
256,192,33310,1,2,0:0:0:0:
256,192,33410,1,0,0:0:0:0:
256,192,33510,1,0,0:0:0:0:
256,192,33610,1,2,0:0:0:0:
256,192,33710,1,0,0:0:0:0:
256,192,33810,1,2,0:0:0:0:
256,192,33910,1,2,0:0:0:0:
256,192,34010,1,2,0:0:0:0:
256,192,34210,1,0,0:0:0:0:
256,192,34310,1,2,0:0:0:0:
256,192,34510,1,2,0:0:0:0:
256,192,34710,1,0,0:0:0:0:
256,192,35010,1,0,0:0:0:0:
256,192,35210,1,2,0:0:0:0:
256,192,35310,1,2,0:0:0:0:
256,192,35410,1,0,0:0:0:0:
256,192,35510,1,0,0:0:0:0:
256,192,35610,1,2,0:0:0:0:
256,192,36210,1,2,0:0:0:0:
256,192,36310,1,0,0:0:0:0:
256,192,36410,1,2,0:0:0:0:
256,192,36510,1,2,0:0:0:0:
256,192,36610,1,0,0:0:0:0:
256,192,36710,1,0,0:0:0:0:
256,192,36810,1,2,0:0:0:0:
256,192,36910,1,0,0:0:0:0:
256,192,37010,1,0,0:0:0:0:
256,192,37110,1,2,0:0:0:0:
256,192,37210,1,2,0:0:0:0:
256,192,37510,1,2,0:0:0:0:
256,192,37810,1,0,0:0:0:0:
256,192,38010,1,0,0:0:0:0:
256,192,38810,1,2,0:0:0:0:
256,192,38910,1,0,0:0:0:0:
256,192,39010,1,2,0:0:0:0:
256,192,39110,1,2,0:0:0:0:
256,192,39210,1,0,0:0:0:0:
256,192,39310,1,0,0:0:0:0:
256,192,39410,1,2,0:0:0:0:
256,192,39510,1,0,0:0:0:0:
256,192,39610,1,2,0:0:0:0:
256,192,39710,1,2,0:0:0:0:
256,192,39810,1,0,0:0:0:0:
256,192,39910,1,0,0:0:0:0:
256,192,40010,1,2,0:0:0:0:
256,192,40110,1,0,0:0:0:0:
256,192,40210,1,2,0:0:0:0:
256,192,40310,1,2,0:0:0:0:
256,192,40410,1,0,0:0:0:0:
256,192,40510,1,0,0:0:0:0:
256,192,40610,1,2,0:0:0:0:
256,192,40710,1,0,0:0:0:0:
256,192,40810,1,2,0:0:0:0:
256,192,40910,1,2,0:0:0:0:
256,192,41010,1,0,0:0:0:0:
256,192,41110,1,0,0:0:0:0:
256,192,41210,1,2,0:0:0:0:
256,192,41310,1,0,0:0:0:0:
256,192,41410,1,2,0:0:0:0:
256,192,41510,1,2,0:0:0:0:
256,192,41610,1,0,0:0:0:0:
256,192,41710,1,2,0:0:0:0:
256,192,41810,1,2,0:0:0:0:
256,192,41910,1,0,0:0:0:0:
256,192,42010,1,2,0:0:0:0:
256,192,42110,1,0,0:0:0:0:
256,192,42210,1,2,0:0:0:0:
256,192,42310,1,2,0:0:0:0:
256,192,42410,1,0,0:0:0:0:
256,192,42510,1,0,0:0:0:0:
256,192,42610,1,2,0:0:0:0:
256,192,42710,1,0,0:0:0:0:
256,192,42810,1,2,0:0:0:0:
256,192,42910,1,2,0:0:0:0:
256,192,43010,1,0,0:0:0:0:
256,192,43110,1,0,0:0:0:0:
256,192,43210,1,2,0:0:0:0:
256,192,43310,1,0,0:0:0:0:
256,192,43410,1,2,0:0:0:0:
256,192,43510,1,2,0:0:0:0:
256,192,43610,1,0,0:0:0:0:
256,192,43710,1,0,0:0:0:0:
256,192,43810,1,2,0:0:0:0:
256,192,43910,1,0,0:0:0:0:
256,192,44010,1,2,0:0:0:0:
256,192,44110,1,2,0:0:0:0:
256,192,44210,1,0,0:0:0:0:
256,192,44310,1,0,0:0:0:0:
256,192,44410,1,2,0:0:0:0:
256,192,44510,1,0,0:0:0:0:
256,192,44610,1,2,0:0:0:0:
256,192,44710,1,2,0:0:0:0:
256,192,44810,1,0,0:0:0:0:
256,192,44910,1,2,0:0:0:0:
256,192,45010,1,2,0:0:0:0:
256,192,45110,1,0,0:0:0:0:
256,192,45210,1,2,0:0:0:0:
256,192,45310,1,0,0:0:0:0:
256,192,45410,1,2,0:0:0:0:
256,192,45510,1,2,0:0:0:0:
256,192,45610,1,0,0:0:0:0:
256,192,45710,1,0,0:0:0:0:
256,192,45810,1,2,0:0:0:0:
256,192,45910,1,0,0:0:0:0:
256,192,46010,1,2,0:0:0:0:
256,192,46110,1,2,0:0:0:0:
256,192,46210,1,0,0:0:0:0:
256,192,46310,1,0,0:0:0:0:
256,192,46410,1,2,0:0:0:0:
256,192,46510,1,0,0:0:0:0:
256,192,46610,1,2,0:0:0:0:
256,192,46710,1,2,0:0:0:0:
256,192,46810,1,0,0:0:0:0:
256,192,46910,1,0,0:0:0:0:
256,192,47010,1,2,0:0:0:0:
256,192,47110,1,0,0:0:0:0:
256,192,47210,1,2,0:0:0:0:
256,192,47310,1,2,0:0:0:0:
256,192,47410,1,0,0:0:0:0:
256,192,47510,1,0,0:0:0:0:
256,192,47610,1,2,0:0:0:0:
256,192,47710,1,0,0:0:0:0:
256,192,47810,1,2,0:0:0:0:
256,192,47910,1,2,0:0:0:0:
256,192,48010,1,0,0:0:0:0:
256,192,48110,1,2,0:0:0:0:
256,192,48210,1,2,0:0:0:0:
256,192,48310,1,0,0:0:0:0:
256,192,48410,1,2,0:0:0:0:
256,192,48510,1,0,0:0:0:0:
256,192,48610,1,2,0:0:0:0:
256,192,48710,1,2,0:0:0:0:
256,192,48810,1,0,0:0:0:0:
256,192,48910,1,0,0:0:0:0:
256,192,49010,1,2,0:0:0:0:
256,192,49110,1,0,0:0:0:0:
256,192,49210,1,2,0:0:0:0:
256,192,49310,1,2,0:0:0:0:
256,192,49410,1,0,0:0:0:0:
256,192,49510,1,0,0:0:0:0:
256,192,49610,1,2,0:0:0:0:
256,192,49710,1,0,0:0:0:0:
256,192,49810,1,2,0:0:0:0:
256,192,49910,1,2,0:0:0:0:
256,192,50010,1,0,0:0:0:0:
256,192,50110,1,0,0:0:0:0:
256,192,50210,1,2,0:0:0:0:
256,192,50310,1,0,0:0:0:0:
256,192,50410,1,2,0:0:0:0:
256,192,50510,1,2,0:0:0:0:
256,192,50610,1,0,0:0:0:0:
256,192,50710,1,0,0:0:0:0:
256,192,50810,1,2,0:0:0:0:
256,192,50910,1,0,0:0:0:0:
256,192,51010,1,0,0:0:0:0:
256,192,51110,1,0,0:0:0:0:
256,192,51210,1,2,0:0:0:0:
256,192,51310,1,2,0:0:0:0:
256,192,51410,1,2,0:0:0:0:
256,192,51510,1,2,0:0:0:0:
256,192,51610,1,4,0:0:0:0:
256,192,52610,1,0,0:0:0:0:
256,192,52643,1,0,0:0:0:0:
256,192,52910,1,0,0:0:0:0:
256,192,52943,1,0,0:0:0:0:
256,192,53210,1,2,0:0:0:0:
256,192,53260,1,2,0:0:0:0:
256,192,54010,1,0,0:0:0:0:
256,192,54060,1,0,0:0:0:0:
256,192,54810,1,0,0:0:0:0:
256,192,54843,1,2,0:0:0:0:
256,192,55410,1,2,0:0:0:0:
256,192,55443,1,0,0:0:0:0:
256,192,55610,1,2,0:0:0:0:
256,192,55660,1,0,0:0:0:0:
256,192,56410,1,2,0:0:0:0:
256,192,56460,1,2,0:0:0:0:
256,192,56810,1,2,0:0:0:0:
256,192,56860,1,2,0:0:0:0:
256,192,57210,1,0,0:0:0:0:
256,192,57243,1,0,0:0:0:0:
256,192,57610,1,2,0:0:0:0:
256,192,57660,1,2,0:0:0:0:
256,192,58010,1,0,0:0:0:0:
256,192,58043,1,0,0:0:0:0:
256,192,59010,1,2,0:0:0:0:
256,192,59043,1,0,0:0:0:0:
256,192,59310,1,0,0:0:0:0:
256,192,59343,1,2,0:0:0:0:
256,192,59610,1,2,0:0:0:0:
256,192,59660,1,0,0:0:0:0:
256,192,60410,1,0,0:0:0:0:
256,192,60443,1,0,0:0:0:0:
256,192,60810,1,2,0:0:0:0:
256,192,60843,1,2,0:0:0:0:
256,192,61210,1,2,0:0:0:0:
256,192,61260,1,2,0:0:0:0:
256,192,61810,1,2,0:0:0:0:
256,192,61843,1,0,0:0:0:0:
256,192,62010,1,2,0:0:0:0:
256,192,62043,1,0,0:0:0:0:
256,192,62610,1,0,0:0:0:0:
256,192,62643,1,0,0:0:0:0:
256,192,62810,1,2,0:0:0:0:
256,192,62860,1,2,0:0:0:0:
256,192,63610,1,0,0:0:0:0:
256,192,63660,1,0,0:0:0:0:
256,192,64410,1,2,0:0:0:0:
256,192,64710,1,2,0:0:0:0:
256,192,65010,1,0,0:0:0:0:
256,192,66210,1,2,0:0:0:0:
256,192,66310,1,0,0:0:0:0:
256,192,66410,1,0,0:0:0:0:
256,192,66510,1,2,0:0:0:0:
256,192,66710,1,2,0:0:0:0:
256,192,66910,1,2,0:0:0:0:
256,192,67010,1,0,0:0:0:0:
256,192,67210,1,0,0:0:0:0:
256,192,67410,1,0,0:0:0:0:
256,192,67610,1,2,0:0:0:0:
256,192,67910,1,2,0:0:0:0:
256,192,68210,1,0,0:0:0:0:
256,192,69410,1,0,0:0:0:0:
256,192,69510,1,0,0:0:0:0:
256,192,69610,1,2,0:0:0:0:
256,192,69710,1,2,0:0:0:0:
256,192,69810,1,0,0:0:0:0:
256,192,69910,1,2,0:0:0:0:
256,192,70010,1,2,0:0:0:0:
256,192,70110,1,0,0:0:0:0:
256,192,70210,1,2,0:0:0:0:
256,192,70310,1,0,0:0:0:0:
256,192,70410,1,2,0:0:0:0:
256,192,70510,1,2,0:0:0:0:
256,192,70610,1,0,0:0:0:0:
256,192,70710,1,2,0:0:0:0:
256,192,70810,1,0,0:0:0:0:
256,192,71110,1,0,0:0:0:0:
256,192,71410,1,0,0:0:0:0:
256,192,72610,1,2,0:0:0:0:
256,192,72810,1,2,0:0:0:0:
256,192,72910,1,2,0:0:0:0:
256,192,73110,1,2,0:0:0:0:
256,192,73310,1,2,0:0:0:0:
256,192,73410,1,0,0:0:0:0:
256,192,73610,1,0,0:0:0:0:
256,192,73810,1,0,0:0:0:0:
256,192,74010,1,6,0:0:0:0:
256,192,74310,1,4,0:0:0:0:
256,192,74610,1,6,0:0:0:0:
256,192,75210,1,6,0:0:0:0:
256,192,75610,1,6,0:0:0:0:
256,192,75910,1,6,0:0:0:0:
256,192,76210,1,4,0:0:0:0:
256,192,76410,1,6,0:0:0:0:
256,192,76810,1,4,0:0:0:0:
256,192,77210,2,4,L|400:192,10,140
256,192,78810,12,0,79310,0:0:0:0:
256,192,79410,5,0,0:0:0:0:
256,192,79476,1,2,0:0:0:0:
256,192,79543,1,0,0:0:0:0:
256,192,79610,1,2,0:0:0:0:
256,192,79910,1,2,0:0:0:0:
256,192,80210,1,2,0:0:0:0:
256,192,80410,1,0,0:0:0:0:
256,192,80510,1,2,0:0:0:0:
256,192,80610,1,2,0:0:0:0:
256,192,80710,1,2,0:0:0:0:
256,192,80810,1,0,0:0:0:0:
256,192,80910,1,2,0:0:0:0:
256,192,81010,1,2,0:0:0:0:
256,192,81110,1,0,0:0:0:0:
256,192,81210,1,2,0:0:0:0:
256,192,81310,1,2,0:0:0:0:
256,192,81410,1,2,0:0:0:0:
256,192,81510,1,2,0:0:0:0:
256,192,81610,1,0,0:0:0:0:
256,192,81710,1,2,0:0:0:0:
256,192,81810,1,0,0:0:0:0:
256,192,81910,1,0,0:0:0:0:
256,192,82010,1,2,0:0:0:0:
256,192,82110,1,2,0:0:0:0:
256,192,82210,1,0,0:0:0:0:
256,192,82310,1,0,0:0:0:0:
256,192,82410,1,2,0:0:0:0:
256,192,82510,1,0,0:0:0:0:
256,192,82610,1,0,0:0:0:0:
256,192,82710,1,0,0:0:0:0:
256,192,82810,2,0,L|320:192,4,45.4999979171754
256,192,83610,1,0,0:0:0:0:
256,192,83710,1,0,0:0:0:0:
256,192,83810,1,0,0:0:0:0:
256,192,83910,1,0,0:0:0:0:
256,192,84010,1,2,0:0:0:0:
256,192,84110,1,0,0:0:0:0:
256,192,84210,1,0,0:0:0:0:
256,192,84310,1,0,0:0:0:0:
256,192,84410,1,2,0:0:0:0:
256,192,84510,1,2,0:0:0:0:
256,192,84610,1,0,0:0:0:0:
256,192,84710,1,2,0:0:0:0:
256,192,84810,1,2,0:0:0:0:
256,192,84910,1,2,0:0:0:0:
256,192,85010,1,0,0:0:0:0:
256,192,85110,1,0,0:0:0:0:
256,192,85210,1,2,0:0:0:0:
256,192,85310,1,2,0:0:0:0:
256,192,85410,1,2,0:0:0:0:
256,192,85510,1,0,0:0:0:0:
256,192,85610,1,2,0:0:0:0:
256,192,85710,1,2,0:0:0:0:
256,192,85810,1,2,0:0:0:0:
256,192,85910,1,2,0:0:0:0:
256,192,86010,1,0,0:0:0:0:
256,192,86110,1,0,0:0:0:0:
256,192,86210,1,2,0:0:0:0:
256,192,86310,1,2,0:0:0:0:
256,192,86410,1,2,0:0:0:0:
256,192,86510,1,0,0:0:0:0:
256,192,86610,1,2,0:0:0:0:
256,192,86710,1,0,0:0:0:0:
256,192,86810,1,6,0:0:0:0:
256,192,87110,1,0,0:0:0:0:
256,192,87143,1,2,0:0:0:0:
256,192,87410,1,0,0:0:0:0:
256,192,87460,1,2,0:0:0:0:
256,192,87810,1,0,0:0:0:0:
256,192,87843,1,0,0:0:0:0:
256,192,88010,1,2,0:0:0:0:
256,192,88060,1,2,0:0:0:0:
256,192,88210,1,0,0:0:0:0:
256,192,88243,1,0,0:0:0:0:
256,192,88410,1,2,0:0:0:0:
256,192,88443,1,2,0:0:0:0:
256,192,88710,1,2,0:0:0:0:
256,192,88760,1,0,0:0:0:0:
256,192,89010,1,0,0:0:0:0:
256,192,89043,1,2,0:0:0:0:
256,192,89210,1,0,0:0:0:0:
256,192,89260,1,2,0:0:0:0:
256,192,89610,1,2,0:0:0:0:
256,192,89660,1,2,0:0:0:0:
256,192,90010,1,2,0:0:0:0:
256,192,90110,1,0,0:0:0:0:
256,192,90310,1,0,0:0:0:0:
256,192,90610,1,2,0:0:0:0:
256,192,90710,1,0,0:0:0:0:
256,192,90910,1,0,0:0:0:0:
256,192,91210,1,2,0:0:0:0:
256,192,91310,1,0,0:0:0:0:
256,192,91510,1,0,0:0:0:0:
256,192,91810,1,2,0:0:0:0:
256,192,91910,1,0,0:0:0:0:
256,192,92110,1,0,0:0:0:0:
256,192,92410,1,2,0:0:0:0:
256,192,92510,1,0,0:0:0:0:
256,192,92610,1,2,0:0:0:0:
256,192,92710,1,0,0:0:0:0:
256,192,92810,1,2,0:0:0:0:
256,192,92910,1,0,0:0:0:0:
256,192,93010,1,2,0:0:0:0:
256,192,93110,1,0,0:0:0:0:
256,192,93210,1,0,0:0:0:0:
256,192,93310,1,2,0:0:0:0:
256,192,93510,1,2,0:0:0:0:
256,192,93810,1,0,0:0:0:0:
256,192,93910,1,2,0:0:0:0:
256,192,94110,1,2,0:0:0:0:
256,192,94410,1,0,0:0:0:0:
256,192,94510,1,2,0:0:0:0:
256,192,94710,1,2,0:0:0:0:
256,192,95010,1,0,0:0:0:0:
256,192,95110,1,2,0:0:0:0:
256,192,95310,1,2,0:0:0:0:
256,192,95610,1,2,0:0:0:0:
256,192,95810,1,2,0:0:0:0:
256,192,96010,1,0,0:0:0:0:
256,192,96210,1,0,0:0:0:0:
256,192,96410,1,6,0:0:0:0:
256,192,96510,1,6,0:0:0:0:
256,192,96710,1,4,0:0:0:0:
256,192,97010,1,6,0:0:0:0:
256,192,97110,1,6,0:0:0:0:
256,192,97310,1,4,0:0:0:0:
256,192,97610,1,6,0:0:0:0:
256,192,97710,1,6,0:0:0:0:
256,192,97910,1,4,0:0:0:0:
256,192,98210,1,6,0:0:0:0:
256,192,98310,1,6,0:0:0:0:
256,192,98510,1,4,0:0:0:0:
256,192,98810,1,6,0:0:0:0:
256,192,99010,1,6,0:0:0:0:
256,192,99210,1,6,0:0:0:0:
256,192,99410,1,4,0:0:0:0:
256,192,99610,1,0,0:0:0:0:
256,192,99660,1,2,0:0:0:0:
256,192,99710,1,0,0:0:0:0:
256,192,99760,1,0,0:0:0:0:
256,192,99810,1,2,0:0:0:0:
256,192,99876,1,0,0:0:0:0:
256,192,99943,1,0,0:0:0:0:
256,192,100010,1,6,0:0:0:0:
256,192,100210,1,0,0:0:0:0:
256,192,100260,1,0,0:0:0:0:
256,192,100310,1,2,0:0:0:0:
256,192,100360,1,0,0:0:0:0:
256,192,100410,1,2,0:0:0:0:
256,192,100476,1,0,0:0:0:0:
256,192,100543,1,0,0:0:0:0:
256,192,100610,1,6,0:0:0:0:
256,192,100810,1,0,0:0:0:0:
256,192,100860,1,2,0:0:0:0:
256,192,100910,1,0,0:0:0:0:
256,192,100960,1,0,0:0:0:0:
256,192,101010,1,2,0:0:0:0:
256,192,101076,1,0,0:0:0:0:
256,192,101143,1,0,0:0:0:0:
256,192,101210,1,6,0:0:0:0:
256,192,101410,1,0,0:0:0:0:
256,192,101460,1,0,0:0:0:0:
256,192,101510,1,2,0:0:0:0:
256,192,101560,1,0,0:0:0:0:
256,192,101610,1,2,0:0:0:0:
256,192,101643,1,0,0:0:0:0:
256,192,101676,1,0,0:0:0:0:
256,192,101710,1,2,0:0:0:0:
256,192,101743,1,0,0:0:0:0:
256,192,101776,1,0,0:0:0:0:
256,192,101810,1,2,0:0:0:0:
256,192,102010,1,0,0:0:0:0:
256,192,102076,1,2,0:0:0:0:
256,192,102143,1,0,0:0:0:0:
256,192,102210,1,2,0:0:0:0:
256,192,102260,1,2,0:0:0:0:
256,192,102310,1,2,0:0:0:0:
256,192,102360,1,0,0:0:0:0:
256,192,102410,1,0,0:0:0:0:
256,192,102476,1,2,0:0:0:0:
256,192,102543,1,0,0:0:0:0:
256,192,102610,1,2,0:0:0:0:
256,192,102643,1,2,0:0:0:0:
256,192,102676,1,2,0:0:0:0:
256,192,102710,1,0,0:0:0:0:
256,192,102760,1,0,0:0:0:0:
256,192,102810,1,2,0:0:0:0:
256,192,102843,1,2,0:0:0:0:
256,192,102876,1,2,0:0:0:0:
256,192,102910,1,0,0:0:0:0:
256,192,102960,1,0,0:0:0:0:
256,192,103210,1,0,0:0:0:0:
256,192,103460,12,0,106010,0:0:0:0:
256,192,103510,12,0,106010,0:0:0:0:
256,192,103560,12,0,106010,0:0:0:0:
256,192,103610,12,0,106010,0:0:0:0:
256,192,103660,12,0,106010,0:0:0:0:
256,192,103710,12,0,106010,0:0:0:0:
256,192,103760,12,0,106010,0:0:0:0:
256,192,103810,12,0,106010,0:0:0:0:
256,192,103860,12,0,106010,0:0:0:0:
256,192,103910,12,0,106010,0:0:0:0:
256,192,103960,12,0,106010,0:0:0:0:
256,192,104010,12,0,106010,0:0:0:0:
256,192,104060,12,0,106010,0:0:0:0:
256,192,104110,12,0,106010,0:0:0:0:
256,192,104160,12,0,106010,0:0:0:0:
256,192,104210,12,0,106010,0:0:0:0:
256,192,104260,12,0,106010,0:0:0:0:
256,192,104310,12,0,106010,0:0:0:0:
256,192,104360,12,0,106010,0:0:0:0:
256,192,104410,12,0,106010,0:0:0:0:
256,192,104460,12,0,106010,0:0:0:0:
256,192,104510,12,0,106010,0:0:0:0:
256,192,104560,12,0,106010,0:0:0:0:
256,192,104610,12,0,106010,0:0:0:0:
256,192,104660,12,0,106010,0:0:0:0:
256,192,104710,12,0,106010,0:0:0:0:
256,192,104760,12,0,106010,0:0:0:0:
256,192,104810,12,0,106010,0:0:0:0:
256,192,104860,12,0,106010,0:0:0:0:
256,192,104910,12,0,106010,0:0:0:0:
256,192,104960,12,0,106010,0:0:0:0:
256,192,105010,12,0,106010,0:0:0:0:
256,192,105060,12,0,106010,0:0:0:0:
256,192,105110,12,0,106010,0:0:0:0:
256,192,105160,12,0,106010,0:0:0:0:
256,192,105210,12,0,106010,0:0:0:0:
256,192,105260,12,0,106010,0:0:0:0:
256,192,105310,12,0,106010,0:0:0:0:
256,192,105360,12,0,106010,0:0:0:0:
256,192,105410,12,0,106010,0:0:0:0:
256,192,105460,12,0,106010,0:0:0:0:
256,192,105510,12,0,106010,0:0:0:0:
256,192,105560,12,0,106010,0:0:0:0:
256,192,105610,12,0,106010,0:0:0:0:
256,192,105660,12,0,106010,0:0:0:0:
256,192,105710,12,0,106010,0:0:0:0:
256,192,105760,12,0,106010,0:0:0:0:
256,192,105810,12,0,106010,0:0:0:0:
256,192,105860,12,0,106010,0:0:0:0:
256,192,105910,12,0,106010,0:0:0:0:
256,192,105960,12,0,106010,0:0:0:0:
