osu file format v14

[General]
AudioFilename: audio.mp3
AudioLeadIn: 0
PreviewTime: 47530
Countdown: 0
SampleSet: None
StackLeniency: 0.7
Mode: 1
LetterboxInBreaks: 0
WidescreenStoryboard: 0

[Editor]
DistanceSpacing: 1.4
BeatDivisor: 4
GridSize: 16
TimelineZoom: 2.799999

[Metadata]
Title:Matryoshka
TitleUnicode:Matryoshka
Artist:OzzyOzrock
ArtistUnicode:OzzyOzrock
Creator:Catgirl
Version:Inner Ozzy
Source:
Tags:
BeatmapID:1606937
BeatmapSetID:764173

[Difficulty]
HPDrainRate:6
CircleSize:4
OverallDifficulty:6
ApproachRate:5
SliderMultiplier:1.3999999666214
SliderTickRate:1

[Events]
//Background and Video events
0,0,"matryozzy.jpg",0,36
//Break Periods
//Storyboard Layer 0 (Background)
//Storyboard Layer 1 (Fail)
//Storyboard Layer 2 (Pass)
//Storyboard Layer 3 (Foreground)
//Storyboard Sound Samples

[TimingPoints]
1213,292.682926829268,4,2,0,100,1,0
4725,-83.3333333333333,4,2,0,100,0,1
4871,-83.3333333333333,4,2,0,100,0,0
5017,-83.3333333333333,4,2,0,100,0,1
5164,-83.3333333333333,4,2,0,100,0,0
5310,-83.3333333333333,4,2,0,100,0,1
5456,-83.3333333333333,4,2,0,100,0,0
5603,-83.3333333333333,4,2,0,100,0,1
5749,-83.3333333333333,4,2,0,100,0,0
6042,-100,4,2,0,100,0,0
15261,-83.3333333333333,4,2,0,100,0,1
24627,-83.3333333333333,4,2,0,100,0,0
24773,-100,4,2,0,100,0,0
47603,-95.2380952380952,4,2,0,100,0,0
47749,-90.9090909090909,4,2,0,100,0,0
47895,-86.9565217391304,4,2,0,100,0,0
48042,-83.3333333333333,4,2,0,100,0,1
66773,-100,4,2,0,100,0,0
93700,-66.6666666666667,4,2,0,100,0,1
93847,-100,4,2,0,100,0,0
93993,-33.3333333333333,4,2,0,100,0,1
94139,-100,4,2,0,100,0,0
94286,-66.6666666666667,4,2,0,100,0,1
94432,-100,4,2,0,100,0,0
94578,-33.3333333333333,4,2,0,100,0,1
94725,-100,4,2,0,100,0,0
103798,-95.2380952380952,4,2,0,100,0,0
103944,-90.9090909090909,4,2,0,100,0,0
104091,-86.9565217391304,4,2,0,100,0,0
104237,-83.3333333333333,4,2,0,100,0,1
105993,-83.3333333333333,4,2,0,100,0,0
106578,-83.3333333333333,4,2,0,100,0,1
122969,-100,4,2,0,100,0,0
125237,-25,4,2,0,100,0,1
125749,-100,4,2,0,100,0,0
138554,-33.3333333333333,4,2,0,100,0,1
138920,-100,4,2,0,100,0,0
140530,-66.6666666666667,4,2,0,100,0,1
140676,-83.3333333333333,4,2,0,100,0,0
140822,-33.3333333333333,4,2,0,100,0,1
140969,-83.3333333333333,4,2,0,100,0,0
141115,-66.6666666666667,4,2,0,100,0,1
141261,-83.3333333333333,4,2,0,100,0,0
141408,-33.3333333333333,4,2,0,100,0,1
141554,-83.3333333333333,4,2,0,100,0,0
141993,-66.6666666666667,4,2,0,100,0,1
142286,-66.6666666666667,4,2,0,100,0,0
142578,-50,4,2,0,100,0,1
142871,-50,4,2,0,100,0,0
143164,-100,4,2,0,100,0,0
144334,-50,4,2,0,100,0,1
144627,-50,4,2,0,100,0,0
144920,-40,4,2,0,100,0,1
145212,-40,4,2,0,100,0,0
145505,-100,4,2,0,100,0,0
146676,-28.5714285714286,4,2,0,100,0,1
146969,-28.5714285714286,4,2,0,100,0,0
147261,-25,4,2,0,100,0,1
147554,-25,4,2,0,100,0,0
147847,-100,4,2,0,100,0,0
149895,-90.9090909090909,4,2,0,100,0,0
149993,-83.3333333333333,4,2,0,100,0,0
150091,-76.9230769230769,4,2,0,100,0,0
150188,-71.4285714285714,4,2,0,100,0,0
150286,-66.6666666666667,4,2,0,100,0,0
150383,-62.5,4,2,0,100,0,0
150481,-58.8235294117647,4,2,0,100,0,0
150627,235.294117647059,4,2,0,100,1,0
150744,196.72131147541,4,2,0,100,1,0
150842,169.014084507042,4,2,0,100,1,0
150926,148.148148148148,4,2,0,100,1,0
151000,131.868131868132,4,2,0,100,1,0
151065,118.811881188119,4,2,0,100,1,0
151124,108.108108108108,4,2,0,100,1,0
151178,99.1735537190083,4,2,0,100,1,0
151227,91.6030534351145,4,2,0,100,1,0
151272,85.1063829787234,4,2,0,100,1,0
151314,79.4701986754967,4,2,0,100,1,0
151353,74.5341614906832,4,2,0,100,1,0
151390,70.1754385964912,4,2,0,100,1,0
151425,66.2983425414365,4,2,0,100,1,0
151458,62.82722513089,4,2,0,100,1,0
151489,59.7014925373134,4,2,0,100,1,0
151518,56.8720379146919,4,2,0,100,1,0
151546,54.2986425339367,4,2,0,100,1,0
151573,51.9480519480519,4,2,0,100,1,0
151598,54.2986425339367,4,2,0,100,1,0
151625,56.8720379146919,4,2,0,100,1,0
151653,59.7014925373134,4,2,0,100,1,0
151682,62.82722513089,4,2,0,100,1,0
151713,66.2983425414365,4,2,0,100,1,0
151746,70.1754385964912,4,2,0,100,1,0
151781,74.5341614906832,4,2,0,100,1,0
151818,79.4701986754967,4,2,0,100,1,0
151857,85.1063829787234,4,2,0,100,1,0
151899,91.6030534351145,4,2,0,100,1,0
151944,99.1735537190083,4,2,0,100,1,0
151993,108.108108108108,4,2,0,100,1,0
152047,118.811881188119,4,2,0,100,1,0
152106,131.868131868132,4,2,0,100,1,0
152171,148.148148148148,4,2,0,100,1,0
152245,169.014084507042,4,2,0,100,1,0
152329,196.72131147541,4,2,0,100,1,0
152427,235.294117647059,4,2,0,100,1,0
152530,292.682926829268,4,2,0,100,1,1
152530,-40,4,2,0,100,0,1
152676,-40,4,2,0,100,0,0
152822,-33.3333333333333,4,2,0,100,0,1
152969,-33.3333333333333,4,2,0,100,0,0
153115,-28.5714285714286,4,2,0,100,0,1
153261,-28.5714285714286,4,2,0,100,0,0
153408,292.682926829268,4,2,0,100,1,1
153408,-25,4,2,0,100,0,1
153554,-100,4,2,0,100,0,0
162773,-83.3333333333333,4,2,0,100,0,1
172139,-100,4,2,0,100,0,0
181505,285.714285714286,4,2,0,100,1,0
186076,260.869565217391,4,2,0,100,1,0
188162,255.31914893617,4,2,0,100,1,0
189183,240,4,2,0,100,1,0
190143,235.294117647059,4,2,0,100,1,1
190143,-66.6666666666667,4,2,0,100,0,1
192025,226.415094339623,4,2,0,100,1,1
192025,-66.6666666666667,4,2,0,100,0,1
193836,214.285714285714,4,2,0,100,1,1
193836,-50,4,2,0,100,0,1
194693,-40,4,2,0,100,0,1
195550,-33.3333333333333,4,2,0,100,0,1
196407,-28.5714285714286,4,2,0,100,0,1
197050,-25,4,2,0,100,0,1
197264,-25,4,2,0,100,0,0

[HitObjects]
256,192,1213,5,2,0:0:0:0:
256,192,1652,1,2,0:0:0:0:
256,192,1798,1,2,0:0:0:0:
256,192,2237,1,2,0:0:0:0:
256,192,2530,1,2,0:0:0:0:
256,192,2822,1,2,0:0:0:0:
256,192,2969,1,2,0:0:0:0:
256,192,3261,1,2,0:0:0:0:
256,192,3554,1,2,0:0:0:0:
256,192,3993,1,2,0:0:0:0:
256,192,4139,1,2,0:0:0:0:
256,192,4578,1,2,0:0:0:0:
256,192,4725,1,4,0:0:0:0:
256,192,5017,1,4,0:0:0:0:
256,192,5310,1,4,0:0:0:0:
256,192,5603,1,4,0:0:0:0:
256,192,5895,1,6,0:0:0:0:
256,192,6042,1,2,0:0:0:0:
256,192,6115,1,2,0:0:0:0:
256,192,6188,1,0,0:0:0:0:
256,192,6334,1,0,0:0:0:0:
256,192,6481,1,0,0:0:0:0:
256,192,6627,1,2,0:0:0:0:
256,192,6920,1,2,0:0:0:0:
256,192,7066,1,0,0:0:0:0:
256,192,7212,1,0,0:0:0:0:
256,192,7286,1,0,0:0:0:0:
256,192,7359,1,0,0:0:0:0:
256,192,7505,1,0,0:0:0:0:
256,192,7652,1,2,0:0:0:0:
256,192,7944,1,2,0:0:0:0:
256,192,8091,1,2,0:0:0:0:
256,192,8237,1,0,0:0:0:0:
256,192,8530,1,2,0:0:0:0:
256,192,8603,1,2,0:0:0:0:
256,192,8676,1,2,0:0:0:0:
256,192,8822,1,0,0:0:0:0:
256,192,8969,1,0,0:0:0:0:
256,192,9261,1,2,0:0:0:0:
256,192,9408,1,0,0:0:0:0:
256,192,9554,1,0,0:0:0:0:
256,192,9627,1,0,0:0:0:0:
256,192,9700,1,0,0:0:0:0:
256,192,9847,1,0,0:0:0:0:
256,192,9993,1,2,0:0:0:0:
256,192,10139,1,2,0:0:0:0:
256,192,10212,1,2,0:0:0:0:
256,192,10286,1,0,0:0:0:0:
256,192,10432,1,0,0:0:0:0:
256,192,10578,1,2,0:0:0:0:
256,192,10871,1,2,0:0:0:0:
256,192,11017,1,2,0:0:0:0:
256,192,11091,1,2,0:0:0:0:
256,192,11164,1,0,0:0:0:0:
256,192,11310,1,0,0:0:0:0:
256,192,11603,1,2,0:0:0:0:
256,192,11749,1,0,0:0:0:0:
256,192,11895,1,0,0:0:0:0:
256,192,11969,1,0,0:0:0:0:
256,192,12042,1,2,0:0:0:0:
256,192,12188,1,0,0:0:0:0:
256,192,12334,1,2,0:0:0:0:
256,192,12627,1,2,0:0:0:0:
256,192,12700,1,2,0:0:0:0:
256,192,12773,1,2,0:0:0:0:
256,192,12920,1,0,0:0:0:0:
256,192,13212,1,2,0:0:0:0:
256,192,13286,1,2,0:0:0:0:
256,192,13359,1,2,0:0:0:0:
256,192,13505,1,0,0:0:0:0:
256,192,13652,1,0,0:0:0:0:
256,192,13871,1,2,0:0:0:0:
256,192,13944,1,0,0:0:0:0:
256,192,14091,1,0,0:0:0:0:
256,192,14237,1,2,0:0:0:0:
256,192,14310,1,2,0:0:0:0:
256,192,14383,1,0,0:0:0:0:
256,192,14530,1,0,0:0:0:0:
256,192,14676,1,0,0:0:0:0:
256,192,14822,1,2,0:0:0:0:
256,192,14895,1,2,0:0:0:0:
256,192,14969,1,2,0:0:0:0:
256,192,15115,1,2,0:0:0:0:
256,192,15261,1,0,0:0:0:0:
256,192,15408,1,0,0:0:0:0:
256,192,15481,1,0,0:0:0:0:
256,192,15554,1,0,0:0:0:0:
256,192,15700,1,0,0:0:0:0:
256,192,15847,1,2,0:0:0:0:
256,192,15993,1,0,0:0:0:0:
256,192,16066,1,0,0:0:0:0:
256,192,16139,1,0,0:0:0:0:
256,192,16286,1,0,0:0:0:0:
256,192,16432,1,2,0:0:0:0:
256,192,16725,1,2,0:0:0:0:
256,192,16798,1,0,0:0:0:0:
256,192,16871,1,2,0:0:0:0:
256,192,17017,1,2,0:0:0:0:
256,192,17310,1,0,0:0:0:0:
256,192,17456,1,2,0:0:0:0:
256,192,17530,1,2,0:0:0:0:
256,192,17603,1,0,0:0:0:0:
256,192,17749,1,2,0:0:0:0:
256,192,17822,1,2,0:0:0:0:
256,192,17895,1,0,0:0:0:0:
256,192,18042,1,0,0:0:0:0:
256,192,18188,1,0,0:0:0:0:
256,192,18261,1,0,0:0:0:0:
256,192,18334,1,0,0:0:0:0:
256,192,18481,1,2,0:0:0:0:
256,192,18627,1,0,0:0:0:0:
256,192,18773,1,2,0:0:0:0:
256,192,18847,1,2,0:0:0:0:
256,192,18920,1,2,0:0:0:0:
256,192,19066,1,0,0:0:0:0:
256,192,19212,1,0,0:0:0:0:
256,192,19359,1,2,0:0:0:0:
256,192,19505,1,0,0:0:0:0:
256,192,19578,1,0,0:0:0:0:
256,192,19652,1,2,0:0:0:0:
256,192,19798,1,2,0:0:0:0:
256,192,19944,1,0,0:0:0:0:
256,192,20091,1,0,0:0:0:0:
256,192,20164,1,0,0:0:0:0:
256,192,20237,1,0,0:0:0:0:
256,192,20383,1,0,0:0:0:0:
256,192,20530,1,2,0:0:0:0:
256,192,20603,1,2,0:0:0:0:
256,192,20676,1,0,0:0:0:0:
256,192,20822,1,0,0:0:0:0:
256,192,20969,1,0,0:0:0:0:
256,192,21115,1,2,0:0:0:0:
256,192,21188,1,0,0:0:0:0:
256,192,21261,1,2,0:0:0:0:
256,192,21408,1,2,0:0:0:0:
256,192,21481,1,0,0:0:0:0:
256,192,21554,1,2,0:0:0:0:
256,192,21700,1,0,0:0:0:0:
256,192,21993,1,0,0:0:0:0:
256,192,22066,1,0,0:0:0:0:
256,192,22139,1,0,0:0:0:0:
256,192,22432,1,0,0:0:0:0:
256,192,22578,1,2,0:0:0:0:
256,192,22725,1,2,0:0:0:0:
256,192,22798,1,2,0:0:0:0:
256,192,22871,1,2,0:0:0:0:
256,192,23017,1,2,0:0:0:0:
256,192,23310,1,2,0:0:0:0:
256,192,23456,1,0,0:0:0:0:
256,192,23749,1,0,0:0:0:0:
256,192,23895,1,0,0:0:0:0:
256,192,24042,1,0,0:0:0:0:
256,192,24115,1,0,0:0:0:0:
256,192,24188,1,0,0:0:0:0:
256,192,24261,1,0,0:0:0:0:
256,192,24334,1,0,0:0:0:0:
256,192,24481,1,2,0:0:0:0:
256,192,24627,1,2,0:0:0:0:
256,192,24773,1,2,0:0:0:0:
256,192,24847,1,2,0:0:0:0:
256,192,24920,1,0,0:0:0:0:
256,192,25066,1,0,0:0:0:0:
256,192,25212,1,0,0:0:0:0:
256,192,25359,1,2,0:0:0:0:
256,192,25432,1,0,0:0:0:0:
256,192,25505,1,2,0:0:0:0:
256,192,25578,1,0,0:0:0:0:
256,192,25652,1,0,0:0:0:0:
256,192,25798,1,2,0:0:0:0:
256,192,25944,1,0,0:0:0:0:
256,192,26017,1,0,0:0:0:0:
256,192,26091,1,2,0:0:0:0:
256,192,26237,1,0,0:0:0:0:
256,192,26383,1,2,0:0:0:0:
256,192,26530,1,2,0:0:0:0:
256,192,26603,1,2,0:0:0:0:
256,192,26676,1,0,0:0:0:0:
256,192,26822,1,0,0:0:0:0:
256,192,26969,1,0,0:0:0:0:
256,192,27042,1,0,0:0:0:0:
256,192,27115,1,0,0:0:0:0:
256,192,27188,1,0,0:0:0:0:
256,192,27261,1,2,0:0:0:0:
256,192,27408,1,0,0:0:0:0:
256,192,27481,1,0,0:0:0:0:
256,192,27554,1,0,0:0:0:0:
256,192,27700,1,0,0:0:0:0:
256,192,27847,1,2,0:0:0:0:
256,192,27993,1,0,0:0:0:0:
256,192,28066,1,0,0:0:0:0:
256,192,28139,1,0,0:0:0:0:
256,192,28286,1,0,0:0:0:0:
256,192,28359,1,0,0:0:0:0:
256,192,28432,1,2,0:0:0:0:
256,192,28578,1,2,0:0:0:0:
256,192,28725,1,0,0:0:0:0:
256,192,28871,1,2,0:0:0:0:
256,192,28944,1,2,0:0:0:0:
256,192,29017,1,2,0:0:0:0:
256,192,29164,1,2,0:0:0:0:
256,192,29310,1,0,0:0:0:0:
256,192,29456,1,0,0:0:0:0:
256,192,29603,1,2,0:0:0:0:
256,192,29749,1,2,0:0:0:0:
256,192,29822,1,2,0:0:0:0:
256,192,29895,1,0,0:0:0:0:
256,192,30042,1,0,0:0:0:0:
256,192,30188,1,2,0:0:0:0:
256,192,30334,1,0,0:0:0:0:
256,192,30408,1,0,0:0:0:0:
256,192,30481,1,2,0:0:0:0:
256,192,30627,1,0,0:0:0:0:
256,192,30773,1,2,0:0:0:0:
256,192,30920,1,2,0:0:0:0:
256,192,30993,1,2,0:0:0:0:
256,192,31066,1,2,0:0:0:0:
256,192,31359,1,2,0:0:0:0:
256,192,31505,1,0,0:0:0:0:
256,192,31798,1,0,0:0:0:0:
256,192,31944,1,2,0:0:0:0:
256,192,32091,1,0,0:0:0:0:
256,192,32164,1,0,0:0:0:0:
256,192,32237,1,2,0:0:0:0:
256,192,32383,1,0,0:0:0:0:
256,192,32456,1,0,0:0:0:0:
256,192,32530,1,0,0:0:0:0:
256,192,32676,1,0,0:0:0:0:
256,192,32822,1,2,0:0:0:0:
256,192,32969,1,0,0:0:0:0:
256,192,33042,1,0,0:0:0:0:
256,192,33115,1,0,0:0:0:0:
256,192,33261,1,0,0:0:0:0:
256,192,33408,1,2,0:0:0:0:
256,192,33554,1,2,0:0:0:0:
256,192,33627,1,2,0:0:0:0:
256,192,33700,1,2,0:0:0:0:
256,192,33847,1,2,0:0:0:0:
256,192,33993,1,0,0:0:0:0:
256,192,34139,1,0,0:0:0:0:
256,192,34212,1,0,0:0:0:0:
256,192,34286,1,0,0:0:0:0:
256,192,34432,1,0,0:0:0:0:
256,192,34578,1,2,0:0:0:0:
256,192,34725,1,2,0:0:0:0:
256,192,34798,1,2,0:0:0:0:
256,192,34871,1,0,0:0:0:0:
256,192,35017,1,0,0:0:0:0:
256,192,35164,1,2,0:0:0:0:
256,192,35310,1,0,0:0:0:0:
256,192,35456,1,0,0:0:0:0:
256,192,35603,1,0,0:0:0:0:
256,192,35676,1,0,0:0:0:0:
256,192,35749,1,0,0:0:0:0:
256,192,36042,1,2,0:0:0:0:
256,192,36115,1,0,0:0:0:0:
256,192,36188,1,2,0:0:0:0:
256,192,36481,1,0,0:0:0:0:
256,192,36554,1,0,0:0:0:0:
256,192,36627,1,0,0:0:0:0:
256,192,36773,1,0,0:0:0:0:
256,192,36920,1,2,0:0:0:0:
256,192,37066,1,2,0:0:0:0:
256,192,37212,1,2,0:0:0:0:
256,192,37359,1,2,0:0:0:0:
256,192,37432,1,2,0:0:0:0:
256,192,37505,1,0,0:0:0:0:
256,192,37652,1,0,0:0:0:0:
256,192,37725,1,0,0:0:0:0:
256,192,37798,1,2,0:0:0:0:
256,192,37944,1,0,0:0:0:0:
256,192,38091,1,0,0:0:0:0:
256,192,38164,1,0,0:0:0:0:
256,192,38237,1,0,0:0:0:0:
256,192,38310,1,0,0:0:0:0:
256,192,38383,1,0,0:0:0:0:
256,192,38676,1,4,0:0:0:0:
256,192,38969,1,2,0:0:0:0:
256,192,39115,1,0,0:0:0:0:
256,192,39408,1,0,0:0:0:0:
256,192,39554,1,2,0:0:0:0:
256,192,39700,1,0,0:0:0:0:
256,192,39847,1,0,0:0:0:0:
256,192,40139,1,0,0:0:0:0:
256,192,40286,1,0,0:0:0:0:
256,192,40432,1,0,0:0:0:0:
256,192,40725,1,2,0:0:0:0:
256,192,40871,1,0,0:0:0:0:
256,192,41164,1,0,0:0:0:0:
256,192,41310,1,2,0:0:0:0:
256,192,41456,1,0,0:0:0:0:
256,192,41603,1,2,0:0:0:0:
256,192,41895,1,2,0:0:0:0:
256,192,42042,1,2,0:0:0:0:
256,192,42334,1,0,0:0:0:0:
256,192,42481,1,2,0:0:0:0:
256,192,42627,1,2,0:0:0:0:
256,192,42773,1,2,0:0:0:0:
256,192,43066,1,2,0:0:0:0:
256,192,43359,1,0,0:0:0:0:
256,192,43652,1,2,0:0:0:0:
256,192,43798,1,0,0:0:0:0:
256,192,44091,1,0,0:0:0:0:
256,192,44237,1,2,0:0:0:0:
256,192,44383,1,0,0:0:0:0:
256,192,44530,1,0,0:0:0:0:
256,192,44822,1,0,0:0:0:0:
256,192,44969,1,0,0:0:0:0:
256,192,45115,1,0,0:0:0:0:
256,192,45408,1,2,0:0:0:0:
256,192,45700,1,0,0:0:0:0:
256,192,45993,1,0,0:0:0:0:
256,192,46286,1,0,0:0:0:0:
256,192,46578,1,0,0:0:0:0:
256,192,46871,1,6,0:0:0:0:
256,192,47164,1,6,0:0:0:0:
256,192,47456,1,6,0:0:0:0:
256,192,47603,1,0,0:0:0:0:
256,192,47749,1,2,0:0:0:0:
256,192,47895,1,2,0:0:0:0:
256,192,48042,1,2,0:0:0:0:
256,192,48115,1,2,0:0:0:0:
256,192,48188,1,0,0:0:0:0:
256,192,48334,1,0,0:0:0:0:
256,192,48481,1,0,0:0:0:0:
256,192,48554,1,0,0:0:0:0:
256,192,48627,1,2,0:0:0:0:
256,192,48773,1,0,0:0:0:0:
256,192,48920,1,0,0:0:0:0:
256,192,49066,1,2,0:0:0:0:
256,192,49139,1,0,0:0:0:0:
256,192,49212,1,2,0:0:0:0:
256,192,49359,1,2,0:0:0:0:
256,192,49432,1,0,0:0:0:0:
256,192,49505,1,2,0:0:0:0:
256,192,49652,1,0,0:0:0:0:
256,192,49798,1,2,0:0:0:0:
256,192,49871,1,0,0:0:0:0:
256,192,49944,1,2,0:0:0:0:
256,192,50017,1,0,0:0:0:0:
256,192,50091,1,2,0:0:0:0:
256,192,50237,1,0,0:0:0:0:
256,192,50383,1,2,0:0:0:0:
256,192,50456,1,2,0:0:0:0:
256,192,50530,1,2,0:0:0:0:
256,192,50676,1,0,0:0:0:0:
256,192,50822,1,0,0:0:0:0:
256,192,50969,1,2,0:0:0:0:
256,192,51042,1,2,0:0:0:0:
256,192,51115,1,2,0:0:0:0:
256,192,51261,1,0,0:0:0:0:
256,192,51408,1,0,0:0:0:0:
256,192,51554,1,2,0:0:0:0:
256,192,51627,1,2,0:0:0:0:
256,192,51700,1,0,0:0:0:0:
256,192,51847,1,2,0:0:0:0:
256,192,51920,1,2,0:0:0:0:
256,192,51993,1,0,0:0:0:0:
256,192,52139,1,2,0:0:0:0:
256,192,52212,1,2,0:0:0:0:
256,192,52286,1,0,0:0:0:0:
256,192,52359,1,0,0:0:0:0:
256,192,52432,1,2,0:0:0:0:
256,192,52578,1,2,0:0:0:0:
256,192,52725,1,2,0:0:0:0:
256,192,52798,1,2,0:0:0:0:
256,192,52871,1,0,0:0:0:0:
256,192,53017,1,0,0:0:0:0:
256,192,53164,1,2,0:0:0:0:
256,192,53237,1,2,0:0:0:0:
256,192,53310,1,2,0:0:0:0:
256,192,53456,1,0,0:0:0:0:
256,192,53530,1,0,0:0:0:0:
256,192,53603,1,0,0:0:0:0:
256,192,53749,1,0,0:0:0:0:
256,192,53895,1,2,0:0:0:0:
256,192,53969,1,2,0:0:0:0:
256,192,54042,1,0,0:0:0:0:
256,192,54188,1,2,0:0:0:0:
256,192,54261,1,2,0:0:0:0:
256,192,54334,1,0,0:0:0:0:
256,192,54481,1,2,0:0:0:0:
256,192,54554,1,2,0:0:0:0:
256,192,54627,1,0,0:0:0:0:
256,192,54700,1,0,0:0:0:0:
256,192,54773,1,2,0:0:0:0:
256,192,54920,1,2,0:0:0:0:
256,192,55066,1,0,0:0:0:0:
256,192,55359,1,0,0:0:0:0:
256,192,55505,1,0,0:0:0:0:
256,192,55798,1,0,0:0:0:0:
256,192,55944,1,2,0:0:0:0:
256,192,56091,1,2,0:0:0:0:
256,192,56237,1,0,0:0:0:0:
256,192,56310,1,0,0:0:0:0:
256,192,56383,1,0,0:0:0:0:
256,192,56530,1,2,0:0:0:0:
256,192,56676,1,2,0:0:0:0:
256,192,56822,1,0,0:0:0:0:
256,192,56895,1,0,0:0:0:0:
256,192,56969,1,0,0:0:0:0:
256,192,57042,1,0,0:0:0:0:
256,192,57115,1,2,0:0:0:0:
256,192,57261,1,0,0:0:0:0:
256,192,57408,1,2,0:0:0:0:
256,192,57481,1,2,0:0:0:0:
256,192,57554,1,0,0:0:0:0:
256,192,57700,1,0,0:0:0:0:
256,192,57847,1,0,0:0:0:0:
256,192,57920,1,0,0:0:0:0:
256,192,57993,1,0,0:0:0:0:
256,192,58139,1,0,0:0:0:0:
256,192,58286,1,2,0:0:0:0:
256,192,58432,1,2,0:0:0:0:
256,192,58505,1,0,0:0:0:0:
256,192,58578,1,0,0:0:0:0:
256,192,58725,1,2,0:0:0:0:
256,192,58798,1,0,0:0:0:0:
256,192,58871,1,0,0:0:0:0:
256,192,59017,1,0,0:0:0:0:
256,192,59164,1,2,0:0:0:0:
256,192,59237,1,0,0:0:0:0:
256,192,59310,1,0,0:0:0:0:
256,192,59383,1,0,0:0:0:0:
256,192,59456,1,2,0:0:0:0:
256,192,59603,1,0,0:0:0:0:
256,192,59749,1,0,0:0:0:0:
256,192,59822,1,0,0:0:0:0:
256,192,59895,1,2,0:0:0:0:
256,192,59969,1,0,0:0:0:0:
256,192,60042,1,2,0:0:0:0:
256,192,60188,1,0,0:0:0:0:
256,192,60334,1,2,0:0:0:0:
256,192,60408,1,2,0:0:0:0:
256,192,60481,1,2,0:0:0:0:
256,192,60554,1,0,0:0:0:0:
256,192,60627,1,2,0:0:0:0:
256,192,60773,1,0,0:0:0:0:
256,192,60920,1,2,0:0:0:0:
256,192,60993,1,0,0:0:0:0:
256,192,61066,1,2,0:0:0:0:
256,192,61212,1,2,0:0:0:0:
256,192,61286,1,0,0:0:0:0:
256,192,61359,1,2,0:0:0:0:
256,192,61505,1,2,0:0:0:0:
256,192,61578,1,0,0:0:0:0:
256,192,61652,1,2,0:0:0:0:
256,192,61725,1,0,0:0:0:0:
256,192,61798,1,2,0:0:0:0:
256,192,61944,1,0,0:0:0:0:
256,192,62091,1,2,0:0:0:0:
256,192,62164,1,2,0:0:0:0:
256,192,62237,1,0,0:0:0:0:
256,192,62383,1,2,0:0:0:0:
256,192,62530,1,0,0:0:0:0:
256,192,62603,1,0,0:0:0:0:
256,192,62676,1,2,0:0:0:0:
256,192,62822,1,0,0:0:0:0:
256,192,62895,1,0,0:0:0:0:
256,192,62969,1,2,0:0:0:0:
256,192,63115,1,0,0:0:0:0:
256,192,63261,1,0,0:0:0:0:
256,192,63334,1,0,0:0:0:0:
256,192,63408,1,2,0:0:0:0:
256,192,63481,1,0,0:0:0:0:
256,192,63554,1,2,0:0:0:0:
256,192,63700,1,0,0:0:0:0:
256,192,63847,1,2,0:0:0:0:
256,192,63920,1,2,0:0:0:0:
256,192,63993,1,0,0:0:0:0:
256,192,64066,1,0,0:0:0:0:
256,192,64139,1,2,0:0:0:0:
256,192,64286,1,2,0:0:0:0:
256,192,64432,1,0,0:0:0:0:
256,192,64725,1,0,0:0:0:0:
256,192,64871,1,0,0:0:0:0:
256,192,65164,1,0,0:0:0:0:
256,192,65310,1,2,0:0:0:0:
256,192,65456,1,2,0:0:0:0:
256,192,65603,1,0,0:0:0:0:
256,192,65676,1,2,0:0:0:0:
256,192,65749,1,0,0:0:0:0:
256,192,65822,1,0,0:0:0:0:
256,192,65895,1,2,0:0:0:0:
256,192,66042,1,2,0:0:0:0:
256,192,66188,1,0,0:0:0:0:
256,192,66237,1,0,0:0:0:0:
256,192,66286,1,0,0:0:0:0:
256,192,66334,1,0,0:0:0:0:
256,192,66383,1,0,0:0:0:0:
256,192,66432,1,0,0:0:0:0:
256,192,66481,1,2,0:0:0:0:
256,192,66773,1,2,0:0:0:0:
256,192,66920,1,2,0:0:0:0:
256,192,66993,1,2,0:0:0:0:
256,192,67066,1,0,0:0:0:0:
256,192,67212,1,0,0:0:0:0:
256,192,67359,1,0,0:0:0:0:
256,192,67505,1,2,0:0:0:0:
256,192,67798,1,2,0:0:0:0:
256,192,67944,1,0,0:0:0:0:
256,192,68091,1,0,0:0:0:0:
256,192,68164,1,0,0:0:0:0:
256,192,68237,1,0,0:0:0:0:
256,192,68383,1,0,0:0:0:0:
256,192,68530,1,2,0:0:0:0:
256,192,68822,1,2,0:0:0:0:
256,192,68969,1,2,0:0:0:0:
256,192,69115,1,0,0:0:0:0:
256,192,69408,1,2,0:0:0:0:
256,192,69481,1,2,0:0:0:0:
256,192,69554,1,2,0:0:0:0:
256,192,69700,1,0,0:0:0:0:
256,192,69847,1,0,0:0:0:0:
256,192,70139,1,2,0:0:0:0:
256,192,70286,1,0,0:0:0:0:
256,192,70432,1,0,0:0:0:0:
256,192,70505,1,0,0:0:0:0:
256,192,70578,1,0,0:0:0:0:
256,192,70725,1,0,0:0:0:0:
256,192,70871,1,2,0:0:0:0:
256,192,71017,1,2,0:0:0:0:
256,192,71091,1,2,0:0:0:0:
256,192,71164,1,2,0:0:0:0:
256,192,71310,1,2,0:0:0:0:
256,192,71456,1,2,0:0:0:0:
256,192,71603,1,2,0:0:0:0:
256,192,71676,1,2,0:0:0:0:
256,192,71749,1,0,0:0:0:0:
256,192,71895,1,0,0:0:0:0:
256,192,71969,1,0,0:0:0:0:
256,192,72042,1,0,0:0:0:0:
256,192,72188,1,2,0:0:0:0:
256,192,72481,1,2,0:0:0:0:
256,192,72627,1,0,0:0:0:0:
256,192,72773,1,0,0:0:0:0:
256,192,72847,1,0,0:0:0:0:
256,192,72920,1,2,0:0:0:0:
256,192,73066,1,0,0:0:0:0:
256,192,73212,1,2,0:0:0:0:
256,192,73505,1,2,0:0:0:0:
256,192,73578,1,2,0:0:0:0:
256,192,73652,1,2,0:0:0:0:
256,192,73798,1,0,0:0:0:0:
256,192,74091,1,2,0:0:0:0:
256,192,74164,1,2,0:0:0:0:
256,192,74237,1,2,0:0:0:0:
256,192,74383,1,0,0:0:0:0:
256,192,74530,1,0,0:0:0:0:
256,192,74822,1,2,0:0:0:0:
256,192,74969,1,0,0:0:0:0:
256,192,75115,1,0,0:0:0:0:
256,192,75188,1,0,0:0:0:0:
256,192,75261,1,0,0:0:0:0:
256,192,75408,1,0,0:0:0:0:
256,192,75554,1,2,0:0:0:0:
256,192,75700,1,2,0:0:0:0:
256,192,75773,1,2,0:0:0:0:
256,192,75847,1,0,0:0:0:0:
256,192,75993,1,0,0:0:0:0:
256,192,76139,1,0,0:0:0:0:
256,192,76286,1,2,0:0:0:0:
256,192,76432,1,0,0:0:0:0:
256,192,76578,1,0,0:0:0:0:
256,192,76652,1,0,0:0:0:0:
256,192,76725,1,0,0:0:0:0:
256,192,76871,1,2,0:0:0:0:
256,192,77017,1,0,0:0:0:0:
256,192,77164,1,0,0:0:0:0:
256,192,77237,1,0,0:0:0:0:
256,192,77310,1,2,0:0:0:0:
256,192,77456,1,0,0:0:0:0:
256,192,77530,1,0,0:0:0:0:
256,192,77603,1,2,0:0:0:0:
256,192,77749,1,0,0:0:0:0:
256,192,77895,1,2,0:0:0:0:
256,192,78188,1,2,0:0:0:0:
256,192,78334,1,0,0:0:0:0:
256,192,78627,1,2,0:0:0:0:
256,192,78700,1,2,0:0:0:0:
256,192,78773,1,0,0:0:0:0:
256,192,78920,1,0,0:0:0:0:
256,192,79066,1,0,0:0:0:0:
256,192,79359,1,2,0:0:0:0:
256,192,79505,1,0,0:0:0:0:
256,192,79798,1,0,0:0:0:0:
256,192,79871,1,0,0:0:0:0:
256,192,79944,1,0,0:0:0:0:
256,192,80091,1,0,0:0:0:0:
256,192,80237,1,0,0:0:0:0:
256,192,80383,1,2,0:0:0:0:
256,192,80456,1,2,0:0:0:0:
256,192,80530,1,2,0:0:0:0:
256,192,80676,1,2,0:0:0:0:
256,192,80822,1,0,0:0:0:0:
256,192,80969,1,0,0:0:0:0:
256,192,81115,1,2,0:0:0:0:
256,192,81261,1,0,0:0:0:0:
256,192,81334,1,0,0:0:0:0:
256,192,81408,1,0,0:0:0:0:
256,192,81554,1,0,0:0:0:0:
256,192,81700,1,2,0:0:0:0:
256,192,81847,1,2,0:0:0:0:
256,192,81920,1,2,0:0:0:0:
256,192,81993,1,0,0:0:0:0:
256,192,82139,1,0,0:0:0:0:
256,192,82286,1,2,0:0:0:0:
256,192,82432,1,2,0:0:0:0:
256,192,82505,1,0,0:0:0:0:
256,192,82578,1,2,0:0:0:0:
256,192,82871,1,0,0:0:0:0:
256,192,82944,1,0,0:0:0:0:
256,192,83017,1,2,0:0:0:0:
256,192,83310,1,2,0:0:0:0:
256,192,83383,1,2,0:0:0:0:
256,192,83456,1,0,0:0:0:0:
256,192,83603,1,0,0:0:0:0:
256,192,83749,1,2,0:0:0:0:
256,192,83895,1,0,0:0:0:0:
256,192,83969,1,0,0:0:0:0:
256,192,84042,1,0,0:0:0:0:
256,192,84188,1,0,0:0:0:0:
256,192,84334,1,2,0:0:0:0:
256,192,84481,1,0,0:0:0:0:
256,192,84554,1,0,0:0:0:0:
256,192,84627,1,2,0:0:0:0:
256,192,84773,1,0,0:0:0:0:
256,192,84920,1,0,0:0:0:0:
256,192,84993,1,0,0:0:0:0:
256,192,85066,1,0,0:0:0:0:
256,192,85139,1,0,0:0:0:0:
256,192,85212,1,0,0:0:0:0:
256,192,85505,1,0,0:0:0:0:
256,192,85578,1,0,0:0:0:0:
256,192,85652,1,0,0:0:0:0:
256,192,85798,1,2,0:0:0:0:
256,192,85944,1,0,0:0:0:0:
256,192,86091,1,2,0:0:0:0:
256,192,86164,1,2,0:0:0:0:
256,192,86237,1,2,0:0:0:0:
256,192,86383,1,2,0:0:0:0:
256,192,86530,1,0,0:0:0:0:
256,192,86676,1,0,0:0:0:0:
256,192,86969,1,2,0:0:0:0:
256,192,87115,1,0,0:0:0:0:
256,192,87408,1,0,0:0:0:0:
256,192,87554,1,0,0:0:0:0:
256,192,87847,1,0,0:0:0:0:
256,192,88139,1,2,0:0:0:0:
256,192,88286,1,0,0:0:0:0:
256,192,88578,1,0,0:0:0:0:
256,192,88725,1,0,0:0:0:0:
256,192,88871,1,2,0:0:0:0:
256,192,89017,1,0,0:0:0:0:
256,192,89310,1,2,0:0:0:0:
256,192,89456,1,0,0:0:0:0:
256,192,89749,1,2,0:0:0:0:
256,192,89895,1,2,0:0:0:0:
256,192,90188,1,0,0:0:0:0:
256,192,90261,1,0,0:0:0:0:
256,192,90334,1,0,0:0:0:0:
256,192,90481,1,2,0:0:0:0:
256,192,90627,1,0,0:0:0:0:
256,192,90773,1,2,0:0:0:0:
256,192,90847,1,2,0:0:0:0:
256,192,90920,1,2,0:0:0:0:
256,192,91066,1,2,0:0:0:0:
256,192,91212,1,0,0:0:0:0:
256,192,91652,1,2,0:0:0:0:
256,192,91798,1,2,0:0:0:0:
256,192,92237,1,0,0:0:0:0:
256,192,92383,1,0,0:0:0:0:
256,192,92530,1,0,0:0:0:0:
256,192,92603,1,0,0:0:0:0:
256,192,92676,1,0,0:0:0:0:
256,192,92822,1,2,0:0:0:0:
256,192,92969,1,0,0:0:0:0:
256,192,93115,1,2,0:0:0:0:
256,192,93188,1,2,0:0:0:0:
256,192,93261,1,2,0:0:0:0:
256,192,93408,1,2,0:0:0:0:
256,192,93554,1,0,0:0:0:0:
256,192,93700,1,4,0:0:0:0:
256,192,93993,1,6,0:0:0:0:
256,192,94286,1,4,0:0:0:0:
256,192,94578,1,6,0:0:0:0:
256,192,94871,1,4,0:0:0:0:
256,192,95164,1,2,0:0:0:0:
256,192,95310,1,0,0:0:0:0:
256,192,95603,1,0,0:0:0:0:
256,192,95749,1,2,0:0:0:0:
256,192,95895,1,0,0:0:0:0:
256,192,96042,1,0,0:0:0:0:
256,192,96334,1,0,0:0:0:0:
256,192,96481,1,0,0:0:0:0:
256,192,96627,1,0,0:0:0:0:
256,192,96920,1,2,0:0:0:0:
256,192,97066,1,0,0:0:0:0:
256,192,97212,1,0,0:0:0:0:
256,192,97359,1,0,0:0:0:0:
256,192,97505,1,2,0:0:0:0:
256,192,97652,1,0,0:0:0:0:
256,192,97798,1,2,0:0:0:0:
256,192,97944,1,0,0:0:0:0:
256,192,98091,1,2,0:0:0:0:
256,192,98237,1,2,0:0:0:0:
256,192,98530,1,0,0:0:0:0:
256,192,98676,1,2,0:0:0:0:
256,192,98822,1,2,0:0:0:0:
256,192,98969,1,2,0:0:0:0:
256,192,99261,1,2,0:0:0:0:
256,192,99408,1,0,0:0:0:0:
256,192,99554,1,0,0:0:0:0:
256,192,99847,1,2,0:0:0:0:
256,192,99993,1,0,0:0:0:0:
256,192,100286,1,0,0:0:0:0:
256,192,100432,1,2,0:0:0:0:
256,192,100578,1,0,0:0:0:0:
256,192,100725,1,0,0:0:0:0:
256,192,100871,1,0,0:0:0:0:
256,192,101017,1,0,0:0:0:0:
256,192,101164,1,0,0:0:0:0:
256,192,101310,1,0,0:0:0:0:
256,192,101456,1,2,0:0:0:0:
256,192,101603,1,2,0:0:0:0:
256,192,101749,1,2,0:0:0:0:
256,192,101895,1,0,0:0:0:0:
256,192,102188,1,0,0:0:0:0:
256,192,102481,1,0,0:0:0:0:
256,192,102773,1,0,0:0:0:0:
256,192,103066,1,6,0:0:0:0:
256,192,103359,1,6,0:0:0:0:
256,192,103652,1,6,0:0:0:0:
256,192,103798,1,0,0:0:0:0:
256,192,103944,1,2,0:0:0:0:
256,192,104091,1,2,0:0:0:0:
256,192,104237,1,2,0:0:0:0:
256,192,104310,1,2,0:0:0:0:
256,192,104383,1,0,0:0:0:0:
256,192,104530,1,0,0:0:0:0:
256,192,104676,1,0,0:0:0:0:
256,192,104749,1,0,0:0:0:0:
256,192,104822,1,2,0:0:0:0:
256,192,104969,1,0,0:0:0:0:
256,192,105115,1,2,0:0:0:0:
256,192,105261,1,0,0:0:0:0:
256,192,105334,1,0,0:0:0:0:
256,192,105408,1,2,0:0:0:0:
256,192,105554,1,0,0:0:0:0:
256,192,105627,1,0,0:0:0:0:
256,192,105700,1,2,0:0:0:0:
256,192,105847,1,0,0:0:0:0:
256,192,105993,1,2,0:0:0:0:
256,192,106139,1,2,0:0:0:0:
256,192,106578,1,0,0:0:0:0:
256,192,106652,1,2,0:0:0:0:
256,192,106798,1,0,0:0:0:0:
256,192,106871,1,2,0:0:0:0:
256,192,107017,1,0,0:0:0:0:
256,192,107164,1,0,0:0:0:0:
256,192,107237,1,2,0:0:0:0:
256,192,107383,1,0,0:0:0:0:
256,192,107456,1,2,0:0:0:0:
256,192,107603,1,0,0:0:0:0:
256,192,107749,1,0,0:0:0:0:
256,192,107822,1,2,0:0:0:0:
256,192,107895,1,0,0:0:0:0:
256,192,107969,1,0,0:0:0:0:
256,192,108042,1,2,0:0:0:0:
256,192,108188,1,0,0:0:0:0:
256,192,108334,1,2,0:0:0:0:
256,192,108408,1,0,0:0:0:0:
256,192,108481,1,2,0:0:0:0:
256,192,108554,1,0,0:0:0:0:
256,192,108627,1,2,0:0:0:0:
256,192,108773,1,2,0:0:0:0:
256,192,108920,1,2,0:0:0:0:
256,192,108993,1,2,0:0:0:0:
256,192,109066,1,0,0:0:0:0:
256,192,109212,1,2,0:0:0:0:
256,192,109359,1,0,0:0:0:0:
256,192,109432,1,0,0:0:0:0:
256,192,109505,1,0,0:0:0:0:
256,192,109652,1,0,0:0:0:0:
256,192,109725,1,0,0:0:0:0:
256,192,109798,1,2,0:0:0:0:
256,192,109944,1,2,0:0:0:0:
256,192,110017,1,2,0:0:0:0:
256,192,110091,1,2,0:0:0:0:
256,192,110237,1,2,0:0:0:0:
256,192,110383,1,2,0:0:0:0:
256,192,110456,1,2,0:0:0:0:
256,192,110530,1,0,0:0:0:0:
256,192,110676,1,2,0:0:0:0:
256,192,110749,1,2,0:0:0:0:
256,192,110822,1,0,0:0:0:0:
256,192,110895,1,0,0:0:0:0:
256,192,110969,1,2,0:0:0:0:
256,192,111115,1,2,0:0:0:0:
256,192,111261,1,0,0:0:0:0:
256,192,111481,1,0,0:0:0:0:
256,192,111554,1,2,0:0:0:0:
256,192,111700,1,0,0:0:0:0:
256,192,111993,1,2,0:0:0:0:
256,192,112066,1,2,0:0:0:0:
256,192,112139,1,2,0:0:0:0:
256,192,112286,1,0,0:0:0:0:
256,192,112432,1,2,0:0:0:0:
256,192,112505,1,0,0:0:0:0:
256,192,112578,1,0,0:0:0:0:
256,192,112725,1,2,0:0:0:0:
256,192,112798,1,0,0:0:0:0:
256,192,112871,1,0,0:0:0:0:
256,192,113017,1,2,0:0:0:0:
256,192,113091,1,0,0:0:0:0:
256,192,113164,1,0,0:0:0:0:
256,192,113237,1,0,0:0:0:0:
256,192,113310,1,2,0:0:0:0:
256,192,113456,1,0,0:0:0:0:
256,192,113530,1,0,0:0:0:0:
256,192,113603,1,2,0:0:0:0:
256,192,113749,1,0,0:0:0:0:
256,192,113822,1,0,0:0:0:0:
256,192,113895,1,2,0:0:0:0:
256,192,114042,1,0,0:0:0:0:
256,192,114188,1,0,0:0:0:0:
256,192,114261,1,0,0:0:0:0:
256,192,114334,1,2,0:0:0:0:
256,192,114408,1,2,0:0:0:0:
256,192,114481,1,0,0:0:0:0:
256,192,114627,1,2,0:0:0:0:
256,192,114700,1,0,0:0:0:0:
256,192,114773,1,2,0:0:0:0:
256,192,114920,1,2,0:0:0:0:
256,192,114993,1,0,0:0:0:0:
256,192,115066,1,2,0:0:0:0:
256,192,115212,1,0,0:0:0:0:
256,192,115359,1,2,0:0:0:0:
256,192,115432,1,0,0:0:0:0:
256,192,115505,1,2,0:0:0:0:
256,192,115578,1,0,0:0:0:0:
256,192,115652,1,2,0:0:0:0:
256,192,115798,1,0,0:0:0:0:
256,192,115944,1,2,0:0:0:0:
256,192,116017,1,0,0:0:0:0:
256,192,116164,1,0,0:0:0:0:
256,192,116237,1,2,0:0:0:0:
256,192,116383,1,0,0:0:0:0:
256,192,116530,1,2,0:0:0:0:
256,192,116603,1,0,0:0:0:0:
256,192,116749,1,0,0:0:0:0:
256,192,116822,1,2,0:0:0:0:
256,192,116969,1,0,0:0:0:0:
256,192,117115,1,2,0:0:0:0:
256,192,117188,1,0,0:0:0:0:
256,192,117334,1,0,0:0:0:0:
256,192,117408,1,2,0:0:0:0:
256,192,117554,1,0,0:0:0:0:
256,192,117700,1,2,0:0:0:0:
256,192,117773,1,2,0:0:0:0:
256,192,117847,1,0,0:0:0:0:
256,192,117920,1,0,0:0:0:0:
256,192,117993,1,2,0:0:0:0:
256,192,118139,1,0,0:0:0:0:
256,192,118286,1,2,0:0:0:0:
256,192,118359,1,2,0:0:0:0:
256,192,118432,1,2,0:0:0:0:
256,192,118505,1,0,0:0:0:0:
256,192,118578,1,2,0:0:0:0:
256,192,118725,1,2,0:0:0:0:
256,192,118798,1,0,0:0:0:0:
256,192,118871,1,2,0:0:0:0:
256,192,119017,1,0,0:0:0:0:
256,192,119164,1,0,0:0:0:0:
256,192,119310,1,2,0:0:0:0:
256,192,119383,1,0,0:0:0:0:
256,192,119530,1,2,0:0:0:0:
256,192,119603,1,0,0:0:0:0:
256,192,119749,1,2,0:0:0:0:
256,192,119822,1,2,0:0:0:0:
256,192,119895,1,0,0:0:0:0:
256,192,120042,1,2,0:0:0:0:
256,192,120115,1,2,0:0:0:0:
256,192,120188,1,0,0:0:0:0:
256,192,120261,1,2,0:0:0:0:
256,192,120334,1,0,0:0:0:0:
256,192,120481,1,0,0:0:0:0:
256,192,120627,1,2,0:0:0:0:
256,192,120847,1,0,0:0:0:0:
256,192,120920,1,2,0:0:0:0:
256,192,121212,1,0,0:0:0:0:
256,192,121359,1,0,0:0:0:0:
256,192,121505,1,2,0:0:0:0:
256,192,121652,1,0,0:0:0:0:
256,192,121798,1,2,0:0:0:0:
256,192,121871,1,2,0:0:0:0:
256,192,121944,1,0,0:0:0:0:
256,192,122091,1,0,0:0:0:0:
256,192,122237,1,0,0:0:0:0:
256,192,122383,1,2,0:0:0:0:
256,192,122969,1,2,0:0:0:0:
256,192,123261,1,0,0:0:0:0:
256,192,123408,1,0,0:0:0:0:
256,192,123554,1,2,0:0:0:0:
256,192,123847,1,2,0:0:0:0:
256,192,123993,1,0,0:0:0:0:
256,192,124286,1,0,0:0:0:0:
256,192,124578,1,0,0:0:0:0:
256,192,124725,1,0,0:0:0:0:
256,192,124871,1,0,0:0:0:0:
256,192,125017,1,2,0:0:0:0:
256,192,125164,1,0,0:0:0:0:
256,192,125237,2,0,L|432:192,7,139.99999666214
256,192,125895,1,0,0:0:0:0:
256,192,126188,1,0,0:0:0:0:
256,192,126334,1,0,0:0:0:0:
256,192,126481,1,2,0:0:0:0:
256,192,126627,1,2,0:0:0:0:
256,192,126773,1,2,0:0:0:0:
256,192,126920,1,0,0:0:0:0:
256,192,127066,1,2,0:0:0:0:
256,192,127212,1,2,0:0:0:0:
256,192,127505,1,2,0:0:0:0:
256,192,127652,1,0,0:0:0:0:
256,192,127944,1,2,0:0:0:0:
256,192,128091,1,0,0:0:0:0:
256,192,128237,1,0,0:0:0:0:
256,192,128530,1,0,0:0:0:0:
256,192,128676,1,0,0:0:0:0:
256,192,128822,1,2,0:0:0:0:
256,192,128969,1,0,0:0:0:0:
256,192,129261,1,0,0:0:0:0:
256,192,129408,1,0,0:0:0:0:
256,192,129554,1,0,0:0:0:0:
256,192,129700,1,2,0:0:0:0:
256,192,129847,1,0,0:0:0:0:
256,192,129993,1,2,0:0:0:0:
256,192,130286,1,0,0:0:0:0:
256,192,130432,1,0,0:0:0:0:
256,192,130578,1,2,0:0:0:0:
256,192,130871,1,0,0:0:0:0:
256,192,131017,1,0,0:0:0:0:
256,192,131164,1,2,0:0:0:0:
256,192,131310,1,2,0:0:0:0:
256,192,131456,1,2,0:0:0:0:
256,192,131603,1,0,0:0:0:0:
256,192,131749,1,2,0:0:0:0:
256,192,131895,1,2,0:0:0:0:
256,192,132188,1,2,0:0:0:0:
256,192,132334,1,0,0:0:0:0:
256,192,132408,1,0,0:0:0:0:
256,192,132481,1,0,0:0:0:0:
256,192,132627,1,2,0:0:0:0:
256,192,132773,1,0,0:0:0:0:
256,192,132920,1,2,0:0:0:0:
256,192,132993,1,2,0:0:0:0:
256,192,133066,1,2,0:0:0:0:
256,192,133212,1,2,0:0:0:0:
256,192,133359,1,0,0:0:0:0:
256,192,133505,1,0,0:0:0:0:
256,192,133798,1,2,0:0:0:0:
256,192,133944,1,0,0:0:0:0:
256,192,134237,1,0,0:0:0:0:
256,192,134383,1,0,0:0:0:0:
256,192,134530,1,2,0:0:0:0:
256,192,134676,1,0,0:0:0:0:
256,192,134969,1,2,0:0:0:0:
256,192,135115,1,0,0:0:0:0:
256,192,135408,1,0,0:0:0:0:
256,192,135554,1,0,0:0:0:0:
256,192,135700,1,2,0:0:0:0:
256,192,135847,1,0,0:0:0:0:
256,192,135993,1,0,0:0:0:0:
256,192,136139,1,2,0:0:0:0:
256,192,136286,1,0,0:0:0:0:
256,192,136432,1,2,0:0:0:0:
256,192,136578,1,2,0:0:0:0:
256,192,136871,1,2,0:0:0:0:
256,192,137017,1,0,0:0:0:0:
256,192,137091,1,0,0:0:0:0:
256,192,137164,1,0,0:0:0:0:
256,192,137310,1,2,0:0:0:0:
256,192,137456,1,0,0:0:0:0:
256,192,137603,1,2,0:0:0:0:
256,192,137676,1,2,0:0:0:0:
256,192,137749,1,2,0:0:0:0:
256,192,137895,1,2,0:0:0:0:
256,192,138042,1,0,0:0:0:0:
256,192,138188,1,0,0:0:0:0:
256,192,138481,1,0,0:0:0:0:
256,192,138554,2,0,L|384:192,5,105.000004005432
256,192,139066,1,0,0:0:0:0:
256,192,139359,1,0,0:0:0:0:
256,192,139432,1,0,0:0:0:0:
256,192,139505,1,2,0:0:0:0:
256,192,139578,1,0,0:0:0:0:
256,192,139652,1,2,0:0:0:0:
256,192,139798,1,0,0:0:0:0:
256,192,139944,1,2,0:0:0:0:
256,192,140017,1,2,0:0:0:0:
256,192,140091,1,2,0:0:0:0:
256,192,140164,1,0,0:0:0:0:
256,192,140237,1,2,0:0:0:0:
256,192,140383,1,2,0:0:0:0:
256,192,140530,1,4,0:0:0:0:
256,192,140822,1,6,0:0:0:0:
256,192,141115,1,4,0:0:0:0:
256,192,141408,1,6,0:0:0:0:
256,192,141700,1,4,0:0:0:0:
256,192,141993,1,0,0:0:0:0:
256,192,142091,1,0,0:0:0:0:
256,192,142188,1,0,0:0:0:0:
256,192,142286,1,2,0:0:0:0:
256,192,142578,1,2,0:0:0:0:
256,192,142676,1,0,0:0:0:0:
256,192,142773,1,0,0:0:0:0:
256,192,142871,1,2,0:0:0:0:
256,192,143164,1,0,0:0:0:0:
256,192,143261,1,0,0:0:0:0:
256,192,143359,1,2,0:0:0:0:
256,192,143456,1,2,0:0:0:0:
256,192,143554,1,0,0:0:0:0:
256,192,143652,1,0,0:0:0:0:
256,192,143749,1,2,0:0:0:0:
256,192,143847,1,0,0:0:0:0:
256,192,143944,1,0,0:0:0:0:
256,192,144042,1,2,0:0:0:0:
256,192,144334,1,0,0:0:0:0:
256,192,144432,1,0,0:0:0:0:
256,192,144530,1,0,0:0:0:0:
256,192,144627,1,2,0:0:0:0:
256,192,144920,1,2,0:0:0:0:
256,192,145017,1,0,0:0:0:0:
256,192,145115,1,0,0:0:0:0:
256,192,145212,1,2,0:0:0:0:
256,192,145505,1,2,0:0:0:0:
256,192,145603,1,2,0:0:0:0:
256,192,145700,1,0,0:0:0:0:
256,192,145798,1,2,0:0:0:0:
256,192,145895,1,2,0:0:0:0:
256,192,145993,1,0,0:0:0:0:
256,192,146091,1,2,0:0:0:0:
256,192,146188,1,0,0:0:0:0:
256,192,146286,1,0,0:0:0:0:
256,192,146383,1,2,0:0:0:0:
256,192,146676,1,0,0:0:0:0:
256,192,146773,1,0,0:0:0:0:
256,192,146871,1,0,0:0:0:0:
256,192,146969,1,2,0:0:0:0:
256,192,147261,1,2,0:0:0:0:
256,192,147359,1,0,0:0:0:0:
256,192,147456,1,0,0:0:0:0:
256,192,147554,1,2,0:0:0:0:
256,192,147847,1,0,0:0:0:0:
256,192,147944,1,0,0:0:0:0:
256,192,148042,1,0,0:0:0:0:
256,192,148139,1,2,0:0:0:0:
256,192,148237,1,0,0:0:0:0:
256,192,148334,1,0,0:0:0:0:
256,192,148432,1,2,0:0:0:0:
256,192,148530,1,2,0:0:0:0:
256,192,148627,1,0,0:0:0:0:
256,192,148725,1,0,0:0:0:0:
256,192,148871,1,0,0:0:0:0:
256,192,149017,1,2,0:0:0:0:
256,192,149164,1,0,0:0:0:0:
256,192,149310,1,0,0:0:0:0:
256,192,149383,1,0,0:0:0:0:
256,192,149456,1,0,0:0:0:0:
256,192,149603,1,2,0:0:0:0:
256,192,149749,1,0,0:0:0:0:
256,192,149895,1,0,0:0:0:0:
256,192,149993,1,0,0:0:0:0:
256,192,150091,1,0,0:0:0:0:
256,192,150188,1,0,0:0:0:0:
256,192,150286,1,0,0:0:0:0:
256,192,150383,1,0,0:0:0:0:
256,192,150481,1,2,0:0:0:0:
256,192,152530,1,6,0:0:0:0:
256,192,152822,1,6,0:0:0:0:
256,192,153115,1,6,0:0:0:0:
256,192,153408,1,4,0:0:0:0:
256,192,153700,1,0,0:0:0:0:
256,192,153847,1,2,0:0:0:0:
256,192,154139,1,0,0:0:0:0:
256,192,154432,1,2,0:0:0:0:
256,192,154725,1,2,0:0:0:0:
256,192,154871,1,0,0:0:0:0:
256,192,155164,1,2,0:0:0:0:
256,192,155310,1,0,0:0:0:0:
256,192,155456,1,2,0:0:0:0:
256,192,155749,1,0,0:0:0:0:
256,192,155895,1,2,0:0:0:0:
256,192,156188,1,2,0:0:0:0:
256,192,156334,1,0,0:0:0:0:
256,192,156481,1,2,0:0:0:0:
256,192,156773,1,2,0:0:0:0:
256,192,156920,1,2,0:0:0:0:
256,192,157212,1,0,0:0:0:0:
256,192,157359,1,0,0:0:0:0:
256,192,157505,1,2,0:0:0:0:
256,192,157798,1,2,0:0:0:0:
256,192,158091,1,0,0:0:0:0:
256,192,158383,1,2,0:0:0:0:
256,192,158530,1,0,0:0:0:0:
256,192,158822,1,0,0:0:0:0:
256,192,159115,1,0,0:0:0:0:
256,192,159261,1,2,0:0:0:0:
256,192,159408,1,2,0:0:0:0:
256,192,159554,1,0,0:0:0:0:
256,192,159847,1,0,0:0:0:0:
256,192,160139,1,0,0:0:0:0:
256,192,160432,1,0,0:0:0:0:
256,192,160725,1,2,0:0:0:0:
256,192,160871,1,0,0:0:0:0:
256,192,161164,1,0,0:0:0:0:
256,192,161310,1,0,0:0:0:0:
256,192,161456,1,2,0:0:0:0:
256,192,161603,1,0,0:0:0:0:
256,192,161749,1,0,0:0:0:0:
256,192,161895,1,2,0:0:0:0:
256,192,162042,1,2,0:0:0:0:
256,192,162188,1,2,0:0:0:0:
256,192,162773,1,2,0:0:0:0:
256,192,162920,1,2,0:0:0:0:
256,192,162993,1,2,0:0:0:0:
256,192,163066,1,0,0:0:0:0:
256,192,163212,1,0,0:0:0:0:
256,192,163359,1,2,0:0:0:0:
256,192,163432,1,2,0:0:0:0:
256,192,163505,1,0,0:0:0:0:
256,192,163652,1,0,0:0:0:0:
256,192,163798,1,0,0:0:0:0:
256,192,163871,1,0,0:0:0:0:
256,192,163944,1,2,0:0:0:0:
256,192,164091,1,0,0:0:0:0:
256,192,164164,1,0,0:0:0:0:
256,192,164237,1,2,0:0:0:0:
256,192,164383,1,0,0:0:0:0:
256,192,164530,1,0,0:0:0:0:
256,192,164603,1,0,0:0:0:0:
256,192,164676,1,2,0:0:0:0:
256,192,164749,1,2,0:0:0:0:
256,192,164822,1,2,0:0:0:0:
256,192,164969,1,2,0:0:0:0:
256,192,165042,1,2,0:0:0:0:
256,192,165115,1,0,0:0:0:0:
256,192,165188,1,0,0:0:0:0:
256,192,165334,1,0,0:0:0:0:
256,192,165408,1,2,0:0:0:0:
256,192,165554,1,2,0:0:0:0:
256,192,165627,1,2,0:0:0:0:
256,192,165700,1,0,0:0:0:0:
256,192,165773,1,0,0:0:0:0:
256,192,165920,1,0,0:0:0:0:
256,192,165993,1,2,0:0:0:0:
256,192,166139,1,0,0:0:0:0:
256,192,166212,1,0,0:0:0:0:
256,192,166286,1,2,0:0:0:0:
256,192,166432,1,0,0:0:0:0:
256,192,166505,1,0,0:0:0:0:
256,192,166578,1,2,0:0:0:0:
256,192,166725,1,0,0:0:0:0:
256,192,166798,1,0,0:0:0:0:
256,192,166871,1,2,0:0:0:0:
256,192,166944,1,0,0:0:0:0:
256,192,167017,1,0,0:0:0:0:
256,192,167091,1,2,0:0:0:0:
256,192,167164,1,0,0:0:0:0:
256,192,167310,1,0,0:0:0:0:
256,192,167456,1,2,0:0:0:0:
256,192,167530,1,0,0:0:0:0:
256,192,167603,1,2,0:0:0:0:
256,192,167749,1,2,0:0:0:0:
256,192,167822,1,0,0:0:0:0:
256,192,167895,1,2,0:0:0:0:
256,192,168042,1,0,0:0:0:0:
256,192,168188,1,0,0:0:0:0:
256,192,168261,1,0,0:0:0:0:
256,192,168334,1,0,0:0:0:0:
256,192,168481,1,0,0:0:0:0:
256,192,168554,1,2,0:0:0:0:
256,192,168627,1,2,0:0:0:0:
256,192,168773,1,0,0:0:0:0:
256,192,168847,1,2,0:0:0:0:
256,192,168920,1,2,0:0:0:0:
256,192,169066,1,0,0:0:0:0:
256,192,169212,1,0,0:0:0:0:
256,192,169286,1,2,0:0:0:0:
256,192,169359,1,2,0:0:0:0:
256,192,169432,1,0,0:0:0:0:
256,192,169505,1,2,0:0:0:0:
256,192,169652,1,2,0:0:0:0:
256,192,169798,1,0,0:0:0:0:
256,192,170017,1,2,0:0:0:0:
256,192,170091,1,0,0:0:0:0:
256,192,170237,1,0,0:0:0:0:
256,192,170456,1,2,0:0:0:0:
256,192,170530,1,0,0:0:0:0:
256,192,170676,1,0,0:0:0:0:
256,192,170822,1,0,0:0:0:0:
256,192,170969,1,0,0:0:0:0:
256,192,171042,1,2,0:0:0:0:
256,192,171115,1,0,0:0:0:0:
256,192,171188,1,0,0:0:0:0:
256,192,171261,1,2,0:0:0:0:
256,192,171408,1,0,0:0:0:0:
256,192,171554,1,0,0:0:0:0:
256,192,171603,1,0,0:0:0:0:
256,192,171652,1,0,0:0:0:0:
256,192,171700,1,0,0:0:0:0:
256,192,171749,1,0,0:0:0:0:
256,192,171798,1,0,0:0:0:0:
256,192,171847,1,2,0:0:0:0:
256,192,171993,1,2,0:0:0:0:
256,192,172139,1,0,0:0:0:0:
256,192,172286,1,0,0:0:0:0:
256,192,172359,1,0,0:0:0:0:
256,192,172432,1,0,0:0:0:0:
256,192,172578,1,2,0:0:0:0:
256,192,172725,1,0,0:0:0:0:
256,192,172871,1,0,0:0:0:0:
256,192,172944,1,0,0:0:0:0:
256,192,173017,1,0,0:0:0:0:
256,192,173164,1,2,0:0:0:0:
256,192,173237,1,2,0:0:0:0:
256,192,173310,1,2,0:0:0:0:
256,192,173456,1,2,0:0:0:0:
256,192,173530,1,2,0:0:0:0:
256,192,173603,1,2,0:0:0:0:
256,192,173749,1,2,0:0:0:0:
256,192,173895,1,2,0:0:0:0:
256,192,173969,1,0,0:0:0:0:
256,192,174042,1,0,0:0:0:0:
256,192,174115,1,2,0:0:0:0:
256,192,174188,1,2,0:0:0:0:
256,192,174261,1,0,0:0:0:0:
256,192,174334,1,0,0:0:0:0:
256,192,174408,1,2,0:0:0:0:
256,192,174481,1,2,0:0:0:0:
256,192,174554,1,0,0:0:0:0:
256,192,174627,1,0,0:0:0:0:
256,192,174700,1,0,0:0:0:0:
256,192,174773,1,0,0:0:0:0:
256,192,174847,1,0,0:0:0:0:
256,192,174920,1,2,0:0:0:0:
256,192,174993,1,0,0:0:0:0:
256,192,175066,1,2,0:0:0:0:
256,192,175139,1,0,0:0:0:0:
256,192,175212,1,0,0:0:0:0:
256,192,175286,1,0,0:0:0:0:
256,192,175359,1,0,0:0:0:0:
256,192,175432,1,0,0:0:0:0:
256,192,175505,1,2,0:0:0:0:
256,192,175578,1,0,0:0:0:0:
256,192,175652,1,2,0:0:0:0:
256,192,175798,1,2,0:0:0:0:
256,192,175871,1,0,0:0:0:0:
256,192,175944,1,2,0:0:0:0:
256,192,176091,1,2,0:0:0:0:
256,192,176164,1,0,0:0:0:0:
256,192,176237,1,2,0:0:0:0:
256,192,176383,1,0,0:0:0:0:
256,192,176530,1,0,0:0:0:0:
256,192,176676,1,0,0:0:0:0:
256,192,176822,1,2,0:0:0:0:
256,192,176969,1,2,0:0:0:0:
256,192,177042,1,2,0:0:0:0:
256,192,177115,1,0,0:0:0:0:
256,192,177261,1,2,0:0:0:0:
256,192,177408,1,0,0:0:0:0:
256,192,177554,1,0,0:0:0:0:
256,192,177627,1,0,0:0:0:0:
256,192,177700,1,0,0:0:0:0:
256,192,177847,1,0,0:0:0:0:
256,192,177920,1,2,0:0:0:0:
256,192,177993,1,2,0:0:0:0:
256,192,178139,1,2,0:0:0:0:
256,192,178212,1,2,0:0:0:0:
256,192,178286,1,2,0:0:0:0:
256,192,178432,1,2,0:0:0:0:
256,192,178578,1,2,0:0:0:0:
256,192,178652,1,0,0:0:0:0:
256,192,178725,1,0,0:0:0:0:
256,192,178798,1,2,0:0:0:0:
256,192,178871,1,2,0:0:0:0:
256,192,178944,1,0,0:0:0:0:
256,192,179017,1,0,0:0:0:0:
256,192,179091,1,2,0:0:0:0:
256,192,179164,1,2,0:0:0:0:
256,192,179237,1,0,0:0:0:0:
256,192,179310,1,0,0:0:0:0:
256,192,179383,1,0,0:0:0:0:
256,192,179456,1,0,0:0:0:0:
256,192,179530,1,0,0:0:0:0:
256,192,179603,1,2,0:0:0:0:
256,192,179676,1,0,0:0:0:0:
256,192,179749,1,2,0:0:0:0:
256,192,179822,1,0,0:0:0:0:
256,192,179895,1,0,0:0:0:0:
256,192,179969,1,0,0:0:0:0:
256,192,180042,1,0,0:0:0:0:
256,192,180115,1,0,0:0:0:0:
256,192,180188,1,2,0:0:0:0:
256,192,180261,1,0,0:0:0:0:
256,192,180334,1,2,0:0:0:0:
256,192,180481,1,2,0:0:0:0:
256,192,180554,1,0,0:0:0:0:
256,192,180627,1,2,0:0:0:0:
256,192,180773,1,2,0:0:0:0:
256,192,180847,1,0,0:0:0:0:
256,192,180920,1,2,0:0:0:0:
256,192,181066,1,0,0:0:0:0:
256,192,181212,1,0,0:0:0:0:
256,192,181359,1,0,0:0:0:0:
256,192,181505,1,2,0:0:0:0:
256,192,181576,1,2,0:0:0:0:
256,192,181647,1,2,0:0:0:0:
256,192,181790,1,0,0:0:0:0:
256,192,182076,1,2,0:0:0:0:
256,192,182147,1,2,0:0:0:0:
256,192,182219,1,2,0:0:0:0:
256,192,182362,1,0,0:0:0:0:
256,192,182647,1,2,0:0:0:0:
256,192,182790,1,0,0:0:0:0:
256,192,182933,1,2,0:0:0:0:
256,192,183076,1,0,0:0:0:0:
256,192,183219,1,0,0:0:0:0:
256,192,183505,1,0,0:0:0:0:
256,192,183790,1,0,0:0:0:0:
256,192,183862,1,0,0:0:0:0:
256,192,183933,1,0,0:0:0:0:
256,192,184076,1,2,0:0:0:0:
256,192,184362,1,0,0:0:0:0:
256,192,184433,1,0,0:0:0:0:
256,192,184505,1,0,0:0:0:0:
256,192,184647,1,2,0:0:0:0:
256,192,184933,1,0,0:0:0:0:
256,192,185076,1,0,0:0:0:0:
256,192,185219,1,2,0:0:0:0:
256,192,185362,1,0,0:0:0:0:
256,192,185505,1,2,0:0:0:0:
256,192,185790,1,2,0:0:0:0:
256,192,186076,1,2,0:0:0:0:
256,192,186141,1,2,0:0:0:0:
256,192,186206,1,2,0:0:0:0:
256,192,186336,1,0,0:0:0:0:
256,192,186597,1,2,0:0:0:0:
256,192,186662,1,2,0:0:0:0:
256,192,186728,1,2,0:0:0:0:
256,192,186858,1,0,0:0:0:0:
256,192,187119,1,2,0:0:0:0:
256,192,187249,1,0,0:0:0:0:
256,192,187380,1,2,0:0:0:0:
256,192,187510,1,0,0:0:0:0:
256,192,187641,1,0,0:0:0:0:
256,192,187902,1,0,0:0:0:0:
256,192,188162,1,0,0:0:0:0:
256,192,188225,1,0,0:0:0:0:
256,192,188289,1,0,0:0:0:0:
256,192,188417,1,2,0:0:0:0:
256,192,188544,1,0,0:0:0:0:
256,192,188672,1,2,0:0:0:0:
256,192,188927,1,0,0:0:0:0:
256,192,189183,1,0,0:0:0:0:
256,192,189243,1,0,0:0:0:0:
256,192,189303,1,0,0:0:0:0:
256,192,189423,1,2,0:0:0:0:
256,192,189543,1,0,0:0:0:0:
256,192,189663,1,0,0:0:0:0:
256,192,189903,1,2,0:0:0:0:
256,192,190143,1,2,0:0:0:0:
256,192,190201,1,2,0:0:0:0:
256,192,190260,1,2,0:0:0:0:
256,192,190378,1,0,0:0:0:0:
256,192,190613,1,2,0:0:0:0:
256,192,190672,1,2,0:0:0:0:
256,192,190731,1,2,0:0:0:0:
256,192,190848,1,0,0:0:0:0:
256,192,191084,1,2,0:0:0:0:
256,192,191201,1,0,0:0:0:0:
256,192,191319,1,2,0:0:0:0:
256,192,191437,1,0,0:0:0:0:
256,192,191554,1,0,0:0:0:0:
256,192,191790,1,0,0:0:0:0:
256,192,192025,1,0,0:0:0:0:
256,192,192081,1,0,0:0:0:0:
256,192,192138,1,0,0:0:0:0:
256,192,192251,1,2,0:0:0:0:
256,192,192477,1,0,0:0:0:0:
256,192,192534,1,0,0:0:0:0:
256,192,192591,1,0,0:0:0:0:
256,192,192704,1,2,0:0:0:0:
256,192,192930,1,0,0:0:0:0:
256,192,193043,1,0,0:0:0:0:
256,192,193157,1,2,0:0:0:0:
256,192,193270,1,0,0:0:0:0:
256,192,193383,1,2,0:0:0:0:
256,192,193609,1,2,0:0:0:0:
256,192,193836,1,6,0:0:0:0:
256,192,193943,1,4,0:0:0:0:
256,192,194050,1,6,0:0:0:0:
256,192,194157,1,4,0:0:0:0:
256,192,194264,1,6,0:0:0:0:
256,192,194478,1,4,0:0:0:0:
256,192,194693,1,6,0:0:0:0:
256,192,194800,1,4,0:0:0:0:
256,192,194907,1,6,0:0:0:0:
256,192,195014,1,4,0:0:0:0:
256,192,195121,1,6,0:0:0:0:
256,192,195336,1,6,0:0:0:0:
256,192,195550,1,6,0:0:0:0:
256,192,195657,1,4,0:0:0:0:
256,192,195764,1,6,0:0:0:0:
256,192,195871,1,4,0:0:0:0:
256,192,195978,1,6,0:0:0:0:
256,192,196193,1,4,0:0:0:0:
256,192,196407,1,6,0:0:0:0:
256,192,196514,1,4,0:0:0:0:
256,192,196621,1,6,0:0:0:0:
256,192,196728,1,4,0:0:0:0:
256,192,196836,1,6,0:0:0:0:
256,192,196943,1,4,0:0:0:0:
256,192,197050,1,6,0:0:0:0:
