osu file format v14

[General]
AudioFilename: audio.mp3
AudioLeadIn: 0
PreviewTime: 61392
Countdown: 1
SampleSet: Normal
StackLeniency: 0.2
Mode: 0
LetterboxInBreaks: 0
WidescreenStoryboard: 0

[Editor]
Bookmarks: 21450,22322,29299,30694,32090,110578,154880
DistanceSpacing: 1.5
BeatDivisor: 4
GridSize: 8
TimelineZoom: 2.699999

[Metadata]
Title:SunBurs
TitleUnicode:SunBurs
Artist:Ozma & Mellon
ArtistUnicode:Ozma & Mellon
Creator:-ckopoctb-
Version:Never Loved
Source:
Tags:dnb long stream relax marathon drum and bass
BeatmapID:1200205
BeatmapSetID:566593

[Difficulty]
HPDrainRate:5
CircleSize:4
OverallDifficulty:8.5
ApproachRate:9.4
SliderMultiplier:1.8
SliderTickRate:2

[Events]
//Background and Video events
0,0,"love.jpg",0,0
//Break Periods
//Storyboard Layer 0 (Background)
//Storyboard Layer 1 (Fail)
//Storyboard Layer 2 (Pass)
//Storyboard Layer 3 (Foreground)
//Storyboard Sound Samples

[TimingPoints]
694.953365349821,348.836651552145,4,1,0,50,1,0
869,-100,4,1,0,50,0,0
2439,-133.333333333333,4,1,0,50,0,0
5491,-100,4,1,0,50,0,0
9939,-133.333333333333,4,1,0,50,0,0
10636,-100,4,1,0,50,0,0
10985,-100,4,1,0,50,0,0
11160,-111.111111111111,4,1,0,50,0,0
11334,-111.111111111111,4,1,0,10,0,0
11508,-111.111111111111,4,1,0,50,0,0
16218,-111.111111111111,4,1,0,10,0,0
16392,-111.111111111111,4,1,0,50,0,0
16567,-100,4,1,0,50,0,0
16915,-111.111111111111,4,1,0,50,0,0
20317,-111.111111111111,4,1,0,10,0,0
20578,-111.111111111111,4,1,0,50,0,0
21625,-100,4,1,0,50,0,0
22497,-100,4,1,0,10,0,0
22671,-100,4,1,0,50,0,0
23020,-100,4,1,0,10,0,0
23194,-100,4,1,0,50,0,0
23543,-100,4,1,0,10,0,0
23718,-100,4,1,0,50,0,0
24067,-100,4,1,0,10,0,0
24241,-100,4,1,0,50,0,0
25113,-100,4,1,0,10,0,0
26160,-100,4,1,0,50,0,0
26247,-100,4,1,0,10,0,0
26334,-100,4,1,0,50,0,0
27206,-133.333333333333,4,1,0,50,0,0
32090,-100,4,1,0,55,0,0
36276,-100,4,1,0,10,0,0
36450,-100,4,1,0,55,0,0
37322,-111.111111111111,4,1,0,45,0,0
37410,-111.111111111111,4,1,0,10,0,0
37497,-100,4,1,0,55,0,0
39154,-100,4,1,0,10,0,0
40287,-100,4,1,0,55,0,0
40375,-100,4,1,0,45,0,0
40462,-100,4,1,0,35,0,0
41160,-133.333333333333,4,1,0,55,0,0
41683,-133.333333333333,4,1,0,50,0,0
41770,-133.333333333333,4,1,0,40,0,0
41857,-100,4,1,0,30,0,0
42904,-100,4,1,0,50,0,0
44822,-100,4,1,0,10,0,0
44997,-100,4,1,0,50,0,0
46218,-100,4,1,0,10,0,0
46392,-100,4,1,0,50,0,0
47613,-100,4,1,0,10,0,0
47787,-100,4,1,0,50,0,0
49008,-100,4,1,0,10,0,0
49183,-100,4,1,0,50,0,0
50229,-100,4,1,0,80,0,0
50404,-100,4,1,0,10,0,0
50578,-100,4,1,0,50,0,0
51799,-100,4,1,0,10,0,0
51973,-100,4,1,0,50,0,0
53194,-100,4,1,0,10,0,0
53369,-100,4,1,0,50,0,0
54590,-100,4,1,0,10,0,0
54764,-100,4,1,0,50,0,0
55985,-100,4,1,0,10,0,0
56159,-100,4,1,0,50,0,0
58601,-133.333333333333,4,1,0,50,0,0
58950,-133.333333333333,4,1,0,10,0,0
59648,-133.333333333333,4,1,0,50,0,0
59735,-133.333333333333,4,1,0,10,0,0
59822,-133.333333333333,4,1,0,50,0,0
60607,-133.333333333333,4,1,0,10,0,0
61043,-133.333333333333,4,1,0,50,0,0
61130,-133.333333333333,4,1,0,10,0,0
61392,-100,4,1,0,40,0,0
62351,-100,4,1,0,50,0,0
63398,-100,4,1,0,60,0,0
65665,-100,4,1,0,10,0,0
65927,-100,4,1,0,50,0,0
66973,-100,4,1,0,55,0,0
67148,-100,4,1,0,10,0,0
67322,-100,4,1,0,60,0,0
67497,-100,4,1,0,10,0,0
67671,-100,4,1,0,60,0,0
67846,-100,4,1,0,10,0,0
68020,-100,4,1,0,60,0,0
68194,-100,4,1,0,10,0,0
68369,-100,4,1,0,60,0,0
68543,-100,4,1,0,10,0,0
68718,-100,4,1,0,60,0,0
68892,-100,4,1,0,10,0,0
69066,-100,4,1,0,60,0,0
73601,-100,4,1,0,60,0,0
73776,-100,4,1,0,10,0,0
73950,-100,4,1,0,60,0,0
74125,-100,4,1,0,10,0,0
74299,-100,4,1,0,60,0,0
74473,-100,4,1,0,10,0,0
74648,-100,4,1,0,60,0,0
74997,-100,4,1,0,60,0,0
75171,-100,4,1,0,10,0,0
75345,-100,4,1,0,60,0,0
75520,-100,4,1,0,10,0,0
75694,-100,4,1,0,60,0,0
75869,-100,4,1,0,10,0,0
76043,-100,4,1,0,60,0,0
76392,-100,4,1,0,60,0,0
76566,-100,4,1,0,10,0,0
76741,-100,4,1,0,60,0,0
76915,-100,4,1,0,10,0,0
77090,-100,4,1,0,60,0,0
77264,-100,4,1,0,10,0,0
77439,-100,4,1,0,60,0,0
77787,-100,4,1,0,60,0,0
77962,-100,4,1,0,10,0,0
78136,-100,4,1,0,60,0,0
81276,-100,4,1,0,10,0,0
81450,-100,4,1,0,60,0,0
81625,-100,4,1,0,60,0,0
83718,-100,4,1,0,40,0,0
84764,-100,4,1,0,50,0,0
85811,-100,4,1,0,60,0,0
87991,-100,4,1,0,10,0,0
88252,-100,4,1,0,60,0,0
99764,-111.111111111111,4,1,0,60,0,0
99938,-111.111111111111,4,1,0,60,0,0
100200,-100,4,1,0,60,0,0
100375,-100,4,1,0,10,0,0
100462,-100,4,1,0,60,0,0
106043,-100,4,1,0,40,0,0
107090,-100,4,1,0,50,0,0
110229,-100,4,1,0,60,0,0
110316,-100,4,1,0,10,0,0
110578,-100,4,1,0,60,0,0
111712,-100,4,1,0,10,0,0
111886,-133.333333333333,4,1,0,60,0,0
112148,-100,4,1,0,10,0,0
112497,-133.333333333333,4,1,0,60,0,0
112671,-133.333333333333,4,1,0,10,0,0
113020,-133.333333333333,4,1,0,60,0,0
113194,-133.333333333333,4,1,0,10,0,0
113543,-133.333333333333,4,1,0,60,0,0
114066,-100,4,1,0,60,0,0
114241,-100,4,1,0,10,0,0
114415,-100,4,1,0,70,0,1
118252,-100,4,1,0,70,0,1
118427,-100,4,1,0,10,0,1
118601,-100,4,1,0,70,0,1
119648,-100,4,1,0,70,0,1
119822,-100,4,1,0,10,0,1
119997,-100,4,1,0,70,0,1
121043,-100,4,1,0,70,0,1
121218,-100,4,1,0,10,0,1
121392,-100,4,1,0,70,0,1
121566,-100,4,1,0,10,0,1
121741,-100,4,1,0,70,0,1
121915,-100,4,1,0,10,0,1
122090,-100,4,1,0,70,0,1
122438,-100,4,1,0,70,0,1
122613,-100,4,1,0,10,0,1
122787,-100,4,1,0,70,0,1
125578,-133.333333333333,4,1,0,70,0,1
125927,-133.333333333333,4,1,0,10,0,1
126101,-100,4,1,0,70,0,1
127322,-100,4,1,0,70,0,1
127497,-100,4,1,0,10,0,1
127671,-100,4,1,0,70,0,1
127845,-100,4,1,0,10,0,1
128020,-100,4,1,0,70,0,1
128194,-100,4,1,0,10,0,1
128369,-100,4,1,0,40,0,0
129415,-100,4,1,0,50,0,0
130985,-100,4,1,0,60,0,0
132642,-100,4,1,0,10,0,0
132904,-100,4,1,0,60,0,0
133950,-100,4,1,0,60,0,0
134124,-100,4,1,0,10,0,0
134299,-100,4,1,0,50,0,0
135345,-100,4,1,0,65,0,0
150694,-90.9090909090909,4,1,0,50,0,0
152264,-90.9090909090909,4,1,0,60,0,0
153834,-90.9090909090909,4,1,0,40,0,0
154357,-90.9090909090909,4,1,0,35,0,0
154444,-90.9090909090909,4,1,0,30,0,0
154531,-90.9090909090909,4,1,0,25,0,0
154619,-90.9090909090909,4,1,0,20,0,0
154706,-90.9090909090909,4,1,0,15,0,0
154793,-90.9090909090909,4,1,0,10,0,0
156276,-133.333333333333,4,1,0,50,0,0
158979,-133.333333333333,4,1,0,10,0,0
159066,-153.846153846153,4,1,0,50,0,0
161770,-153.846153846153,4,1,0,10,0,0
161857,-133.333333333333,4,1,0,50,0,0
163165,-133.333333333333,4,1,0,10,0,0
163252,-133.333333333333,4,1,0,50,0,0
164560,-133.333333333333,4,1,0,10,0,0
164648,-133.333333333333,4,1,0,50,0,0
167351,-133.333333333333,4,1,0,10,0,0
167438,-133.333333333333,4,1,0,50,0,0
170142,-133.333333333333,4,1,0,10,0,0
170229,-133.333333333333,4,1,0,50,0,0
172933,-133.333333333333,4,1,0,10,0,0
173020,-133.333333333333,4,1,0,50,0,0
174328,-133.333333333333,4,1,0,10,0,0
174415,-133.333333333333,4,1,0,50,0,0
175723,-133.333333333333,4,1,0,10,0,0
175810,-133.333333333333,4,1,0,50,0,0
175810,-133.333333333333,4,1,0,10,0,0
177555,-133.333333333333,4,1,0,10,0,0
177903,-100,4,1,0,50,0,0
178776,-100,4,1,0,10,0,0
178950,-100,4,1,0,50,0,0
181479,-100,4,1,0,10,0,0
181741,-100,4,1,0,50,0,0
184183,-133.333333333333,4,3,0,60,0,0
184280,-133.333333333333,4,3,0,10,0,0
184531,-133.333333333333,4,1,0,50,0,0
185665,-133.333333333333,4,1,0,10,0,0
185927,-133.333333333333,4,1,0,50,0,0
187060,-133.333333333333,4,1,0,10,0,0
187322,-100,4,1,0,50,0,0
188456,-100,4,1,0,10,0,0
188717,-100,4,1,0,50,0,0
189938,-100,4,1,0,10,0,0
190113,-100,4,1,0,50,0,0
192206,-133.333333333333,4,1,0,50,0,0
192380,-133.333333333333,4,1,0,10,0,0
192555,-100,4,1,0,50,0,0
193688,-100,4,1,0,10,0,0
193776,-100,4,1,0,50,0,0
195345,-86.9565217391304,4,1,0,60,0,0
198834,-133.333333333333,4,1,0,60,0,0
199619,-133.333333333333,4,1,0,10,0,0
199880,-100,4,1,0,60,0,0
200927,-95.2380952380952,4,1,0,70,0,1
207729,-95.2380952380952,4,1,0,10,0,1
207903,-95.2380952380952,4,1,0,70,0,1
209124,-95.2380952380952,4,1,0,10,0,1
209299,-95.2380952380952,4,1,0,70,0,1
210520,-95.2380952380952,4,1,0,10,0,1
210694,-95.2380952380952,4,1,0,70,0,1
211915,-95.2380952380952,4,1,0,10,0,1
212089,-95.2380952380952,4,1,0,70,0,1
217671,-86.9565217391304,4,1,0,70,0,0
221857,-100,4,1,0,70,0,0
239996,-90.9090909090909,4,1,0,60,0,0
244270,-90.9090909090909,4,1,0,10,0,0
244444,-90.9090909090909,4,1,0,65,0,0
245578,-100,4,1,0,60,0,0
245665,-100,4,1,0,10,0,0
245927,-133.333333333333,4,1,0,60,0,0
246101,-133.333333333333,4,1,0,10,0,0
246450,-133.333333333333,4,1,0,50,0,0
246624,-133.333333333333,4,1,0,10,0,0
246973,-133.333333333333,4,1,0,50,0,0
247148,-133.333333333333,4,1,0,10,0,0
247496,-100,4,1,0,50,0,0
248368,-100,4,1,0,70,0,1
251857,-90.9090909090909,4,1,0,70,0,1
252380,-90.9090909090909,4,1,0,10,0,1
252555,-90.9090909090909,4,1,0,70,0,1
252729,-90.9090909090909,4,1,0,10,0,1
252903,-90.9090909090909,4,1,0,70,0,1
253078,-90.9090909090909,4,1,0,10,0,1
253252,-90.9090909090909,4,1,0,70,0,1
253775,-90.9090909090909,4,1,0,10,0,1
253950,-90.9090909090909,4,1,0,70,0,1
254124,-90.9090909090909,4,1,0,10,0,1
254299,-90.9090909090909,4,1,0,70,0,1
254473,-90.9090909090909,4,1,0,10,0,1
254648,-90.9090909090909,4,1,0,70,0,1
255171,-90.9090909090909,4,1,0,10,0,1
255345,-100,4,1,0,70,0,1
256043,-90.9090909090909,4,1,0,70,0,1
256566,-90.9090909090909,4,1,0,10,0,1
256741,-90.9090909090909,4,1,0,70,0,1
260229,-133.333333333333,4,1,0,70,0,1
260578,-100,4,1,0,70,0,1
262322,-83.3333333333333,4,1,0,60,0,0
266508,-100,4,1,0,60,0,0
266599,-100,4,1,0,10,0,0
266857,-100,4,1,0,60,0,0
268078,-100,4,1,0,10,0,0
268165,-100,4,1,0,60,0,0
284647,-76.9230769230769,4,1,0,70,0,0
288310,-76.9230769230769,4,1,0,60,0,0
288397,-76.9230769230769,4,1,0,50,0,0
288485,-76.9230769230769,4,1,0,40,0,0
288572,-76.9230769230769,4,1,0,30,0,0
288659,-76.9230769230769,4,1,0,20,0,0
288746,-76.9230769230769,4,1,0,10,0,0
288834,-76.9230769230769,4,1,0,5,0,0
290229,-133.333333333333,4,1,0,40,0,0
290316,-133.333333333333,4,1,0,10,0,0
290491,-133.333333333333,4,1,0,40,0,0
290578,-133.333333333333,4,1,0,10,0,0
290752,-133.333333333333,4,1,0,40,0,0
290927,-133.333333333333,4,1,0,10,0,0
293020,-133.333333333333,4,1,0,40,0,0
293107,-133.333333333333,4,1,0,10,0,0
293281,-133.333333333333,4,1,0,40,0,0
293368,-133.333333333333,4,1,0,10,0,0
293543,-133.333333333333,4,1,0,40,0,0
293717,-133.333333333333,4,1,0,10,0,0
295810,-100,4,1,0,40,0,0
295897,-100,4,1,0,10,0,0
296072,-100,4,1,0,40,0,0
296159,-100,4,1,0,10,0,0
296334,-100,4,1,0,40,0,0
296508,-100,4,1,0,10,0,0
297206,-100,4,1,0,40,0,0
297293,-100,4,1,0,10,0,0
297467,-100,4,1,0,40,0,0
297554,-100,4,1,0,10,0,0
297729,-100,4,1,0,40,0,0
297903,-100,4,1,0,10,0,0
298601,-100,4,1,0,40,0,0
298688,-100,4,1,0,10,0,0
298863,-100,4,1,0,40,0,0
298950,-100,4,1,0,10,0,0
299124,-100,4,1,0,40,0,0
299299,-100,4,1,0,10,0,0
301392,-100,4,1,0,40,0,0
301479,-100,4,1,0,10,0,0
301653,-100,4,1,0,40,0,0
301740,-100,4,1,0,10,0,0
301915,-133.333333333333,4,1,0,40,0,0
302089,-133.333333333333,4,1,0,10,0,0
304182,-100,4,1,0,40,0,0
304270,-100,4,1,0,10,0,0
304444,-100,4,1,0,40,0,0
304531,-100,4,1,0,10,0,0
304706,-133.333333333333,4,1,0,40,0,0
304880,-133.333333333333,4,1,0,10,0,0
306973,-100,4,1,0,40,0,0
307060,-100,4,1,0,10,0,0
307235,-100,4,1,0,40,0,0
307322,-100,4,1,0,10,0,0
307496,-100,4,1,0,40,0,0
307671,-100,4,1,0,10,0,0
308368,-100,4,1,0,40,0,0
308456,-100,4,1,0,10,0,0
308630,-100,4,1,0,40,0,0
308717,-100,4,1,0,10,0,0
308892,-100,4,1,0,40,0,0
309066,-100,4,1,0,10,0,0
310200,-100,4,1,0,80,0,0
310461,-100,4,1,0,70,0,0
310810,-100,4,1,0,60,0,0
311159,-100,4,1,0,50,0,0
311508,-100,4,1,0,40,0,0
311857,-100,4,1,0,30,0,0
312206,-100,4,1,0,20,0,0
312380,-100,4,1,0,10,0,0
312554,-100,4,1,0,5,0,0

[HitObjects]
272,276,694,5,0,0:0:0:0:
272,276,1043,1,0,0:0:0:0:
192,136,1741,5,0,0:0:0:0:
192,136,2090,1,0,0:0:0:0:
192,136,2264,1,0,0:0:0:0:
340,156,2787,5,0,0:0:0:0:
340,156,3485,1,0,0:0:0:0:
340,156,3834,1,0,0:0:0:0:
160,152,4357,2,0,L|172:200,1,33.7500012874604
104,216,4532,2,0,L|96:272,3,33.7500012874604
152,308,4880,1,0,0:0:0:0:
272,276,5229,5,0,0:0:0:0:
304,265,5316,1,0,0:0:0:0:
338,272,5404,2,0,L|358:260,1,16.8750006437302
372,276,5491,2,0,L|400:264,1,22.5
408,288,5578,1,0,0:0:0:0:
284,52,6276,5,0,0:0:0:0:
284,52,6625,1,0,0:0:0:0:
52,172,7322,1,0,0:0:0:0:
284,52,7671,1,0,0:0:0:0:
52,172,7846,1,0,0:0:0:0:
324,216,8369,5,0,0:0:0:0:
456,336,8718,1,0,0:0:0:0:
324,216,8892,1,0,0:0:0:0:
324,216,9067,1,0,0:0:0:0:
192,336,9415,5,0,0:0:0:0:
72,172,9939,6,0,L|104:160,1,33.7500012874604
176,108,10113,2,0,L|232:116,1,33.7500012874604
244,180,10287,2,0,L|300:164,1,33.7500012874604
284,92,10462,1,0,0:0:0:0:
315,78,10549,1,0,0:0:0:0:
360,80,10636,2,0,L|372:56,1,22.5
402,94,10724,2,0,L|426:70,1,22.5
440,120,10811,1,0,0:0:0:0:
488,208,10985,6,0,L|512:224,4,22.5
196,244,11857,5,0,0:0:0:0:
240,88,12206,1,0,0:0:0:0:
177,74,12904,5,0,0:0:0:0:
258,361,13253,1,0,0:0:0:0:
177,74,13427,1,0,0:0:0:0:
72,292,13950,5,0,0:0:0:0:
388,216,14648,1,0,0:0:0:0:
228,184,14997,1,0,0:0:0:0:
452,84,15520,6,0,L|392:80,1,40.4999987640381
320,56,15694,2,0,L|268:60,3,40.4999987640381
192,24,16043,2,0,P|188:72|208:120,1,80.9999975280763
304,200,16392,5,0,0:0:0:0:
272,224,16479,1,0,0:0:0:0:
227,232,16567,2,0,L|203:268,1,22.5
176,230,16654,2,0,L|144:254,1,22.5
136,200,16741,1,0,0:0:0:0:
40,68,17439,5,0,0:0:0:0:
120,288,17788,1,0,0:0:0:0:
136,128,18485,5,0,0:0:0:0:
52,344,18834,1,0,0:0:0:0:
136,128,19008,1,0,0:0:0:0:
260,336,19532,5,0,0:0:0:0:
328,104,20055,1,0,0:0:0:0:
328,104,20229,2,0,L|280:88,1,40.4999987640381
208,64,20578,1,0,0:0:0:0:
72,152,21101,6,0,L|84:196,1,40.4999987640381
156,224,21276,2,0,L|144:268,3,40.4999987640381
48,292,21625,5,0,0:0:0:0:
75,326,21712,1,0,0:0:0:0:
120,344,21799,2,0,L|132:376,1,22.5
164,344,21886,2,0,L|180:368,1,22.5
208,340,21973,2,0,L|248:340,1,22.5
256,256,22148,6,0,L|288:240,3,22.5
276,245,22322,2,0,P|327:224|380:234,1,90
435,284,22671,1,0,0:0:0:0:
435,284,22846,2,0,P|453:214|445:182,1,90
328,104,23194,1,0,0:0:0:0:
328,104,23369,2,0,L|216:120,1,90
56,200,23718,1,0,0:0:0:0:
56,200,23892,2,0,L|145:213,1,90
230,340,24241,5,0,0:0:0:0:
230,340,24415,2,0,P|291:328|354:351,2,90
211,205,24939,2,0,P|199:131|218:94,1,90
280,152,26160,6,0,L|328:168,1,45
448,208,26334,1,0,0:0:0:0:
209,202,27206,6,0,P|155:199|94:139,1,135.000005149842
98,147,27904,1,0,0:0:0:0:
176,149,28950,5,0,0:0:0:0:
176,149,29299,2,0,B|241:146|272:61|272:61|258:164|313:210|399:215|457:135|436:52|352:32|296:73|357:137,1,506.250019311906
239,207,30694,2,0,B|293:272|400:246|400:246|278:308|319:416|442:404|489:339|446:256|397:261|379:320,1,506.250019311906
386,303,32090,5,0,0:0:0:0:
272,57,32439,5,0,0:0:0:0:
225,358,32787,5,0,0:0:0:0:
339,111,33136,5,0,0:0:0:0:
474,344,33485,5,0,0:0:0:0:
185,252,33834,5,0,0:0:0:0:
472,344,34008,1,0,0:0:0:0:
114,340,34357,5,0,0:0:0:0:
401,248,34532,1,0,0:0:0:0:
143,167,34880,5,0,0:0:0:0:
440,120,35055,1,0,0:0:0:0:
401,248,35404,6,0,P|446:260|504:249,2,90
288,352,35927,1,0,0:0:0:0:
288,352,36101,2,0,L|173:321,1,90
120,108,37322,6,0,L|170:94,1,40.4999987640381
248,64,37497,1,0,0:0:0:0:
39,154,38194,5,0,0:0:0:0:
39,154,38718,1,0,0:0:0:0:
290,231,39066,6,0,L|344:216,1,45
248,97,40287,5,0,0:0:0:0:
203,89,40374,1,0,0:0:0:0:
159,97,40461,1,0,0:0:0:0:
208,180,41160,2,0,P|215:242|174:313,1,135.000005149842
103,224,41683,5,0,0:0:0:0:
79,186,41770,1,0,0:0:0:0:
81,141,41857,1,0,0:0:0:0:
254,52,42904,5,0,0:0:0:0:
315,171,43253,1,0,0:0:0:0:
447,190,43950,5,0,0:0:0:0:
440,234,44037,1,0,0:0:0:0:
414,271,44125,2,0,L|426:306,1,22.5
376,288,44212,2,0,L|368:320,1,22.5
328,296,44299,1,0,0:0:0:0:
245,247,44473,6,0,L|216:253,4,22.5
42,238,44997,5,0,0:0:0:0:
357,212,45171,1,0,0:0:0:0:
132,164,45520,5,0,0:0:0:0:
447,190,45694,1,0,0:0:0:0:
256,144,46043,6,0,P|209:131|157:142,1,90
221,339,46392,5,0,0:0:0:0:
371,66,46566,1,0,0:0:0:0:
404,325,46915,5,0,0:0:0:0:
254,52,47089,1,0,0:0:0:0:
227,250,47439,6,0,P|217:307|225:353,1,90
447,190,47787,5,0,0:0:0:0:
89,306,47962,1,0,0:0:0:0:
489,279,48311,5,0,0:0:0:0:
131,163,48486,1,0,0:0:0:0:
360,160,48834,6,0,L|459:167,1,90
394,314,49183,5,0,0:0:0:0:
219,170,49357,1,0,0:0:0:0:
184,333,49706,5,0,0:0:0:0:
359,189,49880,1,0,0:0:0:0:
131,163,50229,6,0,P|120:120|124:66,1,90
266,71,50578,5,0,0:0:0:0:
14,192,50753,1,0,0:0:0:0:
370,176,51101,5,0,0:0:0:0:
124,73,51276,1,0,0:0:0:0:
371,66,51625,6,0,L|483:50,1,90
400,240,51973,5,0,0:0:0:0:
240,32,52148,1,0,0:0:0:0:
211,274,52497,5,0,0:0:0:0:
371,66,52672,1,0,0:0:0:0:
400,240,53020,6,0,P|404:297|386:331,1,90
184,333,53369,5,0,0:0:0:0:
160,152,53543,1,0,0:0:0:0:
320,272,53892,5,0,0:0:0:0:
344,91,54066,1,0,0:0:0:0:
171,247,54415,6,0,P|168:300|193:343,1,90
400,240,54764,5,0,0:0:0:0:
93,82,54938,1,0,0:0:0:0:
232,144,55113,6,0,P|256:160|272:168,1,45
312,104,55287,2,0,P|368:104|384:112,3,45
395,266,55636,6,0,L|356:269,4,22.5
217,183,56159,5,0,0:0:0:0:
37,289,56334,1,0,0:0:0:0:
37,289,56683,5,0,0:0:0:0:
304,167,56857,1,0,0:0:0:0:
173,35,57206,5,0,0:0:0:0:
238,278,57380,1,0,0:0:0:0:
177,35,57729,5,0,0:0:0:0:
183,332,57904,1,0,0:0:0:0:
219,202,58078,1,0,0:0:0:0:
318,293,58253,1,0,0:0:0:0:
328,158,58427,1,0,0:0:0:0:
436,204,58601,6,0,P|445:147|413:76,1,135.000005149842
193,146,59648,6,0,L|142:155,1,33.7500012874604
88,165,59822,1,0,0:0:0:0:
381,74,60520,2,0,L|431:79,1,33.7500012874604
310,259,61043,2,0,L|322:315,1,33.7500012874604
202,124,61392,5,0,0:0:0:0:
158,132,61479,1,0,0:0:0:0:
125,161,61566,1,0,0:0:0:0:
113,204,61653,1,0,0:0:0:0:
126,247,61740,1,0,0:0:0:0:
159,276,61828,1,0,0:0:0:0:
193,312,61915,5,0,0:0:0:0:
211,271,62002,1,0,0:0:0:0:
244,240,62089,1,0,0:0:0:0:
286,225,62176,1,0,0:0:0:0:
331,229,62263,1,0,0:0:0:0:
370,249,62351,1,0,0:0:0:0:
388,295,62439,5,0,0:0:0:0:
344,285,62526,1,0,0:0:0:0:
312,255,62613,1,0,0:0:0:0:
300,212,62700,1,0,0:0:0:0:
313,169,62787,1,0,0:0:0:0:
345,138,62875,1,0,0:0:0:0:
389,116,62962,5,0,0:0:0:0:
355,88,63049,1,0,0:0:0:0:
311,76,63136,1,0,0:0:0:0:
267,84,63223,1,0,0:0:0:0:
230,109,63310,1,0,0:0:0:0:
207,147,63398,1,0,0:0:0:0:
204,196,63485,5,0,0:0:0:0:
241,172,63572,1,0,0:0:0:0:
257,131,63659,1,0,0:0:0:0:
245,88,63746,1,0,0:0:0:0:
211,61,63833,1,0,0:0:0:0:
167,59,63921,1,0,0:0:0:0:
126,87,64008,5,0,0:0:0:0:
97,120,64095,1,0,0:0:0:0:
94,164,64182,1,0,0:0:0:0:
118,201,64269,1,0,0:0:0:0:
160,215,64356,1,0,0:0:0:0:
202,201,64444,1,0,0:0:0:0:
241,170,64532,5,0,0:0:0:0:
248,214,64619,1,0,0:0:0:0:
275,250,64706,1,0,0:0:0:0:
316,267,64793,1,0,0:0:0:0:
360,263,64880,1,0,0:0:0:0:
397,239,64968,1,0,0:0:0:0:
406,190,65055,5,0,0:0:0:0:
381,153,65142,1,0,0:0:0:0:
344,129,65229,1,0,0:0:0:0:
300,120,65316,1,0,0:0:0:0:
256,128,65403,1,0,0:0:0:0:
218,152,65491,1,0,0:0:0:0:
189,192,65578,2,0,P|182:233|193:264,1,45
289,235,65927,5,0,0:0:0:0:
289,235,66014,1,0,0:0:0:0:
289,235,66101,2,0,P|293:287|290:301,1,45
146,295,66276,2,0,P|146:272|150:250,1,45
217,186,66450,2,0,P|216:163|212:141,1,45
121,117,66625,2,0,P|152:67|193:52,1,90
302,106,66973,6,0,L|401:84,1,90
395,221,67322,2,0,L|411:312,1,90
275,294,67671,2,0,P|187:276|151:291,1,90
55,257,68020,2,0,L|74:158,1,90
200,141,68369,2,0,L|175:43,1,90
302,106,68718,2,0,B|357:109|357:109|416:131,1,90
278,219,69066,2,0,P|234:240|168:237,1,90
179,239,69328,1,0,0:0:0:0:
168,234,69415,1,0,0:0:0:0:
275,9,69590,5,0,0:0:0:0:
398,139,69764,1,0,0:0:0:0:
220,172,69939,1,0,0:0:0:0:
294,21,70113,1,0,0:0:0:0:
423,157,70287,1,0,0:0:0:0:
236,191,70462,1,0,0:0:0:0:
320,29,70636,1,0,0:0:0:0:
445,181,70811,2,0,B|449:233|449:233|440:284,1,90
145,202,71159,5,0,0:0:0:0:
358,228,71334,1,0,0:0:0:0:
145,202,71508,1,0,0:0:0:0:
358,228,71683,1,0,0:0:0:0:
178,136,71857,2,0,P|129:132|93:152,1,90
238,259,72206,2,0,L|335:282,1,90
323,118,72555,2,0,L|319:17,1,90
178,136,72904,2,0,B|124:120|124:120|92:90,1,90
191,44,73252,5,0,0:0:0:0:
231,24,73339,1,0,0:0:0:0:
275,19,73426,1,0,0:0:0:0:
319,28,73513,1,0,0:0:0:0:
360,47,73601,2,0,P|398:76|418:127,1,90
252,170,73950,6,0,L|237:264,1,90
55,257,74299,2,0,L|79:353,1,90
160,328,74648,5,0,0:0:0:0:
199,348,74735,1,0,0:0:0:0:
244,352,74822,1,0,0:0:0:0:
286,339,74909,1,0,0:0:0:0:
328,320,74997,2,0,P|360:288|368:240,1,90
264,232,75345,6,0,P|240:176|248:120,1,90
347,136,75694,2,0,L|363:24,1,90
168,64,76043,5,0,0:0:0:0:
123,71,76130,1,0,0:0:0:0:
87,96,76217,1,0,0:0:0:0:
64,135,76304,1,0,0:0:0:0:
56,176,76392,2,0,P|56:232|88:272,1,90
200,200,76741,6,0,L|312:176,1,90
288,218,77090,2,0,L|176:194,1,90
208,280,77439,5,0,0:0:0:0:
248,300,77526,1,0,0:0:0:0:
292,305,77613,1,0,0:0:0:0:
336,296,77700,1,0,0:0:0:0:
368,264,77787,2,0,P|384:200|368:168,1,90
178,136,78136,6,0,L|162:32,1,90
347,136,78485,5,0,0:0:0:0:
56,224,78659,1,0,0:0:0:0:
56,224,78834,1,0,0:0:0:0:
178,136,79008,5,0,0:0:0:0:
469,224,79182,1,0,0:0:0:0:
469,224,79357,1,0,0:0:0:0:
328,352,79532,5,0,0:0:0:0:
256,48,79706,1,0,0:0:0:0:
199,239,79880,6,0,P|191:287|199:335,1,90
381,245,80229,2,0,L|477:221,1,90
248,160,80578,2,0,P|184:152|144:168,1,90
56,224,80927,2,0,P|32:152|96:64,1,180
248,160,81450,5,0,0:0:0:0:
248,160,81625,2,0,L|335:181,1,90
283,316,81973,1,0,0:0:0:0:
283,316,82148,2,0,P|227:332|171:316,1,90
160,159,82497,5,0,0:0:0:0:
256,56,82671,1,0,0:0:0:0:
335,181,82845,1,0,0:0:0:0:
176,104,83020,2,0,P|168:40|184:0,1,90
424,136,83369,2,0,P|432:200|416:240,1,90
224,248,83718,5,0,0:0:0:0:
180,239,83805,1,0,0:0:0:0:
135,245,83892,1,0,0:0:0:0:
96,266,83979,1,0,0:0:0:0:
66,299,84066,1,0,0:0:0:0:
48,340,84154,1,0,0:0:0:0:
56,376,84241,5,0,0:0:0:0:
95,355,84328,1,0,0:0:0:0:
119,318,84415,1,0,0:0:0:0:
121,274,84502,1,0,0:0:0:0:
100,234,84589,1,0,0:0:0:0:
62,211,84677,1,0,0:0:0:0:
40,176,84764,5,0,0:0:0:0:
35,131,84851,1,0,0:0:0:0:
51,90,84938,1,0,0:0:0:0:
85,61,85025,1,0,0:0:0:0:
129,51,85112,1,0,0:0:0:0:
171,63,85200,1,0,0:0:0:0:
208,96,85287,5,0,0:0:0:0:
223,137,85374,1,0,0:0:0:0:
258,165,85461,1,0,0:0:0:0:
302,171,85548,1,0,0:0:0:0:
343,155,85635,1,0,0:0:0:0:
371,120,85723,1,0,0:0:0:0:
368,72,85811,5,0,0:0:0:0:
341,36,85898,1,0,0:0:0:0:
300,20,85985,1,0,0:0:0:0:
257,31,86072,1,0,0:0:0:0:
227,64,86159,1,0,0:0:0:0:
221,108,86247,1,0,0:0:0:0:
240,152,86334,5,0,0:0:0:0:
273,180,86421,1,0,0:0:0:0:
291,221,86508,1,0,0:0:0:0:
289,266,86595,1,0,0:0:0:0:
267,305,86682,1,0,0:0:0:0:
230,330,86770,1,0,0:0:0:0:
184,328,86857,5,0,0:0:0:0:
144,308,86944,1,0,0:0:0:0:
121,270,87031,1,0,0:0:0:0:
123,226,87118,1,0,0:0:0:0:
150,190,87205,1,0,0:0:0:0:
191,176,87293,1,0,0:0:0:0:
232,184,87380,5,0,0:0:0:0:
266,211,87467,1,0,0:0:0:0:
309,223,87554,1,0,0:0:0:0:
354,217,87641,1,0,0:0:0:0:
392,194,87728,1,0,0:0:0:0:
418,158,87816,1,0,0:0:0:0:
424,112,87904,2,0,P|424:88|416:64,1,45
328,96,88252,5,0,0:0:0:0:
328,96,88340,1,0,0:0:0:0:
328,96,88427,2,0,P|280:96|264:104,1,45
296,192,88601,2,0,P|273:194|251:190,1,45
248,72,88776,2,0,P|200:72|184:80,1,45
184,152,88950,5,0,0:0:0:0:
147,126,89037,1,0,0:0:0:0:
103,117,89124,1,0,0:0:0:0:
59,126,89211,1,0,0:0:0:0:
24,152,89299,6,0,P|8:200|24:248,1,90
200,256,89648,2,0,L|304:240,1,90
418,158,89997,2,0,L|314:142,1,90
160,24,90345,5,0,0:0:0:0:
200,256,90520,1,0,0:0:0:0:
328,96,90694,5,0,0:0:0:0:
288,328,90869,1,0,0:0:0:0:
155,134,91043,2,0,P|99:126|59:142,1,90
120,224,91392,5,0,0:0:0:0:
240,360,91566,1,0,0:0:0:0:
288,184,91741,1,0,0:0:0:0:
136,216,91915,1,0,0:0:0:0:
264,368,92090,2,0,P|320:376|360:360,1,90
304,224,92438,6,0,L|296:112,1,90
155,134,92787,2,0,L|163:22,1,90
330,68,93136,2,0,P|386:60|434:76,1,90
392,272,93485,5,0,0:0:0:0:
238,92,93659,1,0,0:0:0:0:
224,312,93834,5,0,0:0:0:0:
378,132,94008,1,0,0:0:0:0:
312,312,94183,5,0,0:0:0:0:
158,132,94357,1,0,0:0:0:0:
130,302,94532,5,0,0:0:0:0:
330,68,94706,1,0,0:0:0:0:
392,272,94880,6,0,P|392:328|384:360,1,90
224,312,95229,2,0,L|104:296,1,90
200,136,95578,2,0,P|200:80|184:48,1,90
48,128,95927,2,0,P|45:172|62:213,1,90
224,136,96276,2,0,L|344:120,1,90
440,256,96625,2,0,L|320:240,1,90
224,136,96973,2,0,P|168:136|136:152,1,90
184,328,97322,5,0,0:0:0:0:
80,40,97497,1,0,0:0:0:0:
40,384,97671,5,0,0:0:0:0:
144,96,97846,1,0,0:0:0:0:
184,328,98020,2,0,P|240:336|288:320,1,90
360,104,98369,5,0,0:0:0:0:
184,64,98543,1,0,0:0:0:0:
232,240,98718,1,0,0:0:0:0:
376,72,98892,1,0,0:0:0:0:
147,20,99066,1,0,0:0:0:0:
209,248,99241,1,0,0:0:0:0:
336,128,99415,2,0,P|336:64|328:32,1,90
114,118,99764,5,0,0:0:0:0:
114,118,99851,1,0,0:0:0:0:
114,118,99938,6,0,P|138:150|154:158,1,40.4999987640381
224,192,100113,1,0,0:0:0:0:
224,192,100200,1,0,0:0:0:0:
224,192,100287,2,0,P|200:224|184:232,1,40.4999987640381
350,244,100462,2,0,P|414:228|454:236,1,90
408,352,100811,1,0,0:0:0:0:
264,88,100985,1,0,0:0:0:0:
120,272,101159,2,0,P|120:328|144:368,1,90
352,120,101508,2,0,P|352:64|328:24,1,90
152,112,101857,5,0,0:0:0:0:
271,328,102032,1,0,0:0:0:0:
253,141,102206,1,0,0:0:0:0:
134,357,102381,1,0,0:0:0:0:
350,244,102555,1,0,0:0:0:0:
0,296,102729,1,0,0:0:0:0:
208,120,102904,6,0,P|256:88|296:88,1,90
350,244,103252,2,0,L|462:268,1,90
222,338,103601,2,0,L|110:362,1,90
88,184,103950,5,0,0:0:0:0:
192,32,104125,1,0,0:0:0:0:
280,192,104299,1,0,0:0:0:0:
88,216,104473,1,0,0:0:0:0:
216,32,104648,2,0,P|272:16|320:24,1,90
384,304,104997,5,0,0:0:0:0:
280,120,105171,1,0,0:0:0:0:
248,376,105345,1,0,0:0:0:0:
372,155,105519,1,0,0:0:0:0:
336,368,105694,1,0,0:0:0:0:
190,110,105868,1,0,0:0:0:0:
256,248,106043,5,0,0:0:0:0:
217,269,106130,1,0,0:0:0:0:
172,276,106217,1,0,0:0:0:0:
129,266,106304,1,0,0:0:0:0:
91,241,106391,1,0,0:0:0:0:
66,205,106479,1,0,0:0:0:0:
56,160,106566,5,0,0:0:0:0:
60,115,106653,1,0,0:0:0:0:
87,80,106740,1,0,0:0:0:0:
128,62,106827,1,0,0:0:0:0:
172,68,106914,1,0,0:0:0:0:
207,95,107002,1,0,0:0:0:0:
224,136,107090,5,0,0:0:0:0:
232,179,107177,1,0,0:0:0:0:
259,215,107264,1,0,0:0:0:0:
299,234,107351,1,0,0:0:0:0:
344,235,107438,1,0,0:0:0:0:
384,215,107526,1,0,0:0:0:0:
400,176,107613,5,0,0:0:0:0:
361,154,107700,1,0,0:0:0:0:
316,155,107787,1,0,0:0:0:0:
280,180,107874,1,0,0:0:0:0:
262,221,107961,1,0,0:0:0:0:
268,265,108049,1,0,0:0:0:0:
296,304,108136,5,0,0:0:0:0:
334,325,108223,1,0,0:0:0:0:
379,324,108310,1,0,0:0:0:0:
416,299,108397,1,0,0:0:0:0:
435,259,108484,1,0,0:0:0:0:
431,215,108572,5,0,0:0:0:0:
416,176,108659,1,0,0:0:0:0:
384,144,108747,1,0,0:0:0:0:
352,120,108834,1,0,0:0:0:0:
311,100,108921,1,0,0:0:0:0:
267,95,109008,1,0,0:0:0:0:
223,106,109095,5,0,0:0:0:0:
186,131,109182,1,0,0:0:0:0:
176,168,109269,5,0,0:0:0:0:
184,201,109356,1,0,0:0:0:0:
207,225,109443,1,0,0:0:0:0:
233,241,109531,1,0,0:0:0:0:
263,228,109618,1,0,0:0:0:0:
296,232,109705,1,0,0:0:0:0:
322,254,109792,5,0,0:0:0:0:
334,285,109879,1,0,0:0:0:0:
327,318,109967,1,0,0:0:0:0:
297,337,110055,1,0,0:0:0:0:
266,350,110142,1,0,0:0:0:0:
225,344,110229,6,0,P|185:320|177:304,1,45
95,257,110578,5,0,0:0:0:0:
95,257,110665,1,0,0:0:0:0:
95,257,110752,6,0,P|99:234|96:212,1,45
23,193,110927,2,0,P|23:145|39:129,1,45
95,137,111101,2,0,P|143:121|151:121,1,45
167,193,111276,2,0,P|215:193|255:161,1,90
311,73,111625,6,0,L|319:129,1,45
504,216,111973,2,0,P|480:240|424:248,1,67.5000025749208
448,250,112322,1,0,0:0:0:0:
320,200,112497,2,0,P|256:192|232:200,1,67.5000025749208
254,192,112845,1,0,0:0:0:0:
168,296,113020,2,0,P|144:320|88:328,1,67.5000025749208
112,330,113369,1,0,0:0:0:0:
96,200,113543,2,0,L|80:112,2,67.5000025749208
265,120,114066,2,0,P|313:104|385:120,1,90
328,224,114415,6,0,P|328:288|312:336,1,90
184,214,114764,2,0,L|88:198,1,90
351,106,115113,2,0,L|439:91,1,90
153,72,115462,2,0,L|57:56,1,90
248,48,115811,5,0,0:0:0:0:
321,312,115985,1,0,0:0:0:0:
312,112,116159,5,0,0:0:0:0:
239,376,116333,1,0,0:0:0:0:
296,24,116508,5,0,0:0:0:0:
383,340,116682,1,0,0:0:0:0:
216,16,116857,5,0,0:0:0:0:
118,367,117031,1,0,0:0:0:0:
320,176,117206,6,0,P|384:160|424:176,1,90
321,312,117555,2,0,B|273:320|273:320|201:304,1,90
184,144,117904,5,0,0:0:0:0:
140,151,117991,1,0,0:0:0:0:
102,176,118078,1,0,0:0:0:0:
77,213,118165,1,0,0:0:0:0:
64,256,118252,6,0,P|64:312|96:352,1,90
240,200,118601,2,0,P|260:160|257:116,1,90
112,112,118950,2,0,B|104:64|104:64|112:16,1,90
224,16,119299,5,0,0:0:0:0:
268,12,119386,1,0,0:0:0:0:
311,25,119473,1,0,0:0:0:0:
345,54,119560,1,0,0:0:0:0:
368,96,119648,6,0,P|376:144|344:192,1,90
240,200,119997,2,0,P|232:248|264:296,1,90
392,304,120345,2,0,B|376:352|376:352|344:384,1,90
240,200,120694,5,0,0:0:0:0:
205,171,120781,1,0,0:0:0:0:
163,156,120868,1,0,0:0:0:0:
118,156,120955,1,0,0:0:0:0:
72,168,121043,6,0,P|32:200|24:240,1,90
249,283,121392,2,0,L|345:267,1,90
195,141,121741,2,0,B|144:136|144:136|91:109,1,90
320,80,122090,5,0,0:0:0:0:
364,86,122177,1,0,0:0:0:0:
400,112,122264,1,0,0:0:0:0:
421,151,122351,1,0,0:0:0:0:
432,192,122438,2,0,P|432:240|400:280,1,90
136,168,122787,5,0,0:0:0:0:
256,352,122962,1,0,0:0:0:0:
256,352,123136,1,0,0:0:0:0:
280,96,123311,1,0,0:0:0:0:
104,240,123485,5,0,0:0:0:0:
448,240,123659,1,0,0:0:0:0:
448,240,123834,1,0,0:0:0:0:
110,23,124008,1,0,0:0:0:0:
280,96,124183,6,0,P|336:112|376:104,1,90
136,168,124531,2,0,L|144:272,1,90
264,240,124880,2,0,P|312:216|368:232,1,90
366,107,125229,2,0,P|382:59|366:11,1,90
223,60,125578,6,0,P|151:68|103:132,1,135.000005149842
208,160,126101,5,0,0:0:0:0:
208,160,126276,2,0,P|224:224|208:264,1,90
168,340,126624,2,0,B|216:356|216:356|280:348,1,90
370,252,126973,2,0,P|426:236|482:252,1,90
293,188,127322,6,0,L|197:156,1,90
207,159,127671,2,0,L|303:127,1,90
292,130,128020,2,0,L|196:98,1,90
372,21,128369,5,0,0:0:0:0:
413,38,128456,1,0,0:0:0:0:
442,71,128543,1,0,0:0:0:0:
453,114,128630,1,0,0:0:0:0:
444,158,128717,1,0,0:0:0:0:
416,193,128805,1,0,0:0:0:0:
384,224,128892,5,0,0:0:0:0:
348,197,128979,1,0,0:0:0:0:
305,184,129066,1,0,0:0:0:0:
260,187,129153,1,0,0:0:0:0:
219,204,129240,1,0,0:0:0:0:
186,235,129328,1,0,0:0:0:0:
192,280,129415,5,0,0:0:0:0:
226,308,129502,1,0,0:0:0:0:
270,310,129589,1,0,0:0:0:0:
307,286,129676,1,0,0:0:0:0:
323,245,129763,1,0,0:0:0:0:
312,202,129851,1,0,0:0:0:0:
288,160,129938,5,0,0:0:0:0:
247,177,130025,1,0,0:0:0:0:
202,177,130112,1,0,0:0:0:0:
161,159,130199,1,0,0:0:0:0:
132,125,130286,1,0,0:0:0:0:
119,82,130374,1,0,0:0:0:0:
136,40,130462,5,0,0:0:0:0:
177,23,130549,1,0,0:0:0:0:
221,27,130636,1,0,0:0:0:0:
258,52,130723,1,0,0:0:0:0:
279,92,130810,1,0,0:0:0:0:
278,136,130898,1,0,0:0:0:0:
256,176,130985,5,0,0:0:0:0:
233,214,131072,1,0,0:0:0:0:
234,258,131159,1,0,0:0:0:0:
258,296,131246,1,0,0:0:0:0:
297,316,131333,1,0,0:0:0:0:
342,312,131421,1,0,0:0:0:0:
384,296,131508,5,0,0:0:0:0:
405,256,131595,1,0,0:0:0:0:
408,212,131682,1,0,0:0:0:0:
393,170,131769,1,0,0:0:0:0:
360,139,131856,1,0,0:0:0:0:
318,125,131944,1,0,0:0:0:0:
272,136,132031,5,0,0:0:0:0:
235,161,132118,1,0,0:0:0:0:
221,202,132205,1,0,0:0:0:0:
235,244,132292,1,0,0:0:0:0:
271,269,132379,1,0,0:0:0:0:
316,267,132467,1,0,0:0:0:0:
360,256,132555,6,0,P|384:224|392:200,1,45
312,192,132904,5,0,0:0:0:0:
312,192,132991,1,0,0:0:0:0:
312,192,133078,2,0,P|304:152|312:128,1,45
384,152,133252,2,0,P|392:112|384:88,1,45
320,80,133427,2,0,P|272:72|248:80,1,45
224,136,133601,5,0,0:0:0:0:
181,122,133688,1,0,0:0:0:0:
136,121,133775,1,0,0:0:0:0:
93,132,133862,1,0,0:0:0:0:
56,160,133950,6,0,P|40:200|48:248,1,90
208,224,134299,2,0,P|272:208|320:224,1,90
384,328,134648,1,0,0:0:0:0:
488,264,134822,1,0,0:0:0:0:
384,240,134997,1,0,0:0:0:0:
488,176,135171,1,0,0:0:0:0:
384,152,135345,2,0,P|384:88|408:64,1,90
408,64,135607,1,0,0:0:0:0:
416,56,135694,1,0,0:0:0:0:
384,152,135869,5,0,0:0:0:0:
276,71,136043,2,0,P|228:63|180:87,1,90
248,200,136392,1,0,0:0:0:0:
109,148,136566,5,0,0:0:0:0:
101,140,136654,1,0,0:0:0:0:
93,132,136741,2,0,P|69:92|69:44,1,90
190,77,137002,1,0,0:0:0:0:
190,77,137090,2,0,P|214:117|214:165,1,90
120,256,137438,6,0,P|168:288|208:288,1,90
294,159,137787,2,0,L|390:151,1,90
488,352,138136,1,0,0:0:0:0:
184,216,138311,1,0,0:0:0:0:
385,219,138485,1,0,0:0:0:0:
81,355,138660,1,0,0:0:0:0:
294,159,138834,2,0,P|302:95|286:55,1,90
264,16,139095,1,0,0:0:0:0:
264,16,139183,1,0,0:0:0:0:
67,49,139357,5,0,0:0:0:0:
192,216,139531,2,0,P|248:256|296:256,1,90
383,151,139880,1,0,0:0:0:0:
488,264,140055,1,0,0:0:0:0:
488,264,140142,1,0,0:0:0:0:
488,264,140229,2,0,P|448:296|400:296,1,90
208,344,140578,5,0,0:0:0:0:
232,112,140752,1,0,0:0:0:0:
424,224,140927,1,0,0:0:0:0:
184,352,141101,1,0,0:0:0:0:
212,73,141275,1,0,0:0:0:0:
443,207,141450,1,0,0:0:0:0:
224,336,141624,2,0,P|160:328|128:304,1,90
80,272,141886,1,0,0:0:0:0:
80,272,141973,1,0,0:0:0:0:
190,77,142148,5,0,0:0:0:0:
383,151,142322,2,0,B|431:135|431:135|479:143,1,90
328,344,142671,1,0,0:0:0:0:
384,56,142845,1,0,0:0:0:0:
192,216,143020,2,0,P|128:200|96:208,1,90
139,314,143369,1,0,0:0:0:0:
83,26,143543,1,0,0:0:0:0:
294,159,143717,6,0,P|302:215|294:247,1,90
139,314,144066,1,0,0:0:0:0:
139,314,144241,1,0,0:0:0:0:
139,314,144415,2,0,B|187:338|187:338|243:346,1,90
321,306,144764,2,0,L|417:298,1,90
424,120,145113,5,0,0:0:0:0:
248,88,145287,1,0,0:0:0:0:
424,120,145462,5,0,0:0:0:0:
248,88,145636,1,0,0:0:0:0:
448,120,145811,2,0,P|496:96|512:56,1,90
496,24,146072,1,0,0:0:0:0:
496,24,146159,1,0,0:0:0:0:
160,120,146334,1,0,0:0:0:0:
313,216,146508,6,0,L|321:312,1,90
105,204,146857,2,0,L|97:293,1,90
264,160,147206,2,0,P|312:144|360:160,1,90
384,176,147467,1,0,0:0:0:0:
384,176,147555,1,0,0:0:0:0:
320,312,147729,5,0,0:0:0:0:
154,60,147904,2,0,P|98:44|58:52,1,90
104,152,148252,2,0,P|112:216|160:248,1,90
248,88,148601,2,0,L|344:64,1,90
368,56,148863,1,0,0:0:0:0:
368,56,148950,1,0,0:0:0:0:
313,216,149124,5,0,0:0:0:0:
97,293,149299,2,0,P|41:309|17:357,1,90
230,312,149648,2,0,L|342:304,1,90
224,208,149997,2,0,P|176:184|128:208,1,90
112,216,150258,1,0,0:0:0:0:
112,216,150345,1,0,0:0:0:0:
440,224,150520,5,0,0:0:0:0:
380,146,150694,5,0,0:0:0:0:
340,117,150781,1,0,0:0:0:0:
291,108,150868,1,0,0:0:0:0:
244,121,150955,1,0,0:0:0:0:
207,153,151042,1,0,0:0:0:0:
188,199,151130,1,0,0:0:0:0:
200,248,151217,5,0,0:0:0:0:
242,271,151304,1,0,0:0:0:0:
288,259,151391,1,0,0:0:0:0:
313,218,151478,1,0,0:0:0:0:
302,171,151565,1,0,0:0:0:0:
262,144,151653,1,0,0:0:0:0:
216,152,151741,5,0,0:0:0:0:
175,124,151828,1,0,0:0:0:0:
160,78,151915,1,0,0:0:0:0:
176,32,152002,1,0,0:0:0:0:
216,5,152089,1,0,0:0:0:0:
265,8,152177,1,0,0:0:0:0:
296,48,152264,5,0,0:0:0:0:
301,96,152351,1,0,0:0:0:0:
323,140,152438,1,0,0:0:0:0:
359,174,152525,1,0,0:0:0:0:
404,194,152612,1,0,0:0:0:0:
453,197,152700,1,0,0:0:0:0:
488,160,152787,5,0,0:0:0:0:
455,123,152874,1,0,0:0:0:0:
407,111,152961,1,0,0:0:0:0:
361,126,153048,1,0,0:0:0:0:
330,164,153135,1,0,0:0:0:0:
325,212,153223,1,0,0:0:0:0:
320,264,153310,5,0,0:0:0:0:
284,298,153397,1,0,0:0:0:0:
237,309,153484,1,0,0:0:0:0:
190,294,153571,1,0,0:0:0:0:
158,257,153658,1,0,0:0:0:0:
150,208,153746,1,0,0:0:0:0:
152,160,153834,5,0,0:0:0:0:
168,113,153921,1,0,0:0:0:0:
204,80,154008,1,0,0:0:0:0:
252,67,154095,1,0,0:0:0:0:
300,76,154182,1,0,0:0:0:0:
338,106,154270,1,0,0:0:0:0:
352,152,154357,5,0,0:0:0:0:
312,122,154444,1,0,0:0:0:0:
264,111,154531,1,0,0:0:0:0:
216,121,154618,1,0,0:0:0:0:
177,151,154705,1,0,0:0:0:0:
153,194,154793,1,0,0:0:0:0:
256,192,154880,12,0,156101,0:0:0:0:
112,104,156276,6,0,B|72:160|120:240|120:240|208:168|280:216|216:352|272:352|384:360|456:336|456:280|456:280|328:296|312:216|256:144|288:72|392:-16|432:96|464:152|400:208,1,1046.25003991127
419,185,159066,2,0,B|371:161|291:193|291:193|363:313|251:377|115:337|184:192|184:192|123:185|89:167|51:145|51:97|51:97|51:41|123:-31|227:65|171:145|107:89,1,906.749958492281
128,102,161857,2,0,B|96:134|136:198|200:206|240:134|240:134|272:86|312:94|376:134|368:214|312:222|248:222|224:246|208:278|224:310,1,506.250019311906
224,288,163252,2,0,B|296:264|376:296|376:296|304:248|248:176|288:80|376:48|416:136|432:192|376:224|376:224,1,506.250019311906
352,160,164648,2,0,B|392:72|288:40|288:40|208:120|288:176|288:176|313:202|248:304|168:344|136:264|128:216|184:184|248:200|288:272|288:272|320:312|281:362|281:362|352:328|401:386|401:386|393:330|441:290|481:290,1,1046.25003991127
455,295,167438,1,0,0:0:0:0:
256,192,167613,12,0,170142,0:0:0:0:
256,192,170229,5,0,0:0:0:0:
256,192,170403,12,0,172933,0:0:0:0:
256,192,173020,5,0,0:0:0:0:
256,192,173194,12,0,174328,0:0:0:0:
256,192,174415,5,0,0:0:0:0:
256,192,174590,12,0,175724,0:0:0:0:
256,192,175810,5,0,0:0:0:0:
256,192,175985,12,0,177555,0:0:0:0:
200,96,177903,5,0,0:0:0:0:
168,80,177991,1,0,0:0:0:0:
128,72,178078,2,0,L|128:112,1,22.5
96,72,178165,2,0,L|80:104,1,22.5
56,80,178252,1,0,0:0:0:0:
120,216,178427,6,0,L|104:240,4,22.5
256,208,178950,5,0,0:0:0:0:
16,376,179124,1,0,0:0:0:0:
256,208,179473,5,0,0:0:0:0:
496,376,179647,1,0,0:0:0:0:
256,208,179996,5,0,0:0:0:0:
176,72,180345,5,0,0:0:0:0:
464,120,180520,1,0,0:0:0:0:
120,200,180869,5,0,0:0:0:0:
408,152,181044,1,0,0:0:0:0:
128,56,181392,6,0,L|80:48,1,45
280,352,181741,5,0,0:0:0:0:
320,72,181915,1,0,0:0:0:0:
280,352,182264,5,0,0:0:0:0:
240,72,182438,1,0,0:0:0:0:
488,288,182787,5,0,0:0:0:0:
104,136,183136,5,0,0:0:0:0:
376,320,183310,1,0,0:0:0:0:
408,152,183659,5,0,0:0:0:0:
136,336,183833,1,0,0:0:0:0:
168,72,184183,6,0,L|168:16,1,33.7500012874604
320,160,184531,5,0,0:0:0:0:
208,360,184706,1,0,0:0:0:0:
320,160,185055,5,0,0:0:0:0:
432,360,185230,1,0,0:0:0:0:
408,72,185578,6,0,L|408:16,1,33.7500012874604
64,200,185927,5,0,0:0:0:0:
328,360,186101,1,0,0:0:0:0:
64,200,186450,5,0,0:0:0:0:
328,40,186624,1,0,0:0:0:0:
144,304,186973,6,0,L|136:360,1,33.7500012874604
312,128,187322,5,0,0:0:0:0:
384,288,187496,1,0,0:0:0:0:
200,272,187845,5,0,0:0:0:0:
312,128,188020,5,0,0:0:0:0:
391,304,188369,6,0,L|408:360,1,45
188,286,188717,5,0,0:0:0:0:
312,128,188892,1,0,0:0:0:0:
432,208,189066,5,0,0:0:0:0:
460,173,189153,1,0,0:0:0:0:
464,128,189241,2,0,L|432:120,1,22.5
464,88,189328,2,0,L|432:88,1,22.5
440,40,189414,1,0,0:0:0:0:
319,43,189590,6,0,L|287:35,4,22.5
288,336,190113,5,0,0:0:0:0:
96,216,190287,1,0,0:0:0:0:
160,352,190636,5,0,0:0:0:0:
208,136,190810,1,0,0:0:0:0:
345,253,191159,5,0,0:0:0:0:
297,37,191333,1,0,0:0:0:0:
184,312,191683,5,0,0:0:0:0:
304,248,191857,1,0,0:0:0:0:
208,160,192031,1,0,0:0:0:0:
311,127,192206,2,0,P|359:111|399:119,1,67.5000025749208
416,376,192555,1,0,0:0:0:0:
240,248,193601,6,0,L|192:240,1,45
128,224,193776,1,0,0:0:0:0:
208,88,194473,5,0,0:0:0:0:
208,88,194996,1,0,0:0:0:0:
432,32,195345,5,0,0:0:0:0:
447,80,195432,1,0,0:0:0:0:
441,131,195519,1,0,0:0:0:0:
415,176,195606,1,0,0:0:0:0:
376,208,195694,1,0,0:0:0:0:
324,203,195781,1,0,0:0:0:0:
276,221,195868,5,0,0:0:0:0:
241,258,195955,1,0,0:0:0:0:
240,312,196043,1,0,0:0:0:0:
269,357,196130,1,0,0:0:0:0:
314,381,196217,1,0,0:0:0:0:
364,372,196304,1,0,0:0:0:0:
399,335,196391,5,0,0:0:0:0:
403,284,196479,1,0,0:0:0:0:
392,232,196566,1,0,0:0:0:0:
343,214,196653,1,0,0:0:0:0:
313,174,196740,1,0,0:0:0:0:
310,123,196827,1,0,0:0:0:0:
335,79,196914,5,0,0:0:0:0:
381,56,197002,1,0,0:0:0:0:
432,80,197089,1,0,0:0:0:0:
448,128,197176,1,0,0:0:0:0:
438,178,197263,1,0,0:0:0:0:
405,217,197350,5,0,0:0:0:0:
357,235,197437,1,0,0:0:0:0:
306,226,197525,1,0,0:0:0:0:
280,184,197613,1,0,0:0:0:0:
239,215,197700,1,0,0:0:0:0:
189,227,197787,1,0,0:0:0:0:
139,216,197874,5,0,0:0:0:0:
98,184,197961,1,0,0:0:0:0:
75,139,198049,1,0,0:0:0:0:
88,88,198136,1,0,0:0:0:0:
123,51,198223,1,0,0:0:0:0:
173,39,198310,1,0,0:0:0:0:
221,57,198397,5,0,0:0:0:0:
251,98,198484,1,0,0:0:0:0:
254,149,198572,1,0,0:0:0:0:
240,200,198659,1,0,0:0:0:0:
208,240,198746,1,0,0:0:0:0:
192,280,198834,5,0,0:0:0:0:
222,265,198921,1,0,0:0:0:0:
255,261,199008,1,0,0:0:0:0:
289,266,199095,1,0,0:0:0:0:
319,280,199182,1,0,0:0:0:0:
344,303,199270,1,0,0:0:0:0:
368,328,199357,1,0,0:0:0:0:
388,301,199444,1,0,0:0:0:0:
400,272,199531,2,0,P|408:224|408:208,1,33.7500012874604
304,224,199880,5,0,0:0:0:0:
304,224,199967,1,0,0:0:0:0:
304,224,200055,2,0,P|296:176|304:160,1,45
376,176,200229,2,0,P|384:128|376:112,1,45
320,104,200403,2,0,P|272:96|240:104,1,45
216,144,200578,2,0,P|168:136|128:104,1,90
24,192,200927,6,0,L|40:312,1,94.499997116089
288,256,201276,1,0,0:0:0:0:
40,280,201450,1,0,0:0:0:0:
224,192,201624,2,0,P|288:168|344:176,1,94.499997116089
400,336,201973,1,0,0:0:0:0:
440,88,202148,1,0,0:0:0:0:
224,192,202322,2,0,P|200:136|216:88,1,94.499997116089
216,56,202584,1,0,0:0:0:0:
216,56,202671,1,0,0:0:0:0:
336,128,202845,5,0,0:0:0:0:
16,232,203020,1,0,0:0:0:0:
135,112,203194,5,0,0:0:0:0:
455,216,203369,2,0,P|472:264|464:312,1,94.499997116089
344,280,203630,1,0,0:0:0:0:
344,280,203717,2,0,L|240:296,1,94.499997116089
224,192,204066,2,0,L|130:177,1,94.499997116089
304,136,204415,2,0,L|397:121,1,94.499997116089
140,86,204764,6,0,P|124:134|132:182,1,94.499997116089
144,224,205026,1,0,0:0:0:0:
144,224,205113,1,0,0:0:0:0:
400,128,205287,5,0,0:0:0:0:
288,0,205462,1,0,0:0:0:0:
208,144,205636,1,0,0:0:0:0:
416,144,205810,1,0,0:0:0:0:
304,16,205985,1,0,0:0:0:0:
224,160,206159,1,0,0:0:0:0:
432,160,206334,1,0,0:0:0:0:
264,16,206508,6,0,P|208:16|160:40,1,94.499997116089
224,192,206857,2,0,L|200:296,1,94.499997116089
80,320,207206,5,0,0:0:0:0:
43,291,207293,1,0,0:0:0:0:
24,248,207380,1,0,0:0:0:0:
16,200,207467,1,0,0:0:0:0:
24,152,207555,6,0,P|48:104|96:80,1,94.499997116089
160,184,207903,2,0,L|264:176,1,94.499997116089
336,104,208252,2,0,L|429:119,1,94.499997116089
376,208,208601,5,0,0:0:0:0:
385,253,208688,1,0,0:0:0:0:
374,299,208775,1,0,0:0:0:0:
345,336,208862,1,0,0:0:0:0:
304,360,208950,6,0,P|248:368|208:352,1,94.499997116089
264,232,209299,2,0,L|256:128,1,94.499997116089
165,124,209648,2,0,L|173:20,1,94.499997116089
272,48,209996,5,0,0:0:0:0:
317,38,210083,1,0,0:0:0:0:
363,49,210170,1,0,0:0:0:0:
399,79,210257,1,0,0:0:0:0:
424,120,210345,6,0,P|440:176|424:216,1,94.499997116089
288,176,210694,2,0,P|232:184|200:224,1,94.499997116089
264,296,211043,2,0,P|228:326|182:329,1,94.499997116089
104,208,211392,5,0,0:0:0:0:
95,161,211479,1,0,0:0:0:0:
105,116,211566,1,0,0:0:0:0:
133,78,211653,1,0,0:0:0:0:
176,56,211741,6,0,P|224:40|272:56,1,94.499997116089
288,176,212089,2,0,P|333:187|377:171,1,94.499997116089
480,24,212438,1,0,0:0:0:0:
345,336,212613,1,0,0:0:0:0:
184,165,212787,2,0,P|136:149|88:165,1,94.499997116089
182,329,213136,5,0,0:0:0:0:
133,78,213310,1,0,0:0:0:0:
182,329,213485,1,0,0:0:0:0:
265,51,213659,1,0,0:0:0:0:
344,208,213834,2,0,P|408:200|448:224,1,94.499997116089
472,240,214095,1,0,0:0:0:0:
472,240,214182,1,0,0:0:0:0:
352,352,214357,5,0,0:0:0:0:
136,200,214531,1,0,0:0:0:0:
384,96,214706,1,0,0:0:0:0:
320,360,214880,6,0,L|224:360,1,94.499997116089
208,160,215229,2,0,P|168:128|104:128,1,94.499997116089
184,256,215578,2,0,P|240:264|288:232,1,94.499997116089
377,170,215927,2,0,L|473:154,1,94.499997116089
355,59,216188,1,0,0:0:0:0:
355,59,216276,2,0,P|307:43|251:59,1,94.499997116089
144,200,216624,6,0,B|104:232|104:232|72:192,1,94.499997116089
272,248,216973,2,0,B|312:216|312:216|344:256,1,94.499997116089
470,154,217322,2,0,L|462:50,1,94.499997116089
304,120,217671,5,0,0:0:0:0:
268,156,217758,1,0,0:0:0:0:
220,176,217845,1,0,0:0:0:0:
169,177,217932,1,0,0:0:0:0:
121,157,218019,1,0,0:0:0:0:
85,120,218107,1,0,0:0:0:0:
88,72,218194,5,0,0:0:0:0:
116,29,218281,1,0,0:0:0:0:
162,7,218368,1,0,0:0:0:0:
213,12,218455,1,0,0:0:0:0:
253,43,218542,1,0,0:0:0:0:
272,91,218630,1,0,0:0:0:0:
264,144,218717,5,0,0:0:0:0:
236,187,218804,1,0,0:0:0:0:
231,238,218891,1,0,0:0:0:0:
250,286,218978,1,0,0:0:0:0:
287,321,219065,1,0,0:0:0:0:
336,336,219153,1,0,0:0:0:0:
384,320,219241,5,0,0:0:0:0:
411,276,219328,1,0,0:0:0:0:
418,226,219415,1,0,0:0:0:0:
403,177,219502,1,0,0:0:0:0:
368,139,219589,1,0,0:0:0:0:
321,120,219677,1,0,0:0:0:0:
272,104,219764,5,0,0:0:0:0:
220,98,219851,1,0,0:0:0:0:
169,103,219938,1,0,0:0:0:0:
119,118,220025,1,0,0:0:0:0:
73,142,220112,1,0,0:0:0:0:
33,174,220200,1,0,0:0:0:0:
16,224,220287,5,0,0:0:0:0:
63,203,220374,1,0,0:0:0:0:
114,201,220461,1,0,0:0:0:0:
162,220,220548,1,0,0:0:0:0:
199,255,220635,1,0,0:0:0:0:
221,302,220723,1,0,0:0:0:0:
192,344,220810,5,0,0:0:0:0:
141,336,220897,1,0,0:0:0:0:
105,299,220984,1,0,0:0:0:0:
98,249,221071,1,0,0:0:0:0:
121,204,221158,1,0,0:0:0:0:
167,182,221246,1,0,0:0:0:0:
216,192,221334,5,0,0:0:0:0:
255,225,221421,1,0,0:0:0:0:
305,237,221508,1,0,0:0:0:0:
354,225,221595,1,0,0:0:0:0:
394,192,221682,1,0,0:0:0:0:
414,145,221770,1,0,0:0:0:0:
416,104,221857,2,0,P|408:48|400:32,1,45
312,88,222206,5,0,0:0:0:0:
312,88,222293,1,0,0:0:0:0:
312,88,222380,2,0,P|256:72|232:80,1,45
240,160,222555,2,0,P|218:154|198:143,1,45
144,72,222729,2,0,P|112:120|112:136,1,45
136,200,222903,2,0,L|128:320,1,90
354,225,223252,6,0,L|466:241,1,90
320,368,223601,1,0,0:0:0:0:
232,208,223775,1,0,0:0:0:0:
376,96,223950,6,0,L|368:-24,1,90
232,120,224299,1,0,0:0:0:0:
384,216,224473,1,0,0:0:0:0:
211,266,224648,6,0,P|147:274|115:322,1,90
296,360,224996,1,0,0:0:0:0:
312,184,225171,1,0,0:0:0:0:
136,136,225345,6,0,P|136:80|160:48,1,90
280,184,225694,1,0,0:0:0:0:
376,32,225869,1,0,0:0:0:0:
448,200,226043,6,0,L|432:304,1,90
264,336,226392,1,0,0:0:0:0:
144,200,226566,1,0,0:0:0:0:
288,88,226741,6,0,P|304:32|288:-24,1,90
136,136,227089,2,0,P|40:152|24:168,1,90
152,296,227438,5,0,0:0:0:0:
328,360,227613,1,0,0:0:0:0:
296,184,227787,1,0,0:0:0:0:
168,288,227962,5,0,0:0:0:0:
368,361,228137,1,0,0:0:0:0:
332,160,228311,1,0,0:0:0:0:
184,280,228485,6,0,P|192:328|232:368,1,90
352,264,228834,2,0,P|408:248|464:256,1,90
216,72,229182,5,0,0:0:0:0:
352,264,229357,1,0,0:0:0:0:
381,129,229531,5,0,0:0:0:0:
217,359,229706,1,0,0:0:0:0:
218,155,229880,2,0,P|170:131|114:147,1,90
40,200,230229,2,0,P|16:136|32:96,1,90
232,32,230578,5,0,0:0:0:0:
129,289,230752,1,0,0:0:0:0:
208,112,230927,5,0,0:0:0:0:
311,369,231101,1,0,0:0:0:0:
381,129,231275,2,0,L|397:25,1,90
160,208,231624,2,0,P|96:216|56:248,1,90
160,336,231973,2,0,P|224:328|264:296,1,90
244,68,232322,5,0,0:0:0:0:
408,328,232496,1,0,0:0:0:0:
394,40,232671,5,0,0:0:0:0:
230,300,232845,1,0,0:0:0:0:
424,208,233020,6,0,L|520:184,1,90
264,128,233368,2,0,L|168:104,1,90
139,296,233717,5,0,0:0:0:0:
139,296,233805,1,0,0:0:0:0:
139,296,233892,2,0,P|171:344|195:352,1,45
248,272,234066,1,0,0:0:0:0:
248,272,234153,1,0,0:0:0:0:
248,272,234241,2,0,P|296:256|328:264,1,45
423,295,234415,6,0,P|431:231|415:191,1,90
264,128,234764,2,0,P|256:64|272:24,1,90
416,200,235113,1,0,0:0:0:0:
208,288,235287,1,0,0:0:0:0:
423,295,235462,6,0,P|479:279|503:239,1,90
336,88,235810,1,0,0:0:0:0:
120,160,235985,1,0,0:0:0:0:
360,168,236159,2,0,P|408:192|432:232,1,90
248,272,236508,6,0,L|152:280,1,90
176,106,236857,2,0,P|168:50|136:18,1,90
40,184,237206,5,0,0:0:0:0:
200,344,237380,1,0,0:0:0:0:
264,128,237555,1,0,0:0:0:0:
41,221,237729,1,0,0:0:0:0:
227,351,237903,1,0,0:0:0:0:
252,127,238078,1,0,0:0:0:0:
40,256,238252,6,0,P|48:312|80:344,1,90
248,272,238601,2,0,L|344:264,1,90
464,256,238950,1,0,0:0:0:0:
248,272,239124,1,0,0:0:0:0:
470,136,239299,2,0,L|374:128,1,90
152,104,239648,1,0,0:0:0:0:
464,136,239822,1,0,0:0:0:0:
240,272,239996,5,0,0:0:0:0:
193,287,240083,1,0,0:0:0:0:
144,282,240170,1,0,0:0:0:0:
102,257,240257,1,0,0:0:0:0:
73,217,240344,1,0,0:0:0:0:
64,169,240432,1,0,0:0:0:0:
80,120,240520,5,0,0:0:0:0:
112,83,240607,1,0,0:0:0:0:
160,71,240694,1,0,0:0:0:0:
206,85,240781,1,0,0:0:0:0:
238,122,240868,1,0,0:0:0:0:
245,170,240956,1,0,0:0:0:0:
240,216,241043,5,0,0:0:0:0:
283,193,241130,1,0,0:0:0:0:
332,195,241217,1,0,0:0:0:0:
374,221,241304,1,0,0:0:0:0:
397,264,241391,1,0,0:0:0:0:
397,313,241479,1,0,0:0:0:0:
360,352,241566,5,0,0:0:0:0:
311,354,241653,1,0,0:0:0:0:
270,327,241740,1,0,0:0:0:0:
253,282,241827,1,0,0:0:0:0:
266,235,241914,1,0,0:0:0:0:
304,204,242002,1,0,0:0:0:0:
352,192,242089,5,0,0:0:0:0:
400,188,242176,1,0,0:0:0:0:
439,159,242263,1,0,0:0:0:0:
456,113,242350,1,0,0:0:0:0:
445,66,242437,1,0,0:0:0:0:
409,32,242525,1,0,0:0:0:0:
360,16,242613,5,0,0:0:0:0:
342,62,242700,1,0,0:0:0:0:
307,95,242787,1,0,0:0:0:0:
260,109,242874,1,0,0:0:0:0:
211,100,242961,1,0,0:0:0:0:
172,71,243049,1,0,0:0:0:0:
120,64,243136,5,0,0:0:0:0:
85,98,243223,1,0,0:0:0:0:
82,146,243310,1,0,0:0:0:0:
111,185,243397,1,0,0:0:0:0:
159,195,243484,1,0,0:0:0:0:
201,171,243572,1,0,0:0:0:0:
248,160,243659,5,0,0:0:0:0:
290,183,243746,1,0,0:0:0:0:
304,229,243833,1,0,0:0:0:0:
283,273,243920,1,0,0:0:0:0:
238,289,244007,1,0,0:0:0:0:
193,271,244095,1,0,0:0:0:0:
176,224,244182,2,0,P|176:176|184:160,1,49.5000015106202
280,152,244531,5,0,0:0:0:0:
280,152,244618,1,0,0:0:0:0:
280,152,244705,2,0,P|280:104|272:88,1,49.5000015106202
192,80,244880,2,0,P|208:32|232:16,1,49.5000015106202
296,16,245055,2,0,P|352:32|368:56,1,49.5000015106202
361,121,245229,2,0,P|409:129|465:105,1,99.0000030212403
176,175,245578,6,0,P|128:183|104:207,1,45
184,312,245927,2,0,P|224:328|264:320,1,67.5000025749208
247,326,246275,1,0,0:0:0:0:
304,229,246450,2,0,P|337:228|367:243,1,67.5000025749208
367,243,246799,1,0,0:0:0:0:
456,176,246973,2,0,P|464:120|448:88,1,67.5000025749208
461,110,247322,1,0,0:0:0:0:
336,111,247496,6,0,P|336:37|360:5,2,90
192,80,248020,2,0,L|72:72,1,90
132,180,248368,2,0,P|132:228|156:284,1,90
367,243,248717,2,0,L|463:227,1,90
336,111,249066,2,0,L|240:95,1,90
192,80,249328,1,0,0:0:0:0:
192,80,249415,1,0,0:0:0:0:
232,256,249589,1,0,0:0:0:0:
336,111,249764,6,0,P|392:79|440:87,1,90
367,243,250113,2,0,P|367:307|351:339,1,90
128,184,250461,2,0,L|16:160,1,90
415,79,250810,2,0,L|527:55,1,90
356,329,251159,5,0,0:0:0:0:
264,56,251334,1,0,0:0:0:0:
244,384,251508,5,0,0:0:0:0:
336,111,251683,1,0,0:0:0:0:
192,264,251857,5,0,0:0:0:0:
145,280,251944,1,0,0:0:0:0:
96,274,252031,1,0,0:0:0:0:
55,248,252118,1,0,0:0:0:0:
32,200,252206,6,0,P|24:152|40:104,1,99.0000030212403
192,128,252555,2,0,P|200:80|184:32,1,99.0000030212403
192,264,252903,2,0,P|248:272|288:256,1,99.0000030212403
336,111,253252,5,0,0:0:0:0:
384,109,253339,1,0,0:0:0:0:
428,130,253426,1,0,0:0:0:0:
457,170,253513,1,0,0:0:0:0:
472,216,253601,6,0,P|472:280|440:320,1,99.0000030212403
232,200,253950,2,0,P|176:184|120:200,1,99.0000030212403
357,330,254299,2,0,L|461:306,1,99.0000030212403
336,111,254648,5,0,0:0:0:0:
294,85,254735,1,0,0:0:0:0:
245,77,254822,1,0,0:0:0:0:
197,89,254909,1,0,0:0:0:0:
152,104,254996,6,0,P|104:144|96:200,1,99.0000030212403
286,256,255345,2,0,P|310:304|310:352,1,90
128,352,255694,1,0,0:0:0:0:
400,248,255868,1,0,0:0:0:0:
245,77,256043,5,0,0:0:0:0:
288,54,256130,1,0,0:0:0:0:
337,46,256217,1,0,0:0:0:0:
386,55,256304,1,0,0:0:0:0:
424,80,256392,6,0,P|464:136|456:184,1,99.0000030212403
192,188,256741,6,0,L|56:172,1,99.0000030212403
224,32,257089,5,0,0:0:0:0:
286,256,257264,1,0,0:0:0:0:
304,64,257438,5,0,0:0:0:0:
229,332,257613,1,0,0:0:0:0:
240,96,257787,5,0,0:0:0:0:
314,364,257962,1,0,0:0:0:0:
93,176,258136,5,0,0:0:0:0:
448,304,258310,1,0,0:0:0:0:
37,272,258485,5,0,0:0:0:0:
392,144,258659,1,0,0:0:0:0:
176,256,258834,6,0,P|168:320|184:360,1,99.0000030212403
384,224,259095,1,0,0:0:0:0:
384,224,259182,2,0,P|440:208|472:152,1,99.0000030212403
245,77,259531,2,0,P|197:53|141:61,1,99.0000030212403
176,208,259880,1,0,0:0:0:0:
176,208,259967,1,0,0:0:0:0:
176,208,260055,1,0,0:0:0:0:
296,144,260229,6,0,P|352:136|416:168,1,101.250003862381
336,248,260578,6,0,P|312:304|272:328,1,90
200,328,260927,5,0,0:0:0:0:
112,304,261101,1,0,0:0:0:0:
64,232,261275,1,0,0:0:0:0:
56,144,261450,1,0,0:0:0:0:
72,56,261624,2,0,P|104:24|168:16,1,90
224,104,261973,2,0,P|255:135|298:147,1,90
384,32,262322,5,0,0:0:0:0:
424,66,262409,1,0,0:0:0:0:
447,115,262496,1,0,0:0:0:0:
447,169,262583,1,0,0:0:0:0:
425,218,262670,1,0,0:0:0:0:
385,253,262758,1,0,0:0:0:0:
336,240,262845,5,0,0:0:0:0:
300,199,262932,1,0,0:0:0:0:
250,180,263019,1,0,0:0:0:0:
197,187,263106,1,0,0:0:0:0:
154,218,263193,1,0,0:0:0:0:
130,266,263281,1,0,0:0:0:0:
144,320,263368,5,0,0:0:0:0:
187,349,263455,1,0,0:0:0:0:
240,344,263542,1,0,0:0:0:0:
277,307,263629,1,0,0:0:0:0:
282,254,263716,1,0,0:0:0:0:
253,211,263804,1,0,0:0:0:0:
240,160,263892,5,0,0:0:0:0:
253,108,263979,1,0,0:0:0:0:
293,74,264066,1,0,0:0:0:0:
346,69,264153,1,0,0:0:0:0:
392,96,264240,1,0,0:0:0:0:
413,145,264328,1,0,0:0:0:0:
416,200,264415,5,0,0:0:0:0:
368,174,264502,1,0,0:0:0:0:
315,168,264589,1,0,0:0:0:0:
264,183,264676,1,0,0:0:0:0:
222,217,264763,1,0,0:0:0:0:
197,264,264851,1,0,0:0:0:0:
152,288,264938,5,0,0:0:0:0:
98,287,265025,1,0,0:0:0:0:
54,258,265112,1,0,0:0:0:0:
32,210,265199,1,0,0:0:0:0:
40,157,265286,1,0,0:0:0:0:
75,117,265374,1,0,0:0:0:0:
128,104,265461,5,0,0:0:0:0:
158,147,265548,1,0,0:0:0:0:
206,169,265635,1,0,0:0:0:0:
259,163,265722,1,0,0:0:0:0:
301,130,265809,1,0,0:0:0:0:
319,80,265897,1,0,0:0:0:0:
360,48,265985,5,0,0:0:0:0:
413,54,266072,1,0,0:0:0:0:
459,81,266159,1,0,0:0:0:0:
492,124,266246,1,0,0:0:0:0:
505,176,266333,1,0,0:0:0:0:
497,229,266421,1,0,0:0:0:0:
480,280,266508,6,0,P|464:304|440:320,1,45
392,240,266857,1,0,0:0:0:0:
392,240,266944,1,0,0:0:0:0:
392,240,267031,2,0,P|352:240|320:248,1,45
344,328,267206,1,0,0:0:0:0:
344,328,267293,1,0,0:0:0:0:
344,327,267380,2,0,P|321:328|299:326,1,45
248,256,267554,5,0,0:0:0:0:
203,259,267641,1,0,0:0:0:0:
163,280,267728,1,0,0:0:0:0:
136,315,267815,1,0,0:0:0:0:
112,352,267903,6,0,P|80:320|80:240,1,90
184,216,268252,2,0,L|200:104,1,90
75,117,268601,2,0,L|59:5,1,90
272,24,268950,1,0,0:0:0:0:
64,24,269124,1,0,0:0:0:0:
301,130,269299,2,0,P|357:130|405:106,1,90
488,64,269560,1,0,0:0:0:0:
488,64,269648,2,0,P|504:128|496:160,1,90
196,126,269996,5,0,0:0:0:0:
432,256,270171,1,0,0:0:0:0:
80,285,270345,5,0,0:0:0:0:
387,117,270520,1,0,0:0:0:0:
248,256,270694,6,0,P|240:320|256:352,1,90
272,368,270956,1,0,0:0:0:0:
272,368,271043,1,0,0:0:0:0:
424,120,271217,1,0,0:0:0:0:
163,107,271392,6,0,P|107:107|59:123,1,90
136,288,271741,1,0,0:0:0:0:
384,176,271915,1,0,0:0:0:0:
344,320,272089,2,0,P|408:328|440:312,1,90
260,177,272351,1,0,0:0:0:0:
260,177,272438,2,0,P|204:193|172:241,1,90
112,352,272787,6,0,L|16:328,1,90
120,104,273136,1,0,0:0:0:0:
249,341,273310,1,0,0:0:0:0:
301,130,273485,2,0,P|301:66|293:42,1,90
272,16,273746,1,0,0:0:0:0:
272,16,273834,1,0,0:0:0:0:
120,200,274008,5,0,0:0:0:0:
384,176,274182,2,0,L|488:200,1,90
336,344,274531,1,0,0:0:0:0:
200,96,274706,1,0,0:0:0:0:
109,264,274880,6,0,P|101:312|117:360,1,90
197,183,275142,1,0,0:0:0:0:
197,183,275229,2,0,P|208:139|199:95,1,90
72,112,275578,1,0,0:0:0:0:
392,32,275752,1,0,0:0:0:0:
115,54,275927,1,0,0:0:0:0:
499,150,276101,1,0,0:0:0:0:
247,167,276275,6,0,P|207:127|199:87,1,90
384,176,276624,1,0,0:0:0:0:
32,210,276799,1,0,0:0:0:0:
328,104,276973,2,0,P|376:88|424:96,1,90
429,318,277322,1,0,0:0:0:0:
136,136,277496,1,0,0:0:0:0:
184,296,277671,2,0,P|150:335|94:351,1,90
72,232,278020,5,0,0:0:0:0:
192,56,278194,1,0,0:0:0:0:
384,176,278368,2,0,L|472:144,1,90
136,136,278717,2,0,L|48:104,1,90
192,16,279066,5,0,0:0:0:0:
336,256,279241,1,0,0:0:0:0:
328,104,279415,5,0,0:0:0:0:
171,365,279590,1,0,0:0:0:0:
200,112,279764,2,0,L|208:16,1,90
416,192,280113,5,0,0:0:0:0:
51,105,280287,1,0,0:0:0:0:
416,192,280461,2,0,P|424:248|416:296,1,90
192,240,280810,2,0,P|128:248|104:272,1,90
248,365,281159,2,0,L|344:341,1,90
200,112,281508,5,0,0:0:0:0:
115,349,281682,1,0,0:0:0:0:
328,104,281857,2,0,P|336:48|328:8,1,90
104,80,282206,1,0,0:0:0:0:
464,32,282380,1,0,0:0:0:0:
245,276,282554,2,0,P|239:320|247:364,1,90
416,192,282903,6,0,L|424:96,1,90
72,184,283252,1,0,0:0:0:0:
408,296,283427,1,0,0:0:0:0:
12,326,283601,1,0,0:0:0:0:
416,192,283776,1,0,0:0:0:0:
112,112,283950,6,0,P|40:104|0:128,1,90
155,282,284299,2,0,L|259:274,1,90
248,160,284647,5,0,0:0:0:0:
298,131,284734,1,0,0:0:0:0:
356,129,284821,1,0,0:0:0:0:
408,154,284908,1,0,0:0:0:0:
442,200,284995,1,0,0:0:0:0:
440,256,285084,1,0,0:0:0:0:
391,286,285171,5,0,0:0:0:0:
335,277,285258,1,0,0:0:0:0:
298,234,285345,1,0,0:0:0:0:
299,176,285432,1,0,0:0:0:0:
272,128,285520,1,0,0:0:0:0:
222,98,285607,1,0,0:0:0:0:
164,100,285694,5,0,0:0:0:0:
117,134,285781,1,0,0:0:0:0:
96,187,285868,1,0,0:0:0:0:
80,240,285956,1,0,0:0:0:0:
125,204,286043,1,0,0:0:0:0:
182,190,286130,1,0,0:0:0:0:
239,201,286217,5,0,0:0:0:0:
286,234,286304,1,0,0:0:0:0:
316,284,286392,1,0,0:0:0:0:
360,320,286479,1,0,0:0:0:0:
415,304,286566,1,0,0:0:0:0:
455,262,286653,1,0,0:0:0:0:
470,206,286740,5,0,0:0:0:0:
454,150,286827,1,0,0:0:0:0:
413,110,286915,1,0,0:0:0:0:
360,80,287002,1,0,0:0:0:0:
330,129,287089,1,0,0:0:0:0:
279,155,287176,1,0,0:0:0:0:
222,149,287263,5,0,0:0:0:0:
177,113,287350,1,0,0:0:0:0:
158,59,287438,1,0,0:0:0:0:
104,40,287525,1,0,0:0:0:0:
54,70,287612,1,0,0:0:0:0:
24,119,287699,1,0,0:0:0:0:
21,177,287786,5,0,0:0:0:0:
46,230,287873,1,0,0:0:0:0:
92,265,287961,1,0,0:0:0:0:
152,264,288049,1,0,0:0:0:0:
185,216,288136,1,0,0:0:0:0:
235,187,288223,1,0,0:0:0:0:
293,181,288310,5,0,0:0:0:0:
348,199,288397,1,0,0:0:0:0:
391,239,288485,1,0,0:0:0:0:
376,296,288572,1,0,0:0:0:0:
328,328,288659,1,0,0:0:0:0:
272,304,288746,1,0,0:0:0:0:
256,248,288834,1,0,0:0:0:0:
256,192,288921,12,0,289880,0:0:0:0:
160,64,290229,6,0,P|176:104|192:120,1,33.7500012874604
272,120,290491,6,0,P|256:160|240:176,1,33.7500012874604
168,208,290752,6,0,P|208:248|328:224,1,168.750006437302
256,192,291275,12,0,292322,0:0:0:0:
357,104,293020,6,0,P|341:144|325:160,1,33.7500012874604
245,160,293282,6,0,P|261:200|277:216,1,33.7500012874604
344,240,293543,6,0,P|280:296|187:256,1,168.750006437302
256,192,294066,12,0,295113,0:0:0:0:
120,96,295810,6,0,P|152:128|184:136,1,45
240,176,296072,6,0,P|208:208|176:216,1,45
112,224,296334,6,0,P|136:272|184:304,1,90
320,168,297206,6,0,P|368:152|400:160,1,45
424,256,297467,6,0,P|376:240|344:248,1,45
352,328,297729,6,0,P|304:328|256:280,1,90
336,96,298601,6,0,P|280:88|256:96,1,45
240,176,298863,6,0,P|296:168|320:176,1,45
264,264,299124,6,0,P|208:264|168:216,1,90
256,192,299647,12,0,300694,0:0:0:0:
80,224,301392,6,0,P|80:184|88:160,1,45
176,176,301653,6,0,P|176:136|168:112,1,45
88,64,301915,6,0,P|136:32|256:64,1,168.750006437302
256,192,302438,12,0,303485,0:0:0:0:
432,224,304182,6,0,P|432:184|424:160,1,45
336,176,304443,6,0,P|336:136|344:112,1,45
424,64,304705,6,0,P|376:32|224:96,1,225
256,192,305228,12,0,306275,0:0:0:0:
112,208,306973,6,0,P|144:184|176:184,1,45
232,280,307235,6,0,P|200:256|168:256,1,45
96,296,307496,6,0,P|48:272|24:200,1,90
400,208,308368,6,0,P|368:184|336:184,1,45
280,280,308630,6,0,P|312:256|344:256,1,45
416,296,308891,6,0,P|464:272|488:200,1,90
160,80,309764,6,0,L|224:64,1,45
312,184,310026,6,0,L|256:176,1,45
256,192,310200,12,0,312554,0:0:0:0:
