osu file format v14

[General]
AudioFilename: audio.mp3
AudioLeadIn: 0
PreviewTime: 103550
Countdown: 0
SampleSet: Soft
StackLeniency: 0.3
Mode: 0
LetterboxInBreaks: 0
WidescreenStoryboard: 1

[Editor]
DistanceSpacing: 1
BeatDivisor: 8
GridSize: 32
TimelineZoom: 1.7

[Metadata]
Title:La gis sulva za Celow
TitleUnicode:La gis sulva za Celow
Artist:Ozawa Takumi
ArtistUnicode:尾澤拓実
Creator:Hey lululu
Version:Another
Source:マギアレコード 魔法少女まどか☆マギカ外伝
Tags:magia record: puella magi madoka magica side story ost original soundtrack_i 第1巻 japanese Anime instrumental Silent Rock Flask lu^3
BeatmapID:2513983
BeatmapSetID:1125359

[Difficulty]
HPDrainRate:6
CircleSize:10
OverallDifficulty:8
ApproachRate:8
SliderMultiplier:0.5
SliderTickRate:1

[Events]
//Background and Video events
0,0,"BG.jpg",0,0
//Break Periods
2,64650,76500
//Storyboard Layer 0 (Background)
//Storyboard Layer 1 (Fail)
//Storyboard Layer 2 (Pass)
//Storyboard Layer 3 (Foreground)
//Storyboard Layer 4 (Overlay)
//Storyboard Sound Samples

[TimingPoints]
450,400,4,2,1,60,1,0
77250,-1000,4,2,1,60,0,0
88450,-333.333333333333,4,2,1,60,0,0
90050,-1000,4,2,1,60,0,0
96250,-200,4,2,1,60,0,0
96450,-333.333333333333,4,2,1,60,0,0
99650,-200,4,2,1,60,0,0
102850,-1000,4,2,1,60,0,0
103550,-1000,4,2,1,5,0,0
103650,-100,4,2,1,60,0,0
133250,-200,4,2,1,30,0,0
136450,-200,4,2,1,60,0,0
140050,-200,4,2,1,40,0,0
142050,-200,4,2,1,30,0,0
142850,-200,4,2,1,20,0,0

[Colours]
Combo1 : 221,81,81
Combo2 : 170,0,170
Combo3 : 213,0,106
Combo4 : 170,0,85

[HitObjects]
120,43,13250,6,0,L|114:94,1,50,0|0,3:2|1:2,0:0:0:0:
76,125,14050,1,0,1:2:0:0:
54,112,14250,2,0,P|19:128|14:141,1,50,0|0,1:2|1:2,0:0:0:0:
35,182,15050,1,0,1:2:0:0:
35,182,15250,2,0,L|38:210,1,25,0|0,0:0|1:2,0:0:0:0:
61,214,15650,2,0,L|58:242,1,25,0|0,1:2|1:2,0:0:0:0:
41,257,16050,1,2,3:2:0:0:
68,298,16450,6,0,L|87:290,1,12.5,0|0,1:2|0:0,0:0:0:0:
106,325,16650,2,0,L|117:329,1,12.5,0|0,1:2|0:0,0:0:0:0:
162,369,16850,2,0,P|154:359|160:316,1,50,0|0,3:2|1:2,0:0:0:0:
176,292,17850,2,0,P|184:302|178:345,1,50,0|0,1:2|1:2,0:0:0:0:
204,351,18450,2,0,L|228:355,1,25,0|0,1:2|0:0,0:0:0:0:
245,336,18850,1,0,1:2:0:0:
267,347,19050,1,0,1:2:0:0:
285,329,19250,1,0,3:2:0:0:
320,361,19450,1,0,1:2:0:0:
329,337,19650,6,0,L|319:279,1,50,0|0,3:2|1:2,0:0:0:0:
350,247,20450,1,0,1:2:0:0:
354,222,20650,2,0,P|326:223|307:204,1,50,0|0,1:2|1:2,0:0:0:0:
332,165,21450,1,0,1:2:0:0:
332,165,21650,2,0,L|327:134,1,25,0|0,0:0|1:2,0:0:0:0:
305,129,22050,2,0,L|310:98,1,25,0|0,1:2|1:2,0:0:0:0:
326,86,22450,1,2,3:2:0:0:
293,48,22850,6,0,L|307:44,1,12.5,0|0,1:2|0:0,0:0:0:0:
339,24,23050,2,0,L|359:30,1,12.5,0|0,1:2|0:0,0:0:0:0:
379,36,23250,1,0,3:2:0:0:
453,69,23650,2,0,L|400:79,1,50,0|0,1:2|3:2,0:0:0:0:
379,85,24250,1,0,1:2:0:0:
404,128,24650,1,0,1:2:0:0:
404,128,24850,1,4,1:1:0:0:
413,95,25050,1,0,0:0:0:0:
379,85,25250,2,0,L|384:56,1,25
352,7,25650,2,0,L|337:28,1,25
256,32,26050,5,4,3:2:0:0:
256,32,26450,1,8,3:2:0:0:
256,32,26850,1,0,3:2:0:0:
256,32,27250,1,8,3:2:0:0:
256,32,27650,1,0,3:2:0:0:
256,32,28050,1,8,3:2:0:0:
256,32,28450,1,0,3:2:0:0:
256,32,28850,1,8,3:2:0:0:
226,69,29250,6,0,L|201:64,1,25,0|2,3:2|0:0,0:0:0:0:
286,69,29650,2,0,L|311:64,1,25,8|2,3:2|0:0,0:0:0:0:
203,105,30050,2,0,L|178:100,1,25,0|2,3:2|0:0,0:0:0:0:
309,105,30450,2,0,L|334:100,1,25,8|2,3:2|0:0,0:0:0:0:
203,164,30850,2,0,L|195:135,1,25,0|2,3:0|0:0,0:0:0:0:
315,139,31250,2,0,L|309:164,1,25,8|2,3:2|0:0,0:0:0:0:
256,192,31650,5,2,3:2:0:0:
256,192,31750,1,2,0:0:0:0:
239,219,31950,1,2,0:0:0:0:
239,219,32050,2,0,L|224:223,1,12.5,10|0,3:2|0:0,0:0:0:0:
273,219,32250,2,0,L|288:223,1,12.5,2|0,0:0|0:0,0:0:0:0:
256,256,32450,5,4,3:2:0:0:
256,256,32850,1,8,3:2:0:0:
256,256,33250,1,0,3:2:0:0:
256,256,33650,1,8,3:2:0:0:
256,256,34050,1,0,3:2:0:0:
256,256,34450,1,8,3:2:0:0:
256,256,34850,1,0,3:2:0:0:
256,256,35250,1,8,3:2:0:0:
223,289,35650,6,0,L|231:319,1,25,0|2,3:2|0:0,0:0:0:0:
289,289,36050,2,0,L|281:319,1,25,8|2,3:2|0:0,0:0:0:0:
199,262,36450,2,0,L|191:292,1,25,0|2,3:2|0:0,0:0:0:0:
313,262,36850,2,0,L|321:292,1,25,8|2,3:2|0:0,0:0:0:0:
200,233,37250,2,0,L|173:238,1,25,0|2,3:2|0:0,0:0:0:0:
312,233,37650,2,0,L|339:238,1,25,8|2,3:2|0:0,0:0:0:0:
256,192,38050,5,0,3:2:0:0:
256,192,38250,1,2,0:0:0:0:
255,160,38450,2,0,L|255:152,6,6.25,8|0|0|0|0|0|0,3:2|3:2|3:2|3:2|3:2|3:2|3:2,0:0:0:0:
226,129,38850,6,0,L|202:122,1,25,4|2,3:2|0:0,0:0:0:0:
194,152,39250,2,0,L|165:165,1,25,8|2,3:2|0:0,0:0:0:0:
142,173,39650,1,0,3:2:0:0:
142,173,39850,2,0,B|137:155|137:155|125:148|125:148|119:126,1,50,2|2,0:0|0:0,0:0:0:0:
127,83,40450,2,0,B|132:101|132:101|144:108|144:108|150:130,1,50,0|8,3:2|3:2,0:0:0:0:
142,173,41050,2,0,B|137:155|137:155|125:148|125:148|119:126,1,50,2|2,0:0|0:0,0:0:0:0:
127,83,41650,2,0,B|132:101|132:101|144:108|144:108|150:130,1,50,8|0,3:2|3:0,0:0:0:0:
363,124,42450,6,0,B|368:108|368:108|380:101|380:101|385:83,1,50,8|0,3:2|3:2,0:0:0:0:
391,131,43050,2,0,B|387:148|387:148|375:155|375:155|370:173,1,50,2|2,0:0|0:0,0:0:0:0:
363,124,43650,2,0,B|368:108|368:108|380:101|380:101|385:83,1,50,0|8,3:2|3:2,0:0:0:0:
391,131,44250,2,0,B|387:148|387:148|375:155|375:155|370:173,1,50,2|0,0:0|0:0,0:0:0:0:
400,218,44850,2,0,L|397:200,1,12.5,10|0,3:2|0:0,0:0:0:0:
379,238,45050,2,0,L|376:220,1,12.5,2|0,0:0|0:0,0:0:0:0:
403,268,45250,5,4,3:2:0:0:
403,268,45450,1,0,3:2:0:0:
379,322,45650,2,0,P|362:307|329:310,1,50,8|0,3:2|3:2,0:0:0:0:
327,333,46250,2,0,P|344:348|377:345,1,50,2|2,0:0|0:0,0:0:0:0:
379,322,46850,2,0,P|362:307|329:310,1,50,0|8,3:2|3:2,0:0:0:0:
327,333,47450,2,0,P|344:348|377:345,1,50,2|2,0:0|0:0,0:0:0:0:
379,322,48050,2,0,P|362:307|329:310,1,50,8|0,3:2|3:2,0:0:0:0:
133,322,48850,6,0,P|150:307|183:310,1,50,8|0,3:2|3:2,0:0:0:0:
185,333,49450,2,0,P|168:348|135:345,1,50,2|2,0:0|0:0,0:0:0:0:
133,322,50050,2,0,P|150:307|183:310,1,50,0|8,3:2|3:2,0:0:0:0:
185,333,50650,2,0,P|168:348|135:345,1,50,2|2,0:0|0:0,0:0:0:0:
114,344,51250,2,0,L|111:335,6,6.25,8|0|0|0|0|0|0,3:2|3:2|3:2|3:2|3:2|3:2|3:2,0:0:0:0:
70,324,51650,6,0,B|69:311|69:311|75:294,1,25,4|2,3:2|0:0,0:0:0:0:
53,278,52050,2,0,B|53:265|53:265|48:248,1,25,8|2,3:2|0:0,0:0:0:0:
21,235,52450,1,0,3:2:0:0:
33,213,52650,2,0,L|83:222,1,50,2|2,0:0|0:0,0:0:0:0:
124,179,53450,1,2,0:0:0:0:
105,161,53650,2,0,L|78:169,1,25,8|2,3:2|0:0,0:0:0:0:
56,174,54050,1,0,3:2:0:0:
39,155,54250,1,2,0:0:0:0:
51,133,54450,1,8,3:2:0:0:
34,114,54650,1,2,0:0:0:0:
45,91,54850,6,0,L|74:97,1,25,8|2,3:3|0:0,0:0:0:0:
90,81,55250,2,0,L|119:87,1,25,8|2,3:2|0:0,0:0:0:0:
138,93,55650,1,0,3:2:0:0:
162,97,55850,2,0,L|217:81,1,50,2|2,0:0|0:0,0:0:0:0:
234,39,56650,1,2,0:0:0:0:
258,39,56850,2,0,L|252:15,1,25,8|2,3:2|0:0,0:0:0:0:
273,1,57250,5,2,3:2:0:0:
273,1,57350,1,2,0:0:0:0:
306,35,57550,1,2,0:0:0:0:
306,35,57650,2,0,L|323:29,1,12.5,10|0,3:2|0:0,0:0:0:0:
357,19,57850,2,0,L|374:27,1,12.5,2|0,0:0|0:0,0:0:0:0:
394,51,58050,6,0,L|388:87,1,25,4|2,3:2|0:0,0:0:0:0:
366,83,58450,2,0,L|360:119,1,25,8|2,3:2|0:0,0:0:0:0:
379,125,58850,1,0,3:2:0:0:
401,136,59050,2,0,P|416:120|444:113,1,50,2|2,0:0|0:0,0:0:0:0:
436,180,59850,1,2,0:0:0:0:
413,190,60050,2,0,L|355:179,1,50,8|0,3:2|3:2,0:0:0:0:
343,194,60650,1,2,0:0:0:0:
328,214,60850,2,0,L|334:239,1,25,8|2,3:2|0:0,0:0:0:0:
349,258,61250,6,0,L|347:273,3,12.5,8|0|2|0,3:3|0:0|0:0|0:0,0:0:0:0:
353,280,61650,2,0,L|351:295,3,12.5,8|0|2|0,3:2|0:0|0:0|0:0,0:0:0:0:
355,304,62050,2,0,L|353:319,3,12.5,0|0|2|0,3:2|0:0|0:0|0:0,0:0:0:0:
359,326,62450,2,0,L|357:341,3,12.5,8|0|2|0,3:2|0:0|0:0|0:0,0:0:0:0:
361,350,62850,2,0,L|359:365,3,12.5,0|0|2|0,3:2|0:0|0:0|0:0,0:0:0:0:
365,372,63250,2,0,L|363:387,3,12.5,8|0|2|0,3:2|0:0|0:0|0:0,0:0:0:0:
393,365,63650,5,0,3:2:0:0:
424,384,63850,2,0,L|422:367,1,12.5,2|0,0:0|0:0,0:0:0:0:
426,346,64050,6,0,L|431:336,2,6.25,8|0|0,3:2|3:2|3:2,0:0:0:0:
409,321,64250,2,0,L|404:311,2,6.25,0|0|0,3:2|3:2|3:2,0:0:0:0:
429,291,64450,5,4,3:0:0:0:
256,192,77250,6,0,L|238:199,3,20,8|0|0|0,3:0|0:0|3:0|0:0,0:0:0:0:
175,214,83650,2,0,P|164:210|158:199,1,25,8|0,3:0|0:0,0:0:0:0:
172,177,86450,1,0,0:0:0:0:
172,177,86850,2,0,L|173:167,1,10,0|0,3:0|0:0,0:0:0:0:
143,151,88450,6,0,L|139:120,1,29.9999990844727,0|0,0:0|0:0,0:0:0:0:
116,103,90050,6,0,P|107:103|97:107,3,20,12|2|0|2,3:0|2:0|3:0|2:0,0:0:0:0:
35,198,96250,5,0,0:0:0:0:
35,198,96350,1,0,0:0:0:0:
35,198,96450,2,0,P|48:228|42:253,1,59.9999981689454,2|2,3:2|2:0,0:0:0:0:
13,264,98850,1,0,0:0:0:0:
49,296,99650,6,0,L|75:288,1,25,2|0,3:2|0:0,0:0:0:0:
96,296,100450,2,0,P|103:306|108:319,1,25,0|2,0:0|0:0,0:0:0:0:
112,274,101250,2,0,P|116:262|123:252,1,25,0|0,0:0|0:0,0:0:0:0:
148,254,102050,2,0,L|174:262,2,25,0|2|2,0:0|0:0|0:0,0:0:0:0:
256,192,103650,5,0,3:0:0:0:
256,192,103850,1,0,3:0:0:0:
233,181,104050,2,0,L|230:171,6,6.25,0|0|0|0|0|0|0,3:0|3:0|3:0|3:0|3:0|3:0|3:0,0:0:0:0:
230,209,104450,6,0,L|228:235,1,25,4|2,3:2|0:0,0:0:0:0:
194,270,104850,2,0,L|196:246,1,25,8|2,3:2|0:0,0:0:0:0:
209,305,105250,1,0,3:2:0:0:
179,324,105450,2,0,P|170:316|150:312,1,25,2|8,0:0|3:2,0:0:0:0:
130,326,105850,1,2,0:0:0:0:
130,326,106250,1,2,0:0:0:0:
109,301,106450,2,0,L|113:271,1,25,8|2,3:2|0:0,0:0:0:0:
99,241,106850,1,0,3:2:0:0:
116,223,107050,1,2,0:0:0:0:
106,199,107250,1,8,3:2:0:0:
123,181,107450,1,2,0:0:0:0:
108,160,107650,6,0,L|80:149,1,25,0|2,3:2|0:0,0:0:0:0:
119,131,108050,2,0,L|147:120,1,25,8|2,3:2|0:0,0:0:0:0:
102,101,108450,1,0,3:2:0:0:
119,83,108650,2,0,L|117:54,1,25,2|8,0:0|3:2,0:0:0:0:
114,33,109050,1,2,0:0:0:0:
114,33,109450,1,2,0:0:0:0:
134,18,109650,2,0,L|160:14,1,25,8|2,3:2|0:0,0:0:0:0:
179,28,110050,5,2,3:2:0:0:
179,28,110150,1,2,0:0:0:0:
223,9,110350,1,2,0:0:0:0:
223,9,110450,2,0,L|219:26,1,12.5,10|0,3:2|0:0,0:0:0:0:
230,49,110650,2,0,L|226:66,1,12.5,2|0,0:0|0:0,0:0:0:0:
262,90,110850,6,0,P|276:91|290:85,1,25,4|2,3:2|0:0,0:0:0:0:
323,60,111250,2,0,P|309:59|295:65,1,25,8|2,3:2|0:0,0:0:0:0:
297,122,111650,1,0,3:2:0:0:
315,95,111850,2,0,L|345:98,1,25,2|8,0:0|3:2,0:0:0:0:
367,114,112250,1,2,0:0:0:0:
367,114,112650,1,2,0:0:0:0:
390,141,112850,2,0,P|406:146|414:152,1,25,8|2,3:2|0:0,0:0:0:0:
428,183,113250,1,0,3:2:0:0:
447,166,113450,1,2,0:0:0:0:
455,189,113650,1,8,3:2:0:0:
474,172,113850,1,2,0:0:0:0:
492,188,114050,6,0,L|506:184,3,12.5,8|0|2|0,3:3|0:0|0:0|0:0,0:0:0:0:
498,210,114450,2,0,L|512:206,3,12.5,8|0|2|0,3:2|0:0|0:0|0:0,0:0:0:0:
477,223,114850,2,0,L|463:219,3,12.5,0|0|2|0,3:2|0:0|0:0|0:0,0:0:0:0:
471,245,115250,2,0,L|457:241,3,12.5,8|0|2|0,3:2|0:0|0:0|0:0,0:0:0:0:
490,270,115650,2,0,L|504:266,3,12.5,0|0|2|0,3:2|0:0|0:0|0:0,0:0:0:0:
496,292,116050,2,0,L|510:288,3,12.5,8|0|2|0,3:2|0:0|0:0|0:0,0:0:0:0:
476,314,116450,6,0,L|473:304,2,6.25,0|0|0,3:2|0:0|0:0,0:0:0:0:
454,297,116650,2,0,L|457:287,2,6.25,2|0|0,0:0|0:0|0:0,0:0:0:0:
453,325,116850,2,0,L|450:315,2,6.25,8|0|0,3:2|3:2|3:2,0:0:0:0:
431,308,117050,2,0,L|434:298,2,6.25,0|0|0,3:2|3:2|3:2,0:0:0:0:
402,329,117250,6,0,L|376:334,1,25,4|2,3:2|0:0,0:0:0:0:
362,308,117650,2,0,L|336:303,1,25,8|2,3:2|0:0,0:0:0:0:
308,298,118050,1,0,3:2:0:0:
280,326,118250,2,0,L|248:340,1,25,2|8,0:0|3:2,0:0:0:0:
202,362,118650,2,0,P|210:339|202:309,1,50,2|2,0:0|0:0,0:0:0:0:
169,288,119250,1,8,3:2:0:0:
145,297,119450,1,2,0:0:0:0:
125,281,119650,1,0,3:2:0:0:
149,272,119850,1,2,0:0:0:0:
147,303,120050,1,8,3:2:0:0:
123,312,120250,1,2,0:0:0:0:
99,304,120450,6,0,L|94:276,1,25,8|2,3:3|0:0,0:0:0:0:
61,263,120850,2,0,L|66:235,1,25,8|2,3:2|0:0,0:0:0:0:
47,208,121250,1,0,3:2:0:0:
74,181,121450,2,0,P|72:165|68:153,1,25,2|8,0:0|3:2,0:0:0:0:
107,111,121850,2,0,P|95:154|98:163,1,50,2|2,0:0|0:0,0:0:0:0:
115,173,122450,2,0,L|150:180,1,25,8|2,3:2|0:0,0:0:0:0:
170,199,122850,5,2,3:2:0:0:
170,199,122950,1,2,0:0:0:0:
205,174,123150,1,2,0:0:0:0:
205,174,123250,2,0,L|200:156,1,12.5,10|0,3:2|0:0,0:0:0:0:
230,207,123450,2,0,L|225:225,1,12.5,2|0,0:0|0:0,0:0:0:0:
263,171,123650,6,0,P|264:160|257:140,1,25,4|2,3:2|0:0,0:0:0:0:
285,115,124050,2,0,P|284:126|291:146,1,25,8|2,3:2|0:0,0:0:0:0:
268,88,124450,1,0,3:2:0:0:
290,69,124650,2,0,P|291:58|284:38,1,25,2|8,0:0|3:2,0:0:0:0:
311,16,125050,2,0,P|337:20|346:46,1,50,2|2,0:0|0:0,0:0:0:0:
360,72,125650,1,8,3:2:0:0:
384,81,125850,1,0,0:0:0:0:
404,65,126050,1,0,3:2:0:0:
380,56,126250,1,2,0:0:0:0:
382,87,126450,1,8,3:2:0:0:
406,96,126650,1,2,0:0:0:0:
458,96,126850,6,0,L|453:77,3,12.5,8|0|2|0,3:3|0:0|0:0|0:0,0:0:0:0:
464,119,127250,2,0,L|445:124,3,12.5,8|0|2|0,3:2|0:0|0:0|0:0,0:0:0:0:
427,127,127650,2,0,L|422:108,3,12.5,0|0|2|0,3:2|0:0|0:0|0:0,0:0:0:0:
433,150,128050,2,0,L|414:155,3,12.5,8|0|2|0,3:2|0:0|0:0|0:0,0:0:0:0:
400,159,128450,2,0,L|395:140,3,12.5,0|0|2|0,3:2|0:0|0:0|0:0,0:0:0:0:
406,182,128850,2,0,L|387:187,3,12.5,8|0|2|0,3:2|0:0|0:0|0:0,0:0:0:0:
372,192,129250,6,0,L|369:182,2,6.25,0|0|0,3:2|0:0|0:0,0:0:0:0:
376,213,129450,2,0,L|366:215,2,6.25,2|0|0,0:0|0:0|0:0,0:0:0:0:
339,230,129650,6,0,L|336:220,6,6.25,8|0|0|0|0|0|0,3:2|3:2|3:2|3:2|3:2|3:2|3:2,0:0:0:0:
313,259,130050,5,4,3:0:0:0:
256,192,130150,12,0,133250,0:0:0:0:
132,130,133650,6,0,L|131:116,2,12.5,0|0|2,0:0|0:0|0:0,0:0:0:0:
106,122,134450,2,0,L|105:108,2,12.5,0|0|2,0:0|0:0|0:0,0:0:0:0:
132,130,135250,2,0,L|131:116,2,12.5,0|0|2,0:0|0:0|0:0,0:0:0:0:
106,122,135850,1,0,0:0:0:0:
106,122,136050,2,0,L|105:108,1,12.5,0|0,0:0|0:0,0:0:0:0:
256,192,136450,12,2,139650,0:0:0:0:
380,130,140050,6,0,L|381:116,2,12.5,0|0|2,0:0|0:0|0:0,0:0:0:0:
406,122,140850,2,0,L|407:108,2,12.5,0|0|2,0:0|0:0|0:0,0:0:0:0:
380,130,141650,2,0,L|381:116,2,12.5,0|0|2,0:0|0:0|0:0,0:0:0:0:
406,122,142250,1,0,0:0:0:0:
406,122,142450,2,0,L|407:108,2,12.5,0|0|2,0:0|0:0|0:0,0:0:0:0:
