osu file format v14

[General]
AudioFilename: Kesu+_-_The_littlest_things.mp3
AudioLeadIn: 0
PreviewTime: 33898
Countdown: 0
SampleSet: Normal
StackLeniency: 0.7
Mode: 1
LetterboxInBreaks: 0
WidescreenStoryboard: 1

[Editor]
Bookmarks: 28251,33898,39545,45192,50839,56486,62133,67780,73427,79074
DistanceSpacing: 1
BeatDivisor: 6
GridSize: 32
TimelineZoom: 2.8

[Metadata]
Title:the littlest things [Kesu+ Audio Scribble]
TitleUnicode:the littlest things [Kesu+ Audio Scribble]
Artist:Oxblud+
ArtistUnicode:Oxblud✝
Creator:Vulkin
Version:ura oni
Source:
Tags:TopHat Dreamers EP IDM Breakcore Jace monochip FairFaxxxxxxxx Vegito Yung Scuba Perfect Cell Grimbow Ulqui Electronic Instrumental
BeatmapID:2253973
BeatmapSetID:579166

[Difficulty]
HPDrainRate:6
CircleSize:7
OverallDifficulty:6.5
ApproachRate:10
SliderMultiplier:1.5
SliderTickRate:1

[Events]
//Background and Video events
0,0,"OyasumiPunPun_Edit.png",0,45
//Break Periods
//Storyboard Layer 0 (Background)
//Storyboard Layer 1 (Fail)
//Storyboard Layer 2 (Pass)
//Storyboard Layer 3 (Foreground)
//Storyboard Layer 4 (Overlay)
//Storyboard Sound Samples

[TimingPoints]
22604,352.941176470588,4,1,0,70,1,0
45192,-100,4,1,0,80,0,1
56486,-100,4,1,0,70,0,0

[HitObjects]
256,192,22604,5,0,0:0:0:0:
256,192,22780,1,8,0:0:0:0:
256,192,22868,1,0,0:0:0:0:
256,192,22956,1,8,0:0:0:0:
256,192,23045,1,8,0:0:0:0:
256,192,23133,1,0,0:0:0:0:
256,192,23221,1,8,0:0:0:0:
256,192,23309,1,0,0:0:0:0:
256,192,23368,1,0,0:0:0:0:
256,192,23427,1,0,0:0:0:0:
256,192,23486,1,8,0:0:0:0:
256,192,23662,1,8,0:0:0:0:
256,192,23751,1,8,0:0:0:0:
256,192,23839,1,0,0:0:0:0:
256,192,23927,1,0,0:0:0:0:
256,192,24015,1,8,0:0:0:0:
256,192,24059,1,8,0:0:0:0:
256,192,24192,1,0,0:0:0:0:
256,192,24236,1,0,0:0:0:0:
256,192,24368,1,8,0:0:0:0:
256,192,24456,1,8,0:0:0:0:
256,192,24545,1,0,0:0:0:0:
256,192,24633,1,8,0:0:0:0:
256,192,24721,1,0,0:0:0:0:
256,192,24898,1,8,0:0:0:0:
256,192,24942,1,8,0:0:0:0:
256,192,25074,1,0,0:0:0:0:
256,192,25162,1,0,0:0:0:0:
256,192,25251,1,8,0:0:0:0:
256,192,25339,1,8,0:0:0:0:
256,192,25427,1,0,0:0:0:0:
256,192,25780,1,8,0:0:0:0:
256,192,25839,1,8,0:0:0:0:
256,192,25898,1,8,0:0:0:0:
256,192,25956,1,0,0:0:0:0:
256,192,26045,1,0,0:0:0:0:
256,192,26133,1,0,0:0:0:0:
256,192,26309,1,8,0:0:0:0:
256,192,26398,1,0,0:0:0:0:
256,192,26486,1,8,0:0:0:0:
256,192,26574,1,8,0:0:0:0:
256,192,26662,1,0,0:0:0:0:
256,192,26839,1,8,0:0:0:0:
256,192,26927,1,0,0:0:0:0:
256,192,27015,1,8,0:0:0:0:
256,192,27104,1,0,0:0:0:0:
256,192,27192,1,8,0:0:0:0:
256,192,27280,1,0,0:0:0:0:
256,192,27368,1,8,0:0:0:0:
256,192,27456,1,8,0:0:0:0:
256,192,27545,1,0,0:0:0:0:
256,192,27633,1,8,0:0:0:0:
256,192,27721,1,0,0:0:0:0:
256,192,27898,1,8,0:0:0:0:
256,192,27956,1,8,0:0:0:0:
256,192,28015,1,8,0:0:0:0:
256,192,28074,1,8,0:0:0:0:
256,192,28162,1,8,0:0:0:0:
256,192,28251,1,0,0:0:0:0:
256,192,28339,1,8,0:0:0:0:
256,192,28427,1,0,0:0:0:0:
256,192,28603,1,0,0:0:0:0:
256,192,28662,1,0,0:0:0:0:
256,192,28721,1,0,0:0:0:0:
256,192,28780,1,8,0:0:0:0:
256,192,28868,1,8,0:0:0:0:
256,192,29045,1,8,0:0:0:0:
256,192,29133,1,0,0:0:0:0:
256,192,29309,1,0,0:0:0:0:
256,192,29486,1,8,0:0:0:0:
256,192,29545,1,0,0:0:0:0:
256,192,29604,1,0,0:0:0:0:
256,192,29662,1,8,0:0:0:0:
256,192,29751,1,8,0:0:0:0:
256,192,29839,1,0,0:0:0:0:
256,192,30015,1,0,0:0:0:0:
256,192,30104,1,8,0:0:0:0:
256,192,30192,1,0,0:0:0:0:
256,192,30280,1,0,0:0:0:0:
256,192,30368,1,8,0:0:0:0:
256,192,30427,1,8,0:0:0:0:
256,192,30486,1,0,0:0:0:0:
256,192,30545,1,8,0:0:0:0:
256,192,30633,1,8,0:0:0:0:
256,192,30721,1,0,0:0:0:0:
256,192,30809,1,0,0:0:0:0:
256,192,30898,1,0,0:0:0:0:
256,192,30986,1,0,0:0:0:0:
256,192,31074,1,8,0:0:0:0:
256,192,31251,1,8,0:0:0:0:
256,192,31427,1,0,0:0:0:0:
256,192,31486,1,0,0:0:0:0:
256,192,31545,1,0,0:0:0:0:
256,192,31604,1,8,0:0:0:0:
256,192,31692,1,8,0:0:0:0:
256,192,31780,1,8,0:0:0:0:
256,192,31868,1,8,0:0:0:0:
256,192,31956,1,0,0:0:0:0:
256,192,32133,1,0,0:0:0:0:
256,192,32486,1,8,0:0:0:0:
256,192,32574,1,8,0:0:0:0:
256,192,32662,1,0,0:0:0:0:
256,192,32751,1,8,0:0:0:0:
256,192,32839,1,0,0:0:0:0:
256,192,33015,1,8,0:0:0:0:
256,192,33104,1,8,0:0:0:0:
256,192,33192,1,8,0:0:0:0:
256,192,33280,1,8,0:0:0:0:
256,192,33368,1,0,0:0:0:0:
256,192,33412,1,0,0:0:0:0:
256,192,33545,1,8,0:0:0:0:
256,192,33589,1,8,0:0:0:0:
256,192,33721,1,0,0:0:0:0:
256,192,33765,1,0,0:0:0:0:
256,192,33898,1,0,0:0:0:0:
256,192,33956,1,0,0:0:0:0:
256,192,34015,1,0,0:0:0:0:
256,192,34074,1,8,0:0:0:0:
256,192,34251,1,8,0:0:0:0:
256,192,34339,1,0,0:0:0:0:
256,192,34427,1,8,0:0:0:0:
256,192,34515,1,8,0:0:0:0:
256,192,34604,1,0,0:0:0:0:
256,192,34780,1,0,0:0:0:0:
256,192,34868,1,0,0:0:0:0:
256,192,34956,1,8,0:0:0:0:
256,192,35015,1,8,0:0:0:0:
256,192,35074,1,8,0:0:0:0:
256,192,35133,1,8,0:0:0:0:
256,192,35221,1,8,0:0:0:0:
256,192,35309,1,0,0:0:0:0:
256,192,35486,1,0,0:0:0:0:
256,192,35662,1,8,0:0:0:0:
256,192,35839,1,0,0:0:0:0:
256,192,36015,1,0,0:0:0:0:
256,192,36192,1,8,0:0:0:0:
256,192,36368,1,0,0:0:0:0:
256,192,36721,1,8,0:0:0:0:
256,192,36809,1,8,0:0:0:0:
256,192,36898,1,0,0:0:0:0:
256,192,36986,1,8,0:0:0:0:
256,192,37074,1,0,0:0:0:0:
256,192,37251,1,8,0:0:0:0:
256,192,37339,1,8,0:0:0:0:
256,192,37427,1,8,0:0:0:0:
256,192,37515,1,8,0:0:0:0:
256,192,37604,1,0,0:0:0:0:
256,192,37692,1,0,0:0:0:0:
256,192,37780,1,8,0:0:0:0:
256,192,37956,1,0,0:0:0:0:
256,192,38133,1,8,0:0:0:0:
256,192,38177,1,8,0:0:0:0:
256,192,38309,1,0,0:0:0:0:
256,192,38354,1,0,0:0:0:0:
256,192,38486,1,0,0:0:0:0:
256,192,38662,1,8,0:0:0:0:
256,192,38751,1,0,0:0:0:0:
256,192,38839,1,8,0:0:0:0:
256,192,38927,1,8,0:0:0:0:
256,192,39015,1,0,0:0:0:0:
256,192,39192,1,8,0:0:0:0:
256,192,39251,1,8,0:0:0:0:
256,192,39309,1,8,0:0:0:0:
256,192,39368,1,0,0:0:0:0:
256,192,39456,1,8,0:0:0:0:
256,192,39545,1,0,0:0:0:0:
256,192,39721,1,8,0:0:0:0:
256,192,39809,1,0,0:0:0:0:
256,192,39898,1,8,0:0:0:0:
256,192,39986,1,8,0:0:0:0:
256,192,40074,1,0,0:0:0:0:
256,192,40251,1,8,0:0:0:0:
256,192,40339,1,0,0:0:0:0:
256,192,40427,1,8,0:0:0:0:
256,192,40515,1,8,0:0:0:0:
256,192,40604,1,0,0:0:0:0:
256,192,40780,1,8,0:0:0:0:
256,192,40868,1,8,0:0:0:0:
256,192,40956,1,0,0:0:0:0:
256,192,41133,1,0,0:0:0:0:
256,192,41221,1,0,0:0:0:0:
256,192,41309,1,8,0:0:0:0:
256,192,41368,1,8,0:0:0:0:
256,192,41427,1,8,0:0:0:0:
256,192,41486,1,8,0:0:0:0:
256,192,41662,1,0,0:0:0:0:
256,192,41839,1,8,0:0:0:0:
256,192,41927,1,8,0:0:0:0:
256,192,42015,1,0,0:0:0:0:
256,192,42192,1,8,0:0:0:0:
256,192,42368,1,0,0:0:0:0:
256,192,42545,1,8,0:0:0:0:
256,192,42633,1,0,0:0:0:0:
256,192,42721,1,8,0:0:0:0:
256,192,42809,1,8,0:0:0:0:
256,192,42898,1,0,0:0:0:0:
256,192,43074,1,8,0:0:0:0:
256,192,43162,1,0,0:0:0:0:
256,192,43251,1,8,0:0:0:0:
256,192,43339,1,8,0:0:0:0:
256,192,43427,1,0,0:0:0:0:
256,192,43604,1,8,0:0:0:0:
256,192,43692,1,8,0:0:0:0:
256,192,43780,1,0,0:0:0:0:
256,192,43956,1,0,0:0:0:0:
256,192,44133,1,8,0:0:0:0:
256,192,44221,1,0,0:0:0:0:
256,192,44309,1,8,0:0:0:0:
256,192,44398,1,8,0:0:0:0:
256,192,44486,1,0,0:0:0:0:
256,192,44574,1,0,0:0:0:0:
256,192,44662,1,8,0:0:0:0:
256,192,44751,1,8,0:0:0:0:
256,192,44839,1,0,0:0:0:0:
256,192,45192,1,0,0:0:0:0:
256,192,45368,1,8,0:0:0:0:
256,192,45456,1,0,0:0:0:0:
256,192,45545,1,0,0:0:0:0:
256,192,45633,1,8,0:0:0:0:
256,192,45721,1,0,0:0:0:0:
256,192,45898,1,8,0:0:0:0:
256,192,45956,1,0,0:0:0:0:
256,192,46015,1,0,0:0:0:0:
256,192,46074,1,8,0:0:0:0:
256,192,46162,1,8,0:0:0:0:
256,192,46251,1,0,0:0:0:0:
256,192,46339,1,0,0:0:0:0:
256,192,46427,1,8,0:0:0:0:
256,192,46515,1,0,0:0:0:0:
256,192,46604,1,0,0:0:0:0:
256,192,46780,1,8,0:0:0:0:
256,192,46868,1,0,0:0:0:0:
256,192,47045,1,8,0:0:0:0:
256,192,47133,1,0,0:0:0:0:
256,192,47309,1,0,0:0:0:0:
256,192,47368,1,0,0:0:0:0:
256,192,47427,1,0,0:0:0:0:
256,192,47486,1,8,0:0:0:0:
256,192,47662,1,0,0:0:0:0:
256,192,47751,1,0,0:0:0:0:
256,192,47839,1,8,0:0:0:0:
256,192,47927,1,8,0:0:0:0:
256,192,48015,1,0,0:0:0:0:
256,192,48192,1,8,0:0:0:0:
256,192,48280,1,0,0:0:0:0:
256,192,48369,1,0,0:0:0:0:
256,192,48457,1,8,0:0:0:0:
256,192,48545,1,0,0:0:0:0:
256,192,48722,1,8,0:0:0:0:
256,192,48780,1,0,0:0:0:0:
256,192,48839,1,0,0:0:0:0:
256,192,48898,1,8,0:0:0:0:
256,192,48986,1,8,0:0:0:0:
256,192,49075,1,0,0:0:0:0:
256,192,49163,1,0,0:0:0:0:
256,192,49251,1,8,0:0:0:0:
256,192,49339,1,0,0:0:0:0:
256,192,49428,1,0,0:0:0:0:
256,192,49604,1,8,0:0:0:0:
256,192,49692,1,0,0:0:0:0:
256,192,49869,1,8,0:0:0:0:
256,192,49957,1,0,0:0:0:0:
256,192,50045,1,0,0:0:0:0:
256,192,50133,1,8,0:0:0:0:
256,192,50192,1,8,0:0:0:0:
256,192,50251,1,8,0:0:0:0:
256,192,50309,1,0,0:0:0:0:
256,192,50398,1,0,0:0:0:0:
256,192,50486,1,8,0:0:0:0:
256,192,50662,1,8,0:0:0:0:
256,192,50751,1,8,0:0:0:0:
256,192,50839,1,0,0:0:0:0:
256,192,51015,1,8,0:0:0:0:
256,192,51104,1,0,0:0:0:0:
256,192,51368,1,8,0:0:0:0:
256,192,51456,1,8,0:0:0:0:
256,192,51545,1,0,0:0:0:0:
256,192,51633,1,0,0:0:0:0:
256,192,51721,1,8,0:0:0:0:
256,192,51809,1,8,0:0:0:0:
256,192,51898,1,8,0:0:0:0:
256,192,51986,1,8,0:0:0:0:
256,192,52074,1,8,0:0:0:0:
256,192,52162,1,8,0:0:0:0:
256,192,52251,1,0,0:0:0:0:
256,192,52427,1,8,0:0:0:0:
256,192,52515,1,0,0:0:0:0:
256,192,52692,1,8,0:0:0:0:
256,192,52780,1,0,0:0:0:0:
256,192,52956,1,8,0:0:0:0:
256,192,53015,1,0,0:0:0:0:
256,192,53074,1,0,0:0:0:0:
256,192,53133,1,8,0:0:0:0:
256,192,53309,1,0,0:0:0:0:
256,192,53398,1,0,0:0:0:0:
256,192,53486,1,8,0:0:0:0:
256,192,53574,1,8,0:0:0:0:
256,192,53662,1,0,0:0:0:0:
256,192,53839,1,8,0:0:0:0:
256,192,53927,1,0,0:0:0:0:
256,192,54015,1,0,0:0:0:0:
256,192,54104,1,8,0:0:0:0:
256,192,54192,1,0,0:0:0:0:
256,192,54368,1,8,0:0:0:0:
256,192,54427,1,0,0:0:0:0:
256,192,54486,1,0,0:0:0:0:
256,192,54545,1,8,0:0:0:0:
256,192,54633,1,8,0:0:0:0:
256,192,54721,1,0,0:0:0:0:
256,192,54809,1,0,0:0:0:0:
256,192,54898,1,8,0:0:0:0:
256,192,54986,1,0,0:0:0:0:
256,192,55074,1,0,0:0:0:0:
256,192,55251,1,8,0:0:0:0:
256,192,55339,1,0,0:0:0:0:
256,192,55515,1,8,0:0:0:0:
256,192,55604,1,0,0:0:0:0:
256,192,55692,1,0,0:0:0:0:
256,192,55780,1,8,0:0:0:0:
256,192,55839,1,8,0:0:0:0:
256,192,55898,1,8,0:0:0:0:
256,192,55956,1,0,0:0:0:0:
256,192,56045,1,0,0:0:0:0:
256,192,56133,1,8,0:0:0:0:
256,192,56309,1,8,0:0:0:0:
256,192,56398,1,8,0:0:0:0:
256,192,56486,1,0,0:0:0:0:
256,192,56574,1,0,0:0:0:0:
256,192,56662,1,0,0:0:0:0:
256,192,56751,1,0,0:0:0:0:
256,192,56839,1,8,0:0:0:0:
256,192,56883,1,8,0:0:0:0:
256,192,57015,1,0,0:0:0:0:
256,192,57059,1,0,0:0:0:0:
256,192,57192,1,0,0:0:0:0:
256,192,57280,1,8,0:0:0:0:
256,192,57368,1,0,0:0:0:0:
256,192,57545,1,8,0:0:0:0:
256,192,57633,1,0,0:0:0:0:
256,192,57721,1,8,0:0:0:0:
256,192,57809,1,8,0:0:0:0:
256,192,57898,1,0,0:0:0:0:
256,192,58074,1,8,0:0:0:0:
256,192,58162,1,0,0:0:0:0:
256,192,58339,1,0,0:0:0:0:
256,192,58427,1,8,0:0:0:0:
256,192,58603,1,8,0:0:0:0:
256,192,58780,1,0,0:0:0:0:
256,192,58839,1,0,0:0:0:0:
256,192,58898,1,0,0:0:0:0:
256,192,58956,1,8,0:0:0:0:
256,192,59045,1,8,0:0:0:0:
256,192,59133,1,0,0:0:0:0:
256,192,59221,1,0,0:0:0:0:
256,192,59309,1,0,0:0:0:0:
256,192,59486,1,8,0:0:0:0:
256,192,59574,1,0,0:0:0:0:
256,192,59751,1,8,0:0:0:0:
256,192,59839,1,0,0:0:0:0:
256,192,60015,1,8,0:0:0:0:
256,192,60103,1,8,0:0:0:0:
256,192,60192,1,8,0:0:0:0:
256,192,60280,1,8,0:0:0:0:
256,192,60368,1,0,0:0:0:0:
256,192,60545,1,0,0:0:0:0:
256,192,60721,1,8,0:0:0:0:
256,192,60898,1,8,0:0:0:0:
256,192,61074,1,0,0:0:0:0:
256,192,61251,1,0,0:0:0:0:
256,192,61339,1,0,0:0:0:0:
256,192,61427,1,8,0:0:0:0:
256,192,61515,1,8,0:0:0:0:
256,192,61603,1,0,0:0:0:0:
256,192,61780,1,8,0:0:0:0:
256,192,61956,1,8,0:0:0:0:
256,192,62133,1,0,0:0:0:0:
256,192,62221,1,0,0:0:0:0:
256,192,62309,1,8,0:0:0:0:
256,192,62662,1,0,0:0:0:0:
256,192,62751,1,0,0:0:0:0:
256,192,62839,1,8,0:0:0:0:
256,192,63015,1,8,0:0:0:0:
256,192,63103,1,0,0:0:0:0:
256,192,63192,1,0,0:0:0:0:
256,192,63280,1,0,0:0:0:0:
256,192,63368,1,8,0:0:0:0:
256,192,63456,1,8,0:0:0:0:
256,192,63545,1,0,0:0:0:0:
256,192,63898,1,8,0:0:0:0:
256,192,64074,1,0,0:0:0:0:
256,192,64162,1,0,0:0:0:0:
256,192,64251,1,0,0:0:0:0:
256,192,64339,1,0,0:0:0:0:
256,192,64427,1,8,0:0:0:0:
256,192,64486,1,8,0:0:0:0:
256,192,64545,1,8,0:0:0:0:
256,192,64603,1,0,0:0:0:0:
256,192,64780,1,8,0:0:0:0:
256,192,64868,1,0,0:0:0:0:
256,192,64956,1,8,0:0:0:0:
256,192,65133,1,0,0:0:0:0:
256,192,65309,1,8,0:0:0:0:
256,192,65398,1,8,0:0:0:0:
256,192,65486,1,0,0:0:0:0:
256,192,65574,1,0,0:0:0:0:
256,192,65662,1,8,0:0:0:0:
256,192,65839,1,0,0:0:0:0:
256,192,66015,1,0,0:0:0:0:
256,192,66104,1,8,0:0:0:0:
256,192,66192,1,0,0:0:0:0:
256,192,66280,1,0,0:0:0:0:
256,192,66368,1,8,0:0:0:0:
256,192,66456,1,8,0:0:0:0:
256,192,66545,1,0,0:0:0:0:
256,192,66721,1,0,0:0:0:0:
256,192,66809,1,8,0:0:0:0:
256,192,66986,1,8,0:0:0:0:
256,192,67074,1,0,0:0:0:0:
256,192,67251,1,8,0:0:0:0:
256,192,67339,1,0,0:0:0:0:
256,192,67427,1,8,0:0:0:0:
256,192,67515,1,8,0:0:0:0:
256,192,67604,1,8,0:0:0:0:
256,192,67692,1,8,0:0:0:0:
256,192,67780,1,0,0:0:0:0:
256,192,67956,1,0,0:0:0:0:
256,192,68133,1,8,0:0:0:0:
256,192,68309,1,0,0:0:0:0:
256,192,68398,1,8,0:0:0:0:
256,192,68486,1,0,0:0:0:0:
256,192,68574,1,8,0:0:0:0:
256,192,68662,1,0,0:0:0:0:
256,192,68839,1,8,0:0:0:0:
256,192,68927,1,8,0:0:0:0:
256,192,69015,1,0,0:0:0:0:
256,192,69104,1,8,0:0:0:0:
256,192,69192,1,0,0:0:0:0:
256,192,69368,1,8,0:0:0:0:
256,192,69545,1,0,0:0:0:0:
256,192,69721,1,0,0:0:0:0:
256,192,69809,1,8,0:0:0:0:
256,192,69986,1,8,0:0:0:0:
256,192,70074,1,0,0:0:0:0:
256,192,70162,1,0,0:0:0:0:
256,192,70251,1,0,0:0:0:0:
256,192,70339,1,0,0:0:0:0:
256,192,70427,1,8,0:0:0:0:
256,192,70604,1,0,0:0:0:0:
256,192,70692,1,8,0:0:0:0:
256,192,70868,1,8,0:0:0:0:
256,192,70956,1,8,0:0:0:0:
256,192,71045,1,0,0:0:0:0:
256,192,71133,1,0,0:0:0:0:
256,192,71221,1,8,0:0:0:0:
256,192,71309,1,0,0:0:0:0:
256,192,71486,1,0,0:0:0:0:
256,192,71662,1,8,0:0:0:0:
256,192,71839,1,0,0:0:0:0:
256,192,71927,1,8,0:0:0:0:
256,192,72015,1,0,0:0:0:0:
256,192,72368,1,8,0:0:0:0:
256,192,72545,1,0,0:0:0:0:
256,192,72604,1,0,0:0:0:0:
256,192,72662,1,0,0:0:0:0:
256,192,72721,1,0,0:0:0:0:
256,192,72780,1,0,0:0:0:0:
256,192,72839,1,0,0:0:0:0:
256,192,72898,1,8,0:0:0:0:
256,192,73074,1,0,0:0:0:0:
256,192,73251,1,8,0:0:0:0:
256,192,73427,1,8,0:0:0:0:
256,192,73604,1,0,0:0:0:0:
256,192,73692,1,8,0:0:0:0:
256,192,73780,1,0,0:0:0:0:
256,192,73868,1,8,0:0:0:0:
256,192,73956,1,8,0:0:0:0:
256,192,74133,1,0,0:0:0:0:
256,192,74221,1,8,0:0:0:0:
256,192,74309,1,0,0:0:0:0:
256,192,74398,1,8,0:0:0:0:
256,192,74486,1,8,0:0:0:0:
256,192,74662,1,8,0:0:0:0:
256,192,74751,1,8,0:0:0:0:
256,192,74839,1,0,0:0:0:0:
256,192,75015,1,0,0:0:0:0:
256,192,75192,1,8,0:0:0:0:
256,192,75368,1,0,0:0:0:0:
256,192,75456,1,8,0:0:0:0:
256,192,75545,1,0,0:0:0:0:
256,192,75633,1,8,0:0:0:0:
256,192,75721,1,0,0:0:0:0:
256,192,75898,1,0,0:0:0:0:
256,192,76074,1,8,0:0:0:0:
256,192,76162,1,0,0:0:0:0:
256,192,76251,1,8,0:0:0:0:
256,192,76339,1,8,0:0:0:0:
256,192,76427,1,0,0:0:0:0:
256,192,76515,1,8,0:0:0:0:
256,192,76780,1,8,0:0:0:0:
256,192,76868,1,8,0:0:0:0:
256,192,76956,1,0,0:0:0:0:
256,192,77045,1,8,0:0:0:0:
256,192,77309,1,8,0:0:0:0:
256,192,77398,1,8,0:0:0:0:
256,192,77486,1,0,0:0:0:0:
256,192,77574,1,0,0:0:0:0:
256,192,77662,1,8,0:0:0:0:
256,192,77839,1,0,0:0:0:0:
256,192,77927,1,8,0:0:0:0:
256,192,78015,1,0,0:0:0:0:
256,192,78103,1,8,0:0:0:0:
256,192,78192,1,8,0:0:0:0:
256,192,78368,1,0,0:0:0:0:
256,192,78456,1,8,0:0:0:0:
256,192,78545,1,0,0:0:0:0:
256,192,78633,1,8,0:0:0:0:
256,192,78721,1,8,0:0:0:0:
256,192,78898,1,8,0:0:0:0:
256,192,78986,1,8,0:0:0:0:
256,192,79074,1,0,0:0:0:0:
