osu file format v14

[General]
AudioFilename: Kesu+_-_The_littlest_things.mp3
AudioLeadIn: 0
PreviewTime: 33898
Countdown: 0
SampleSet: Normal
StackLeniency: 0.7
Mode: 1
LetterboxInBreaks: 0
WidescreenStoryboard: 0

[Editor]
Bookmarks: 28251,33898,39545,45192,50839,56486,62133,67780,73427,79074
DistanceSpacing: 1
BeatDivisor: 2
GridSize: 32
TimelineZoom: 0.6000001

[Metadata]
Title:the littlest things [Kesu+ Audio Scribble]
TitleUnicode:the littlest things [Kesu+ Audio Scribble]
Artist:Oxblud+
ArtistUnicode:Oxblud✝
Creator:Vulkin
Version:kantan
Source:
Tags:TopHat Dreamers EP IDM Breakcore Jace monochip FairFaxxxxxxxx Vegito Yung Scuba Perfect Cell Grimbow Ulqui Electronic Instrumental
BeatmapID:1719515
BeatmapSetID:579166

[Difficulty]
HPDrainRate:9
CircleSize:7
OverallDifficulty:3
ApproachRate:10
SliderMultiplier:1.4
SliderTickRate:1

[Events]
//Background and Video events
0,0,"OyasumiPunPun_Edit.png",0,45
//Break Periods
//Storyboard Layer 0 (Background)
//Storyboard Layer 1 (Fail)
//Storyboard Layer 2 (Pass)
//Storyboard Layer 3 (Foreground)
//Storyboard Layer 4 (Overlay)
//Storyboard Sound Samples

[TimingPoints]
22604,352.941176470588,4,1,0,60,1,0
45192,-100,4,1,0,80,0,1
56486,-100,4,1,0,60,0,0

[HitObjects]
256,192,22604,5,0,0:0:0:0:
256,192,23309,1,0,0:0:0:0:
256,192,23662,1,8,0:0:0:0:
256,192,24015,1,8,0:0:0:0:
256,192,24721,1,8,0:0:0:0:
256,192,25427,1,0,0:0:0:0:
256,192,26486,1,8,0:0:0:0:
256,192,26839,1,0,0:0:0:0:
256,192,27545,1,0,0:0:0:0:
256,192,28251,1,8,0:0:0:0:
256,192,29309,1,0,0:0:0:0:
256,192,29662,1,8,0:0:0:0:
256,192,30015,1,0,0:0:0:0:
256,192,30368,1,0,0:0:0:0:
256,192,31074,1,0,0:0:0:0:
256,192,31780,1,8,0:0:0:0:
256,192,32486,1,0,0:0:0:0:
256,192,32839,1,0,0:0:0:0:
256,192,33368,1,8,0:0:0:0:
256,192,33898,1,0,0:0:0:0:
256,192,34604,1,8,0:0:0:0:
256,192,34956,1,8,0:0:0:0:
256,192,35309,1,0,0:0:0:0:
256,192,35839,1,0,0:0:0:0:
256,192,36368,1,0,0:0:0:0:
256,192,36721,1,8,0:0:0:0:
256,192,37427,1,0,0:0:0:0:
256,192,38133,1,8,0:0:0:0:
256,192,39192,1,8,0:0:0:0:
256,192,39545,1,0,0:0:0:0:
256,192,40074,1,0,0:0:0:0:
256,192,40604,1,0,0:0:0:0:
256,192,40956,1,0,0:0:0:0:
256,192,41662,1,8,0:0:0:0:
256,192,42015,1,8,0:0:0:0:
256,192,42368,1,0,0:0:0:0:
256,192,42898,1,0,0:0:0:0:
256,192,43427,1,0,0:0:0:0:
256,192,43780,1,0,0:0:0:0:
256,192,44839,1,8,0:0:0:0:
256,192,45192,1,0,0:0:0:0:
256,192,45721,1,8,0:0:0:0:
256,192,46251,1,8,0:0:0:0:
256,192,46604,1,0,0:0:0:0:
256,192,47309,1,8,0:0:0:0:
256,192,48015,1,0,0:0:0:0:
256,192,48545,1,8,0:0:0:0:
256,192,49074,1,0,0:0:0:0:
256,192,49427,1,8,0:0:0:0:
256,192,50486,1,8,0:0:0:0:
256,192,50839,1,0,0:0:0:0:
256,192,51368,1,8,0:0:0:0:
256,192,51898,1,0,0:0:0:0:
256,192,52251,1,8,0:0:0:0:
256,192,52956,1,8,0:0:0:0:
256,192,53662,1,0,0:0:0:0:
256,192,54192,1,8,0:0:0:0:
256,192,54721,1,8,0:0:0:0:
256,192,55074,1,0,0:0:0:0:
256,192,55780,1,8,0:0:0:0:
256,192,56486,1,0,0:0:0:0:
256,192,57898,1,0,0:0:0:0:
256,192,58603,1,8,0:0:0:0:
256,192,59309,1,0,0:0:0:0:
256,192,60015,1,8,0:0:0:0:
256,192,60368,1,0,0:0:0:0:
256,192,60721,1,8,0:0:0:0:
256,192,61780,1,8,0:0:0:0:
256,192,62133,1,0,0:0:0:0:
256,192,62662,1,0,0:0:0:0:
256,192,63545,1,0,0:0:0:0:
256,192,64074,1,8,0:0:0:0:
256,192,64427,1,8,0:0:0:0:
256,192,64956,1,0,0:0:0:0:
256,192,65662,1,8,0:0:0:0:
256,192,66368,1,0,0:0:0:0:
256,192,66721,1,8,0:0:0:0:
256,192,67074,1,8,0:0:0:0:
256,192,67780,1,0,0:0:0:0:
256,192,69192,1,0,0:0:0:0:
256,192,69545,1,8,0:0:0:0:
256,192,70251,1,8,0:0:0:0:
256,192,70604,1,0,0:0:0:0:
256,192,71309,1,8,0:0:0:0:
256,192,72015,1,0,0:0:0:0:
256,192,72545,1,8,0:0:0:0:
256,192,73427,1,8,0:0:0:0:
256,192,73956,1,8,0:0:0:0:
256,192,74486,1,8,0:0:0:0:
256,192,74839,1,0,0:0:0:0:
256,192,75721,1,0,0:0:0:0:
256,192,76251,1,8,0:0:0:0:
256,192,76780,1,8,0:0:0:0:
256,192,77309,1,8,0:0:0:0:
256,192,77662,1,8,0:0:0:0:
256,192,78192,1,8,0:0:0:0:
256,192,78721,1,8,0:0:0:0:
256,192,79074,1,0,0:0:0:0:
