osu file format v14

[General]
AudioFilename: audio.ogg
AudioLeadIn: 0
PreviewTime: 47329
Countdown: 0
SampleSet: Soft
StackLeniency: 0.7
Mode: 3
LetterboxInBreaks: 0
SpecialStyle: 0
WidescreenStoryboard: 1

[Editor]
DistanceSpacing: 1.6
BeatDivisor: 2
GridSize: 4
TimelineZoom: 2.4

[Metadata]
Title:grayscale dominator (TV Size)
TitleUnicode:grayscale dominator (TV Size)
Artist:OxT
ArtistUnicode:OxT
Creator:Karin-
Version:Reincarnation | Normal
Source:陰の実力者になりたくて! 2nd season
Tags:anime pop jpop j-pop japanese j-rock jrock rock op opening single The Eminence In Shadow to be a power in the shadows! kadokawa pony canyon second Cid Kagenou シド・カゲノー kage no jitsuryokusha ni naritakute! オクト male vocals vocalist 大石昌良 Oishi Masayoshi オーイシマサヨシ Tom-H@ck Tom-Hack hotaru nanonbandusty -[ Peachy ]-
BeatmapID:4406450
BeatmapSetID:2094985

[Difficulty]
HPDrainRate:7
CircleSize:4
OverallDifficulty:7.5
ApproachRate:5
SliderMultiplier:1.4
SliderTickRate:1

[Events]
//Background and Video events
0,0,"bg.jpg",0,0
Video,0,"Dominator.avi"
//Break Periods
//Storyboard Layer 0 (Background)
//Storyboard Layer 1 (Fail)
//Storyboard Layer 2 (Pass)
//Storyboard Layer 3 (Foreground)
//Storyboard Layer 4 (Overlay)
//Storyboard Sound Samples
Sample,1875,0,"Hat Open.wav",40
Sample,3138,0,"Hat Open.wav",40
Sample,19874,0,"Hat Open.wav",40
Sample,20190,0,"Hat Open.wav",40
Sample,21453,0,"Hat Open.wav",40
Sample,22716,0,"Hat Open.wav",40
Sample,23348,0,"Hat Open.wav",40
Sample,23979,0,"Hat Open.wav",40
Sample,27447,0,"Hat Open.wav",40
Sample,27765,0,"Hat Open.wav",40
Sample,28083,0,"Crash short.wav",40
Sample,28716,0,"Hat Open.wav",40
Sample,29032,0,"Hat Open.wav",40
Sample,29664,0,"Hat Open.wav",40
Sample,29979,0,"Tom1.wav",40
Sample,30453,0,"Tom3.wav",40
Sample,30611,0,"Tom3.wav",40
Sample,31557,0,"Hat Open.wav",40
Sample,32820,0,"Hat Open.wav",40
Sample,33452,0,"Hat Open.wav",40
Sample,34083,0,"Hat Open.wav",40
Sample,41038,0,"Rim.wav",40
Sample,41038,0,"Hat Open.wav",40
Sample,43549,0,"Rim.wav",40
Sample,49243,0,"Hat Open.wav",40
Sample,49875,0,"Hat Open.wav",40
Sample,50506,0,"Hat Open.wav",40
Sample,51138,0,"Hat Open.wav",40
Sample,51769,0,"Hat Open.wav",40
Sample,52401,0,"Hat Open.wav",40
Sample,54296,0,"Hat Open.wav",40
Sample,54927,0,"Hat Open.wav",40
Sample,55559,0,"Hat Open.wav",40
Sample,56822,0,"Hat Open.wav",40
Sample,59348,0,"Hat Open.wav",40
Sample,59980,0,"Hat Open.wav",40
Sample,60612,0,"Hat Open.wav",40
Sample,61243,0,"Hat Open.wav",40
Sample,61875,0,"Hat Open.wav",40
Sample,62506,0,"Hat Open.wav",40
Sample,63138,0,"Tom2.wav",40
Sample,64401,0,"Hat Open.wav",40
Sample,65033,0,"Hat Open.wav",40
Sample,65664,0,"Hat Open.wav",40
Sample,66927,0,"Hat Open.wav",40
Sample,78454,0,"Tom2.wav",40
Sample,78769,0,"Tom1.wav",40
Sample,79555,0,"Hat Open.wav",40
Sample,80814,0,"Hat Open.wav",40
Sample,81761,0,"Hat Open.wav",40
Sample,82071,0,"Hat Open.wav",40
Sample,83335,0,"Hat Open.wav",40
Sample,84604,0,"Hat Open.wav",40

[TimingPoints]
612,315.789473684211,4,2,1,50,1,0
6942,314.13612565445,4,2,1,50,1,0
6942,-101.010101010101,4,2,1,50,0,0
10711,319.148936170213,4,2,1,50,1,0
10711,-99.009900990099,4,2,1,50,0,0
11987,315.789473684211,4,2,1,50,1,0
11987,-100,4,2,1,50,0,0
13250,314.13612565445,4,2,1,50,1,0
13250,-101.010101010101,4,2,1,50,0,0
14506,319.148936170213,4,2,1,50,1,0
14506,-99.009900990099,4,2,1,50,0,0
15139,326.086956521739,4,2,1,50,1,0
15139,-97.0873786407767,4,2,1,50,0,0
15769,314.13612565445,4,2,1,50,1,0
15769,-101.010101010101,4,2,1,50,0,0
18296,315.789473684211,4,2,1,50,1,0
18296,-100,4,2,1,50,0,0
20822,315.789473684211,4,2,1,50,1,0
20822,-100,4,2,1,50,0,0
25874,314.13612565445,4,2,1,50,1,0
25874,-101.010101010101,4,2,1,50,0,0
27130,317.965023847377,4,2,1,50,1,8
27130,-99.009900990099,4,2,1,50,0,8
28401,315.789473684211,4,2,1,50,1,0
28401,-100,4,2,1,50,0,0
30926,315.789473684211,4,2,1,50,1,0
30926,-100,4,2,1,50,0,0
37874,322.58064516129,4,2,1,50,1,0
37874,-98.0392156862745,4,2,1,50,0,0
38519,314.96062992126,4,2,1,50,1,0
38519,-100,4,2,1,50,0,0
43243,306.122448979592,4,2,1,50,1,8
43243,-103.092783505155,4,2,1,50,0,8
43549,319.148936170213,4,2,1,50,1,0
43549,-99.009900990099,4,2,1,50,0,0
44812,310.880829015544,4,2,1,50,1,0
44812,-102.040816326531,4,2,1,50,0,0
45278,323.450134770889,4,2,1,50,1,8
45278,-98.0392156862745,4,2,1,50,0,8
45763,303.030303030303,4,2,1,50,1,8
45763,-104.166666666667,4,2,1,50,0,8
46066,315.789473684211,4,2,1,50,1,0
46066,-100,4,2,1,50,0,0
47670,322.58064516129,4,2,1,50,1,0
47670,-98.0392156862745,4,2,1,50,0,0
48612,315.789473684211,4,2,1,50,1,1
48612,-100,4,2,1,50,0,1
68822,-100,4,2,1,50,0,0
78927,314.13612565445,4,2,1,50,1,0
78927,-101.010101010101,4,2,1,50,0,0
80183,315.789473684211,4,2,1,50,1,0
80183,-100,4,2,1,50,0,0
81761,310.880829015544,4,2,1,50,1,0
81761,-102.040816326531,4,2,1,50,0,0
82538,319.148936170213,4,2,1,50,1,8
82538,-99.009900990099,4,2,1,50,0,8
82697,319.148936170213,4,2,1,50,1,0
82697,-99.009900990099,4,2,1,50,0,0
83973,315.789473684211,4,2,1,50,1,0
83973,-100,4,2,1,50,0,0
84920,322.58064516129,4,2,1,50,1,0
84920,-98.0392156862745,4,2,1,50,0,0
85242,315.789473684211,4,2,1,50,1,0
85242,-100,4,2,1,50,0,0
87758,315.789473684211,4,2,1,50,1,0
87758,-100,4,2,1,50,0,0
87915,322.58064516129,4,2,1,50,1,8
87915,-98.0392156862745,4,2,1,50,0,8
88399,315.789473684211,4,2,1,50,1,8
88399,-100,4,2,1,50,0,8

[HitObjects]
192,192,612,5,2,0:0:0:0:
320,192,612,1,4,0:0:0:0:
64,192,769,1,2,0:0:0:0:
320,192,927,1,8,0:0:0:0:
448,192,927,1,0,0:0:0:40:Hat Open.wav
64,192,1164,1,8,0:0:0:0:
320,192,1401,1,2,0:0:0:0:
64,192,1559,1,8,0:0:0:0:
192,192,1559,1,0,0:0:0:40:Hat Open.wav
448,192,1875,1,2,0:0:0:0:
64,192,2033,1,2,0:0:0:0:
320,192,2190,1,8,0:0:0:0:
448,192,2190,1,0,0:0:0:40:Hat Open.wav
192,192,2427,1,8,0:0:0:0:
320,192,2664,1,2,0:0:0:0:
64,192,2822,1,8,0:0:0:0:
192,192,2822,1,0,0:0:0:40:Hat Open.wav
320,192,3138,1,2,0:0:0:0:
192,192,3296,1,2,0:0:0:0:
320,192,3454,1,8,0:0:0:0:
448,192,3454,1,0,0:0:0:40:Hat Open.wav
64,192,3690,1,8,0:0:0:0:
448,192,3927,1,2,0:0:0:0:
64,192,4085,1,8,0:0:0:0:
192,192,4085,1,4,0:0:0:0:
320,192,4401,1,2,0:0:0:0:
448,192,4401,1,8,0:0:0:0:
192,192,4559,1,8,0:0:0:0:
320,192,4717,1,2,0:0:0:0:
448,192,4717,1,8,0:0:0:0:
64,192,4875,1,8,0:0:0:0:
192,192,5033,1,2,0:0:0:0:
320,192,5033,1,8,0:0:0:0:
448,192,5190,1,8,0:0:0:0:
64,192,5348,1,2,0:0:0:0:
192,192,5348,1,8,0:0:0:0:
320,192,5506,1,8,0:0:0:0:
64,192,5664,1,2,0:0:0:0:
448,192,5664,1,4,0:0:0:0:
320,192,5980,1,0,0:0:0:0:
64,192,6296,1,8,0:0:0:0:
192,192,6296,1,0,0:0:0:0:
448,192,6454,1,8,0:0:0:0:
192,192,6612,1,0,0:0:0:0:
320,192,6769,1,8,0:0:0:0:
64,192,6942,1,2,0:0:0:0:
448,192,7099,1,8,0:0:0:0:
192,192,7256,1,2,0:0:0:0:
64,192,7570,1,8,0:0:0:0:
448,192,7570,1,0,0:0:0:0:
320,192,7727,1,8,0:0:0:0:
192,192,7884,1,0,0:0:0:0:
64,192,8041,1,8,0:0:0:0:
192,192,8198,1,2,0:0:0:0:
320,192,8198,1,4,0:0:0:0:
448,192,8355,1,0,0:0:0:0:
64,192,8512,1,8,0:0:0:0:
192,192,8512,1,0,0:0:0:0:
448,192,8826,1,2,0:0:0:0:
64,192,8983,1,2,0:0:0:0:
320,192,9140,1,8,0:0:0:0:
448,192,9140,1,0,0:0:0:0:
64,192,9455,1,2,0:0:0:0:
448,192,9612,1,2,0:0:0:0:
192,192,9769,1,8,0:0:0:0:
320,192,9769,1,0,0:0:0:0:
192,192,10083,1,2,0:0:0:0:
448,192,10240,1,2,0:0:0:0:
64,192,10397,1,8,0:0:0:0:
192,192,10397,128,0,10711:0:0:0:0:
320,192,10711,1,4,0:0:0:0:
448,192,10711,1,2,0:0:0:0:
64,192,11030,1,0,0:0:0:0:
320,192,11349,1,8,0:0:0:0:
448,192,11349,1,0,0:0:0:0:
64,192,11508,1,8,0:0:0:0:
320,192,11668,1,0,0:0:0:0:
192,192,11828,1,8,0:0:0:0:
448,192,11987,1,2,0:0:0:0:
64,192,12144,1,8,0:0:0:0:
320,192,12302,1,2,0:0:0:0:
64,192,12618,1,8,0:0:0:0:
192,192,12618,1,0,0:0:0:0:
320,192,12934,1,0,0:0:0:0:
64,192,13250,1,8,0:0:0:0:
192,192,13250,1,0,0:0:0:0:
320,192,13407,1,10,0:0:0:0:
448,192,13407,1,0,0:0:0:40:Crash short.wav
192,192,13721,1,4,0:0:0:0:
320,192,13721,1,2,0:0:0:0:
64,192,14192,1,0,0:0:0:0:
64,192,14506,1,8,0:0:0:0:
192,192,14506,1,0,0:0:0:0:
320,192,14665,1,10,0:0:0:0:
448,192,14665,1,0,0:0:0:40:Crash short.wav
320,192,15139,1,8,0:0:0:0:
448,192,15139,1,0,0:0:0:0:
64,192,15302,1,10,0:0:0:0:
192,192,15302,1,0,0:0:0:40:Crash short.wav
64,192,15769,1,2,0:0:0:0:
448,192,15769,1,4,0:0:0:0:
448,192,16083,128,2,16711:0:0:0:0:
64,192,16397,1,2,0:0:0:0:
192,192,16711,128,2,17025:0:0:0:0:
448,192,17025,128,2,17339:0:0:0:0:
64,192,17339,128,2,17653:0:0:0:0:
320,192,17653,128,2,17967:0:0:0:0:
192,192,17967,128,2,18296:0:0:0:0:
64,192,18296,1,2,0:0:0:0:
448,192,18296,128,0,18611:0:0:0:40:Crash short.wav
320,192,18611,1,2,0:0:0:0:
64,192,18769,128,0,19243:0:0:0:0:
192,192,18927,1,2,0:0:0:0:
320,192,19243,1,2,0:0:0:0:
448,192,19559,1,2,0:0:0:0:
64,192,19874,128,2,20032:0:0:0:0:
192,192,20032,1,0,0:0:0:0:
448,192,20190,128,2,20348:0:0:0:0:
320,192,20348,1,8,0:0:0:0:
192,192,20427,1,8,0:0:0:0:
64,192,20506,1,10,0:0:0:0:
448,192,20664,1,8,0:0:0:0:
320,192,20743,1,8,0:0:0:0:
64,192,20822,1,4,0:0:0:0:
192,192,20822,1,2,0:0:0:0:
192,192,21137,1,8,0:0:0:0:
320,192,21137,1,0,0:0:0:40:Hat Open.wav
64,192,21453,1,2,0:0:0:0:
192,192,21611,1,2,0:0:0:0:
448,192,21769,1,0,0:0:0:40:Hat Open.wav
192,192,21927,1,8,0:0:0:0:
320,192,21927,1,0,0:0:0:0:
448,192,22243,1,2,0:0:0:0:
64,192,22400,1,8,0:0:0:0:
192,192,22400,1,0,0:0:0:40:Hat Open.wav
448,192,22716,1,2,0:0:0:0:
64,192,22874,1,2,0:0:0:0:
320,192,23032,1,8,0:0:0:0:
448,192,23032,1,0,0:0:0:40:Hat Open.wav
192,192,23348,1,2,0:0:0:0:
448,192,23506,1,2,0:0:0:0:
64,192,23664,1,8,0:0:0:0:
192,192,23664,1,0,0:0:0:40:Hat Open.wav
64,192,23979,1,2,0:0:0:0:
320,192,24137,1,2,0:0:0:0:
192,192,24295,1,0,0:0:0:40:Hat Open.wav
64,192,24453,1,8,0:0:0:0:
448,192,24453,128,0,24769:0:0:0:0:
320,192,24769,1,2,0:0:0:0:
64,192,24927,1,8,0:0:0:0:
192,192,24927,1,0,0:0:0:40:Hat Open.wav
320,192,25085,1,0,0:0:0:0:
64,192,25243,1,2,0:0:0:0:
448,192,25243,1,0,0:0:0:40:Hat Open.wav
192,192,25400,1,2,0:0:0:0:
320,192,25558,128,8,25874:0:0:0:0:
448,192,25558,1,0,0:0:0:40:Crash short.wav
64,192,25874,1,2,0:0:0:0:
192,192,25874,1,4,0:0:0:0:
448,192,26188,128,2,26816:0:0:0:0:
64,192,26502,1,2,0:0:0:0:
320,192,26816,128,2,27130:0:0:0:0:
192,192,27130,128,2,27447:0:0:0:0:
448,192,27447,128,2,27765:0:0:0:0:
64,192,27765,128,2,28083:0:0:0:0:
192,192,27924,1,0,0:0:0:40:Hat Open.wav
448,192,28083,128,2,28401:0:0:0:0:
192,192,28401,128,2,28716:0:0:0:0:
320,192,28401,1,4,0:0:0:0:
64,192,28716,128,2,28874:0:0:0:0:
320,192,28874,128,0,29348:0:0:0:0:
192,192,29032,1,2,0:0:0:0:
448,192,29348,1,2,0:0:0:0:
192,192,29506,1,0,0:0:0:40:Hat Open.wav
64,192,29664,1,2,0:0:0:0:
320,192,29822,128,0,29979:0:0:0:40:Tom1.wav
192,192,29979,1,2,0:0:0:0:
64,192,30137,1,0,0:0:0:40:Tom2.wav
448,192,30295,128,0,30453:0:0:0:40:Tom2.wav
320,192,30453,128,2,30611:0:0:0:0:
64,192,30611,128,8,30926:0:0:0:0:
192,192,30611,1,0,0:0:0:40:Crash short.wav
320,192,30926,1,4,0:0:0:0:
448,192,30926,1,2,0:0:0:0:
64,192,31241,1,8,0:0:0:0:
192,192,31241,1,0,0:0:0:40:Hat Open.wav
320,192,31557,1,2,0:0:0:0:
192,192,31715,1,2,0:0:0:0:
64,192,31873,1,0,0:0:0:40:Hat Open.wav
320,192,32031,1,8,0:0:0:0:
448,192,32031,1,0,0:0:0:0:
448,192,32347,1,2,0:0:0:0:
64,192,32504,1,8,0:0:0:0:
192,192,32504,1,0,0:0:0:40:Hat Open.wav
448,192,32820,1,2,0:0:0:0:
64,192,32978,1,2,0:0:0:0:
320,192,33136,1,8,0:0:0:0:
448,192,33136,1,0,0:0:0:40:Hat Open.wav
192,192,33294,1,0,0:0:0:0:
64,192,33452,1,2,0:0:0:0:
64,192,33768,1,8,0:0:0:0:
192,192,33768,1,0,0:0:0:40:Hat Open.wav
320,192,34083,1,2,0:0:0:0:
192,192,34241,1,2,0:0:0:0:
320,192,34399,1,8,0:0:0:0:
448,192,34399,1,0,0:0:0:0:
64,192,34557,1,4,0:0:0:0:
192,192,34557,128,2,34873:0:0:0:0:
320,192,34873,1,2,0:0:0:0:
64,192,35031,128,8,35347:0:0:0:0:
448,192,35031,1,0,0:0:0:40:Hat Open.wav
448,192,35347,1,0,0:0:0:40:Tom1.wav
320,192,35504,1,0,0:0:0:0:
64,192,35662,1,0,0:0:0:40:Tom2.wav
192,192,35820,1,0,0:0:0:0:
320,192,35978,1,4,0:0:0:0:
448,192,35978,1,2,0:0:0:0:
448,192,36294,1,0,0:0:0:40:Rim.wav
64,192,36610,1,0,0:0:0:40:Rim.wav
192,192,36926,128,0,37241:0:0:0:40:Rim.wav
448,192,37241,1,0,0:0:0:40:Rim.wav
64,192,37557,1,0,0:0:0:40:Rim.wav
320,192,37874,128,0,38196:0:0:0:50:Rim.wav
448,192,38196,1,0,0:0:0:40:Rim.wav
64,192,38357,1,2,0:0:0:0:
192,192,38519,1,2,0:0:0:0:
320,192,38519,1,0,0:0:0:40:Rim.wav
448,192,38833,1,0,0:0:0:40:Rim.wav
64,192,38991,128,0,39148:0:0:0:0:
192,192,39148,1,0,0:0:0:40:Rim.wav
448,192,39463,128,0,39778:0:0:0:40:Rim.wav
64,192,39778,128,0,40093:0:0:0:40:Rim.wav
192,192,39778,1,0,0:0:0:0:
320,192,40093,1,0,0:0:0:40:Rim.wav
192,192,40408,128,0,40566:0:0:0:40:Rim.wav
320,192,40566,128,2,40723:0:0:0:0:
64,192,40723,128,0,40881:0:0:0:40:Rim.wav
320,192,40881,1,2,0:0:0:0:
448,192,41038,128,2,41353:0:0:0:0:
320,192,41353,1,0,0:0:0:40:Rim.wav
64,192,41511,128,0,41826:0:0:0:0:
448,192,41668,1,0,0:0:0:40:Rim.wav
320,192,41983,128,0,42298:0:0:0:40:Rim.wav
192,192,42298,128,0,42613:0:0:0:40:Rim.wav
320,192,42613,1,0,0:0:0:40:Rim.wav
448,192,42770,128,0,43085:0:0:0:0:
192,192,42928,1,0,0:0:0:40:Rim.wav
64,192,43243,128,0,43549:0:0:0:40:Rim.wav
192,192,43396,1,2,0:0:0:0:
320,192,43549,128,2,43868:0:0:0:0:
448,192,43868,128,0,44187:0:0:0:40:Rim.wav
192,192,44187,128,0,44506:0:0:0:40:Rim.wav
320,192,44506,128,0,44812:0:0:0:40:Rim.wav
64,192,44812,128,0,45122:0:0:0:40:Rim.wav
448,192,45122,1,8,0:0:0:0:
192,192,45278,1,4,0:0:0:0:
320,192,45278,1,2,0:0:0:0:
64,192,45601,1,2,0:0:0:0:
192,192,45763,1,8,0:0:0:0:
320,192,45763,1,0,0:0:0:40:Hat Open.wav
64,192,46066,1,8,0:0:0:0:
448,192,46066,1,0,0:0:0:0:
192,192,46223,1,2,0:0:0:0:
320,192,46223,1,0,0:0:0:40:Hat Open.wav
64,192,46539,1,2,0:0:0:0:
448,192,46539,128,4,47013:0:0:0:0:
320,192,46855,1,2,0:0:0:0:
64,192,47013,1,8,0:0:0:0:
192,192,47013,1,0,0:0:0:0:
64,192,47670,1,8,0:0:0:0:
192,192,47670,1,0,0:0:0:0:
320,192,47831,1,2,0:0:0:0:
448,192,47831,1,0,0:0:0:40:Crash short.wav
192,192,48612,1,4,0:0:0:0:
320,192,48612,1,2,0:0:0:0:
64,192,48769,1,0,0:0:0:0:
320,192,48927,1,8,0:0:0:0:
448,192,48927,1,0,0:0:0:40:Hat Open.wav
192,192,49085,1,0,0:0:0:0:
448,192,49243,1,2,0:0:0:0:
320,192,49401,1,2,0:0:0:0:
64,192,49559,128,8,49875:0:0:0:0:
192,192,49559,1,0,0:0:0:40:Hat Open.wav
448,192,49875,1,2,0:0:0:0:
320,192,50033,1,2,0:0:0:0:
64,192,50190,1,8,0:0:0:0:
192,192,50190,1,0,0:0:0:40:Hat Open.wav
448,192,50348,128,0,50664:0:0:0:0:
320,192,50506,1,2,0:0:0:0:
64,192,50664,1,2,0:0:0:0:
192,192,50822,1,8,0:0:0:0:
320,192,50822,1,0,0:0:0:40:Hat Open.wav
448,192,51138,128,2,51296:0:0:0:0:
192,192,51296,128,0,51454:0:0:0:0:
320,192,51454,1,8,0:0:0:0:
448,192,51454,1,0,0:0:0:40:Hat Open.wav
64,192,51612,128,0,51769:0:0:0:0:
320,192,51769,128,2,51927:0:0:0:0:
192,192,51927,1,2,0:0:0:0:
320,192,52085,1,8,0:0:0:0:
448,192,52085,128,0,52243:0:0:0:40:Hat Open.wav
64,192,52243,128,0,52401:0:0:0:0:
320,192,52401,128,2,52717:0:0:0:0:
448,192,52559,1,2,0:0:0:0:
64,192,52717,1,8,0:0:0:0:
192,192,52717,1,0,0:0:0:40:Hat Open.wav
320,192,52875,1,2,0:0:0:0:
64,192,53033,128,0,53348:0:0:0:40:Tom3.wav
448,192,53033,1,0,0:0:0:40:Tom2.wav
192,192,53190,1,2,0:0:0:0:
320,192,53348,1,8,0:0:0:0:
448,192,53348,128,0,53506:0:0:0:40:Crash short.wav
64,192,53664,1,4,0:0:0:0:
320,192,53664,128,2,53980:0:0:0:0:
64,192,53980,128,8,54296:0:0:0:0:
192,192,53980,1,0,0:0:0:40:Hat Open.wav
448,192,54296,128,2,54454:0:0:0:0:
192,192,54454,128,2,54612:0:0:0:0:
320,192,54612,128,8,54769:0:0:0:0:
448,192,54612,1,0,0:0:0:40:Hat Open.wav
64,192,54769,128,0,55085:0:0:0:0:
192,192,54927,1,2,0:0:0:0:
448,192,55085,128,2,55243:0:0:0:0:
192,192,55243,128,8,55401:0:0:0:0:
320,192,55243,1,0,0:0:0:40:Hat Open.wav
64,192,55401,128,0,55559:0:0:0:0:
320,192,55559,128,2,55875:0:0:0:0:
192,192,55717,1,2,0:0:0:0:
64,192,55875,1,8,0:0:0:0:
448,192,55875,1,0,0:0:0:40:Hat Open.wav
192,192,56190,1,2,0:0:0:0:
320,192,56190,1,0,0:0:0:40:Hat Open.wav
64,192,56506,1,8,0:0:0:0:
448,192,56506,1,0,0:0:0:40:Hat Open.wav
192,192,56822,1,2,0:0:0:0:
448,192,56980,1,2,0:0:0:0:
192,192,57138,1,8,0:0:0:0:
320,192,57138,1,0,0:0:0:40:Hat Open.wav
64,192,57296,1,0,0:0:0:0:
320,192,57454,1,2,0:0:0:0:
448,192,57454,1,8,0:0:0:0:
192,192,57612,1,8,0:0:0:0:
64,192,57769,1,2,0:0:0:0:
448,192,57769,1,8,0:0:0:0:
320,192,57927,1,8,0:0:0:0:
64,192,58085,1,2,0:0:0:0:
192,192,58085,1,8,0:0:0:0:
448,192,58243,1,8,0:0:0:0:
192,192,58401,1,2,0:0:0:0:
320,192,58401,1,8,0:0:0:0:
64,192,58559,1,0,0:0:0:40:Tom2.wav
320,192,58717,1,2,0:0:0:0:
448,192,58717,128,4,59033:0:0:0:0:
64,192,59033,1,4,0:0:0:0:
192,192,59033,1,8,0:0:0:0:
320,192,59190,128,0,59664:0:0:0:0:
192,192,59348,1,2,0:0:0:0:
448,192,59506,1,2,0:0:0:0:
64,192,59664,1,8,0:0:0:0:
192,192,59664,128,0,59980:0:0:0:40:Hat Open.wav
448,192,59980,128,2,60138:0:0:0:0:
64,192,60138,128,2,60296:0:0:0:0:
192,192,60296,128,8,60454:0:0:0:0:
320,192,60296,1,0,0:0:0:40:Hat Open.wav
448,192,60454,128,0,60927:0:0:0:0:
64,192,60612,1,2,0:0:0:0:
320,192,60769,1,2,0:0:0:0:
64,192,60927,1,8,0:0:0:0:
192,192,60927,1,0,0:0:0:40:Hat Open.wav
320,192,61243,128,2,61401:0:0:0:0:
64,192,61401,128,0,61559:0:0:0:0:
320,192,61559,1,8,0:0:0:0:
448,192,61559,1,0,0:0:0:40:Hat Open.wav
192,192,61717,128,0,61875:0:0:0:0:
320,192,61875,128,2,62033:0:0:0:0:
64,192,62033,1,2,0:0:0:0:
320,192,62190,1,8,0:0:0:0:
448,192,62190,128,0,62348:0:0:0:40:Hat Open.wav
192,192,62348,128,0,62506:0:0:0:0:
64,192,62506,128,2,63138:0:0:0:0:
448,192,62664,1,2,0:0:0:0:
192,192,62822,1,8,0:0:0:0:
320,192,62822,1,0,0:0:0:40:Hat Open.wav
448,192,62980,1,2,0:0:0:0:
192,192,63138,128,0,63454:0:0:0:40:Tom3.wav
320,192,63296,1,2,0:0:0:0:
64,192,63454,1,4,0:0:0:0:
448,192,63454,1,8,0:0:0:0:
320,192,63769,1,4,0:0:0:0:
448,192,63769,1,2,0:0:0:0:
64,192,64085,1,8,0:0:0:0:
192,192,64085,1,0,0:0:0:40:Hat Open.wav
320,192,64401,1,2,0:0:0:0:
64,192,64559,1,2,0:0:0:0:
320,192,64717,1,8,0:0:0:0:
448,192,64717,1,0,0:0:0:40:Hat Open.wav
192,192,64875,1,0,0:0:0:0:
448,192,65033,1,2,0:0:0:0:
64,192,65190,1,2,0:0:0:0:
192,192,65348,1,8,0:0:0:0:
320,192,65348,1,0,0:0:0:40:Hat Open.wav
448,192,65506,1,0,0:0:0:0:
192,192,65664,1,2,0:0:0:0:
64,192,65822,1,2,0:0:0:0:
320,192,65980,1,8,0:0:0:0:
448,192,65980,1,0,0:0:0:40:Hat Open.wav
64,192,66296,1,2,0:0:0:0:
192,192,66296,1,0,0:0:0:40:Hat Open.wav
320,192,66454,1,2,0:0:0:0:
64,192,66612,1,8,0:0:0:0:
192,192,66612,1,0,0:0:0:40:Hat Open.wav
448,192,66927,1,2,0:0:0:0:
192,192,67085,1,2,0:0:0:0:
320,192,67243,1,8,0:0:0:0:
448,192,67243,1,0,0:0:0:40:Hat Open.wav
64,192,67401,1,2,0:0:0:0:
192,192,67559,1,8,0:0:0:0:
320,192,67559,1,0,0:0:0:40:Hat Open.wav
64,192,67875,1,8,0:0:0:0:
448,192,67875,1,2,0:0:0:0:
192,192,68033,1,8,0:0:0:0:
320,192,68190,1,8,0:0:0:0:
448,192,68190,1,2,0:0:0:0:
64,192,68348,1,8,0:0:0:0:
192,192,68506,1,8,0:0:0:0:
320,192,68506,1,2,0:0:0:0:
448,192,68664,1,8,0:0:0:0:
64,192,68822,1,4,0:0:0:0:
192,192,68822,1,2,0:0:0:0:
64,192,69138,1,10,0:0:0:0:
320,192,69138,1,0,0:0:0:40:Crash short.wav
192,192,69454,1,2,0:0:0:0:
320,192,69454,1,0,0:0:0:40:Crash short.wav
64,192,69769,1,10,0:0:0:0:
448,192,69769,1,0,0:0:0:40:Crash short.wav
320,192,70085,1,2,0:0:0:0:
448,192,70085,1,0,0:0:0:40:Crash short.wav
192,192,70401,1,10,0:0:0:0:
320,192,70401,1,0,0:0:0:40:Crash short.wav
64,192,70717,1,2,0:0:0:0:
192,192,70717,1,0,0:0:0:40:Crash short.wav
320,192,71033,1,10,0:0:0:0:
448,192,71033,1,0,0:0:0:40:Crash short.wav
64,192,71348,1,2,0:0:0:0:
448,192,71348,1,4,0:0:0:0:
192,192,71664,1,10,0:0:0:0:
320,192,71664,1,0,0:0:0:40:Crash short.wav
448,192,71822,1,0,0:0:0:0:
64,192,71980,1,2,0:0:0:0:
192,192,71980,1,0,0:0:0:40:Crash short.wav
320,192,72296,1,10,0:0:0:0:
448,192,72296,1,0,0:0:0:40:Crash short.wav
64,192,72454,1,0,0:0:0:0:
192,192,72612,1,2,0:0:0:0:
320,192,72612,1,4,0:0:0:0:
64,192,72927,1,10,0:0:0:0:
192,192,72927,1,0,0:0:0:40:Crash short.wav
448,192,73085,1,0,0:0:0:0:
64,192,73243,1,2,0:0:0:0:
320,192,73243,1,0,0:0:0:40:Crash short.wav
192,192,73401,1,0,0:0:0:0:
320,192,73559,128,10,73875:0:0:0:0:
448,192,73559,1,0,0:0:0:40:Crash short.wav
64,192,73875,1,2,0:0:0:0:
192,192,73875,1,4,0:0:0:0:
64,192,74190,1,10,0:0:0:0:
448,192,74190,1,0,0:0:0:40:Crash short.wav
192,192,74506,1,2,0:0:0:0:
320,192,74506,1,0,0:0:0:40:Crash short.wav
192,192,74822,1,10,0:0:0:0:
448,192,74822,1,0,0:0:0:40:Crash short.wav
64,192,75138,1,2,0:0:0:0:
320,192,75138,1,0,0:0:0:40:Crash short.wav
64,192,75454,1,10,0:0:0:0:
192,192,75454,1,0,0:0:0:40:Crash short.wav
192,192,75769,1,2,0:0:0:0:
448,192,75769,1,0,0:0:0:40:Crash short.wav
320,192,76085,1,10,0:0:0:0:
448,192,76085,1,0,0:0:0:40:Crash short.wav
64,192,76401,1,2,0:0:0:0:
192,192,76401,1,4,0:0:0:0:
192,192,76717,1,10,0:0:0:0:
320,192,76717,1,0,0:0:0:40:Crash short.wav
64,192,77033,1,2,0:0:0:0:
448,192,77033,1,4,0:0:0:0:
192,192,77348,1,10,0:0:0:0:
320,192,77348,1,0,0:0:0:40:Crash short.wav
448,192,77506,1,0,0:0:0:0:
64,192,77664,1,8,0:0:0:0:
192,192,77664,1,0,0:0:0:0:
448,192,77822,1,2,0:0:0:0:
64,192,77980,1,8,0:0:0:0:
320,192,77980,1,0,0:0:0:0:
192,192,78138,1,2,0:0:0:0:
320,192,78296,1,8,0:0:0:0:
448,192,78296,1,0,0:0:0:40:Tom3.wav
192,192,78454,1,2,0:0:0:0:
64,192,78612,1,0,0:0:0:40:Tom1.wav
448,192,78612,1,0,0:0:0:0:
320,192,78769,1,2,0:0:0:0:
64,192,78927,1,4,0:0:0:0:
192,192,78927,1,2,0:0:0:0:
320,192,79241,1,8,0:0:0:0:
448,192,79241,1,4,0:0:0:0:
64,192,79555,1,2,0:0:0:0:
192,192,79712,1,2,0:0:0:0:
320,192,79869,1,8,0:0:0:0:
448,192,79869,1,0,0:0:0:40:Hat Open.wav
64,192,80026,1,2,0:0:0:0:
192,192,80340,1,2,0:0:0:0:
320,192,80498,1,8,0:0:0:0:
448,192,80498,1,0,0:0:0:40:Hat Open.wav
192,192,80814,1,2,0:0:0:0:
64,192,80972,1,2,0:0:0:0:
320,192,81130,1,8,0:0:0:0:
448,192,81130,1,0,0:0:0:40:Hat Open.wav
64,192,81446,1,6,0:0:0:0:
192,192,81446,1,0,0:0:0:40:Hat Open.wav
448,192,81761,1,8,0:0:0:0:
192,192,82071,1,2,0:0:0:0:
64,192,82227,1,2,0:0:0:0:
320,192,82382,1,8,0:0:0:0:
448,192,82382,1,0,0:0:0:40:Hat Open.wav
64,192,82538,1,4,0:0:0:0:
192,192,82538,1,2,0:0:0:0:
448,192,82856,1,2,0:0:0:0:
192,192,83016,1,8,0:0:0:0:
320,192,83016,1,0,0:0:0:40:Hat Open.wav
64,192,83175,1,0,0:0:0:0:
448,192,83335,1,2,0:0:0:0:
320,192,83494,1,2,0:0:0:0:
64,192,83654,1,8,0:0:0:0:
192,192,83654,1,0,0:0:0:40:Hat Open.wav
320,192,83814,1,0,0:0:0:0:
64,192,83973,1,4,0:0:0:0:
448,192,83973,1,2,0:0:0:0:
192,192,84288,1,8,0:0:0:0:
320,192,84288,1,0,0:0:0:40:Hat Open.wav
64,192,84604,1,2,0:0:0:0:
192,192,84762,1,2,0:0:0:0:
320,192,84920,1,8,0:0:0:0:
448,192,84920,1,0,0:0:0:40:Hat Open.wav
192,192,85242,1,8,0:0:0:0:
320,192,85242,1,2,0:0:0:0:
448,192,85399,1,8,0:0:0:0:
64,192,85557,1,8,0:0:0:0:
320,192,85557,1,2,0:0:0:0:
192,192,85715,1,8,0:0:0:0:
64,192,85873,1,8,0:0:0:0:
448,192,85873,1,2,0:0:0:0:
320,192,86031,1,8,0:0:0:0:
64,192,86189,1,8,0:0:0:0:
192,192,86189,1,2,0:0:0:0:
448,192,86347,1,8,0:0:0:0:
192,192,86505,1,2,0:0:0:0:
320,192,86505,128,0,86820:0:0:0:40:Crash short.wav
448,192,86820,1,0,0:0:0:0:
192,192,86978,1,0,0:0:0:0:
64,192,87136,1,0,0:0:0:0:
448,192,87452,1,0,0:0:0:0:
320,192,87610,1,0,0:0:0:0:
64,192,87758,1,8,0:0:0:0:
192,192,87758,1,0,0:0:0:0:
320,192,87915,1,2,0:0:0:0:
448,192,87915,1,4,0:0:0:0:
64,192,88398,1,0,0:0:0:0:
448,192,88398,1,0,0:0:0:0:
320,192,88556,1,8,0:0:0:0:
64,192,88714,1,2,0:0:0:0:
192,192,88714,1,8,0:0:0:0:
320,192,88872,1,8,0:0:0:0:
192,192,88951,1,8,0:0:0:0:
