osu file format v14

[General]
AudioFilename: audio.ogg
AudioLeadIn: 0
PreviewTime: 46046
Countdown: 0
SampleSet: Soft
StackLeniency: 0.7
Mode: 0
LetterboxInBreaks: 0
WidescreenStoryboard: 1

[Editor]
DistanceSpacing: 1.4
BeatDivisor: 4
GridSize: 32
TimelineZoom: 1.6

[Metadata]
Title:grayscale dominator (TV Size)
TitleUnicode:grayscale dominator (TV Size)
Artist:OxT
ArtistUnicode:OxT
Creator:Fuxi66
Version:insane
Source:陰の実力者になりたくて! 2nd season
Tags:japanese rock j-rock jrock anime opening op male vocals vocalist the eminence in shadow 2nd season kage no jitsuryokusha ni naritakute! to be a power in the shadows! Kadokawa Pony Canon Tom-H@ck Tom-Hack Tom Hack Masayoshi Oishi hotaru
BeatmapID:4342734
BeatmapSetID:2071422

[Difficulty]
HPDrainRate:5
CircleSize:3.6
OverallDifficulty:8
ApproachRate:9
SliderMultiplier:1.6
SliderTickRate:1

[Events]
//Background and Video events
0,0,"IMG_20231005_174953.jpg",0,0
Video,0,"purple.avi"
//Break Periods
//Storyboard Layer 0 (Background)
//Storyboard Layer 1 (Fail)
//Storyboard Layer 2 (Pass)
//Storyboard Layer 3 (Foreground)
//Storyboard Layer 4 (Overlay)
//Storyboard Sound Samples

[TimingPoints]
612,315.789473684211,4,2,1,70,1,0
612,-100,4,2,1,70,0,0
5664,-142.857142857143,4,2,1,40,0,0
6942,314.13612565445,4,2,1,50,1,0
6942,-142.857142857143,4,2,1,50,0,0
8198,-111.111111111111,4,2,1,60,0,0
10711,319.148936170213,4,2,1,50,1,0
10711,-142.857142857143,4,2,1,40,0,0
11987,315.789473684211,4,2,1,50,1,0
11987,-142.857142857143,4,2,1,50,0,0
13250,314.13612565445,4,2,1,65,1,0
13250,-111.111111111111,4,2,1,60,0,0
14506,319.148936170213,4,2,1,65,1,0
15139,326.086956521739,4,2,1,65,1,0
15769,314.13612565445,4,2,1,55,1,0
15769,-125,4,2,1,50,0,0
18296,315.789473684211,4,2,1,55,1,0
18296,-125,4,2,1,55,0,0
20822,315.789473684211,4,2,1,65,1,0
20822,-111.111111111111,4,2,1,60,0,0
25874,314.13612565445,4,2,1,60,1,0
25874,-125,4,2,1,50,0,0
27130,317.965023847377,4,2,1,60,1,8
27130,-125,4,2,1,60,0,8
28401,315.789473684211,4,2,1,60,1,0
28401,-125,4,2,1,60,0,0
30611,-100,4,2,1,65,0,0
30926,315.789473684211,4,2,1,60,1,0
30926,-111.111111111111,4,2,1,60,0,0
35980,-142.857142857143,4,2,1,40,0,0
37874,322.58064516129,4,2,1,45,1,0
37874,-142.857142857143,4,2,1,45,0,0
38519,314.96062992126,4,2,1,45,1,0
38519,-142.857142857143,4,2,1,45,0,0
43243,306.122448979592,4,2,1,45,1,8
43549,319.148936170213,4,2,1,55,1,0
43549,-142.857142857143,4,2,1,55,0,0
44812,310.880829015544,4,2,1,55,1,0
44812,-142.857142857143,4,2,1,55,0,0
45122,-100,4,2,1,70,0,0
45278,323.450134770889,4,2,1,65,1,8
45763,303.030303030303,4,2,1,65,1,8
46066,315.789473684211,4,2,1,65,1,0
47670,322.58064516129,4,2,1,65,1,0
48612,315.789473684211,4,2,1,75,1,1
48612,-90.9090909090909,4,2,1,87,0,1
78927,314.13612565445,4,2,1,60,1,0
78927,-100,4,2,1,76,0,0
80183,315.789473684211,4,2,1,60,1,0
81761,310.880829015544,4,2,1,60,1,0
82538,319.148936170213,4,2,1,60,1,8
82697,319.148936170213,4,2,1,60,1,0
83973,315.789473684211,4,2,1,60,1,0
84920,322.58064516129,4,2,1,60,1,0
85242,315.789473684211,4,2,1,60,1,0
87758,315.789473684211,4,2,1,60,1,0
87915,322.58064516129,4,2,1,60,1,8
88399,315.789473684211,4,2,1,60,1,8

[Colours]
Combo1 : 99,222,228
Combo2 : 99,168,237

[HitObjects]
442,266,612,5,2,1:2:0:0:
383,203,769,1,2,1:2:0:0:
318,294,927,2,0,P|281:288|228:280,1,80,10|0,0:2|0:2,0:2:0:0:
216,301,1164,1,8,0:2:0:0:
216,301,1243,1,2,1:2:0:0:
295,208,1401,1,2,1:2:0:0:
186,114,1559,2,0,P|192:150|198:203,1,80,10|0,0:2|0:2,0:2:0:0:
178,221,1796,1,8,0:2:0:0:
178,221,1875,5,2,1:2:0:0:
267,131,2033,1,2,1:2:0:0:
365,257,2190,2,0,P|417:226|481:238,1,120,10|8,0:2|0:2,0:2:0:0:
495,269,2506,2,0,P|490:306|482:358,1,80,2|0,1:2|1:2,0:0:0:0:
412,187,2822,2,0,P|403:135|393:60,1,120,10|8,0:2|0:2,0:2:0:0:
399,34,3138,6,0,P|444:10|482:15,1,80,2|0,1:2|1:2,0:0:0:0:
316,124,3454,2,0,P|280:118|227:112,1,80,10|0,0:2|0:2,0:2:0:0:
223,77,3690,1,8,0:2:0:0:
223,77,3769,1,2,1:2:0:0:
189,203,3927,1,2,1:2:0:0:
137,46,4085,2,0,P|96:27|56:30,1,80,10|0,0:2|0:2,0:2:0:0:
75,160,4401,6,0,P|77:141|80:115,1,40,0|0,1:2|1:2,0:2:0:0:
230,38,4559,2,0,P|227:58|223:79,3,40,0|0|8|0,1:2|1:2|0:2|1:2,0:0:0:0:
234,166,4875,2,0,P|212:163|192:160,1,40,0|0,1:2|1:2,0:2:0:0:
64,28,5033,2,0,P|84:29|105:33,3,40,8|0|0|0,0:2|1:2|1:2|1:2,0:0:0:0:
224,77,5348,1,8,0:2:0:0:
246,74,5426,1,8,0:2:0:0:
269,70,5505,1,8,0:2:0:0:
292,67,5584,1,8,0:2:0:0:
315,64,5663,1,12,0:2:0:0:
315,64,6296,5,8,0:2:0:0:
372,124,6454,1,0,1:2:0:0:
436,50,6612,2,0,P|469:44|517:38,1,55.9999982910157,0|8,1:2|0:2,0:0:0:0:
464,137,6942,1,0,1:2:0:0:
454,128,7099,1,8,0:2:0:0:
495,238,7256,1,0,1:2:0:0:
482,258,7570,2,0,P|449:252|401:246,1,55.9999982910157,8|0,0:2|1:2,0:0:0:0:
344,316,7884,1,0,1:2:0:0:
360,153,8041,1,8,0:2:0:0:
360,153,8120,1,8,0:2:0:0:
360,153,8198,6,0,P|338:210|247:247,1,143.999995605469,6|10,1:2|0:2,0:2:0:0:
168,203,8669,1,2,1:2:0:0:
254,81,8826,2,0,P|258:114|265:162,1,71.9999978027344,2|0,1:2|1:2,0:2:0:0:
352,249,9140,2,0,P|357:210|362:173,1,71.9999978027344,10|0,0:2|0:0,0:2:0:0:
251,274,9455,5,2,1:2:0:0:
168,178,9612,2,0,P|122:158|87:163,1,71.9999978027344,2|8,1:2|0:2,0:2:0:0:
26,247,9926,1,2,0:2:0:0:
146,317,10083,1,2,1:2:0:0:
34,369,10240,1,2,1:2:0:0:
163,294,10397,2,0,P|222:301|282:310,1,107.999996704102,10|0,0:2|0:2,0:2:0:0:
292,333,10711,1,4,0:2:0:0:
292,333,11349,5,8,0:2:0:0:
358,281,11508,1,0,1:2:0:0:
427,348,11668,2,0,P|464:353|502:358,1,55.9999982910157,0|8,1:2|0:2,0:0:0:0:
449,259,11987,1,0,1:2:0:0:
439,268,12144,1,8,0:2:0:0:
480,158,12302,1,0,1:2:0:0:
466,132,12618,2,0,P|423:118|404:124,1,55.9999982910157,8|0,0:2|0:2,0:2:0:0:
295,173,12934,2,0,P|338:186|357:180,1,55.9999982910157,0|0,1:2|0:2,0:2:0:0:
238,92,13250,5,8,0:2:0:0:
283,268,13407,1,8,0:2:0:0:
27,96,13721,1,12,0:2:0:0:
45,79,14506,5,8,0:2:0:0:
220,136,14665,1,8,0:2:0:0:
243,128,15139,5,8,0:2:0:0:
29,194,15302,1,8,0:2:0:0:
41,224,15769,6,0,P|78:229|116:235,1,64,4|0,1:2|0:0,0:2:0:0:
183,350,16083,2,0,B|159:308|159:308|210:228,1,128,2|0,1:2|1:2,0:2:0:0:
100,73,16711,2,0,P|105:111|110:148,1,64,2|0,1:2|0:2,0:2:0:0:
209,217,17025,2,0,P|213:183|217:149,1,64,2|0,1:2|0:2,0:2:0:0:
345,87,17339,2,0,P|302:103|275:98,1,64,2|0,1:2|0:2,0:2:0:0:
164,23,17653,2,0,P|199:51|208:77,1,64,2|0,1:2|0:2,0:2:0:0:
126,158,17967,1,2,1:2:0:0:
143,177,18296,6,0,B|154:231|154:231|146:262|146:262|158:320,1,128,6|2,1:2|1:2,0:2:0:0:
231,356,18769,2,0,P|282:312|347:321,1,128,2|0,0:2|0:2,0:2:0:0:
461,253,19243,1,2,1:2:0:0:
399,373,19401,2,0,P|389:309|379:242,1,128,2|0,0:0|0:0,0:0:0:0:
482,136,19874,2,0,P|449:141|414:145,1,64,6|0,1:2|0:2,0:2:0:0:
295,65,20190,1,2,1:2:0:0:
414,42,20348,1,8,0:2:0:0:
414,42,20427,1,8,0:2:0:0:
414,42,20506,1,8,0:2:0:0:
301,164,20664,1,8,0:2:0:0:
301,164,20743,1,8,0:2:0:0:
301,164,20822,6,0,B|254:177|221:149|234:144|200:116|145:133,1,143.999995605469,6|8,1:2|0:2,0:2:0:0:
91,182,21295,1,0,0:2:0:0:
16,128,21453,1,2,1:2:0:0:
102,12,21611,2,0,P|96:48|91:87,1,71.9999978027344,2|0,1:2|0:2,0:2:0:0:
183,224,21927,6,0,P|222:191|325:197,1,143.999995605469,10|0,0:2|1:2,0:2:0:0:
356,304,22401,2,0,P|320:299|281:293,1,71.9999978027344,10|0,0:2|0:2,0:2:0:0:
271,273,22638,1,8,0:2:0:0:
271,273,22717,1,2,1:2:0:0:
386,225,22875,1,0,1:2:0:0:
407,376,23033,2,0,P|444:370|482:365,1,71.9999978027344,10|0,0:2|0:0,0:2:0:0:
387,192,23348,6,0,P|312:180|234:169,1,143.999995605469,6|10,1:2|0:2,0:0:0:0:
163,43,23822,1,2,0:2:0:0:
163,43,23901,1,10,0:2:0:0:
163,43,23980,2,0,P|176:77|171:115,1,71.9999978027344,0|0,1:2|0:2,0:2:0:0:
105,170,24296,5,2,0:2:0:0:
184,294,24454,2,0,P|178:257|172:219,1,71.9999978027344,10|0,0:2|0:2,0:2:0:0:
174,128,24769,1,2,1:2:0:0:
83,264,24927,2,0,P|89:227|94:189,1,71.9999978027344,10|0,0:2|0:2,0:2:0:0:
43,117,25243,1,0,1:0:0:0:
138,52,25401,1,0,1:2:0:0:
211,205,25559,2,0,P|262:177|323:191,1,107.999996704102,14|0,0:2|0:0,0:2:0:0:
328,212,25874,6,0,P|323:250|317:287,1,64,4|0,1:2|0:0,0:2:0:0:
417,198,26188,2,0,P|406:122|395:46,1,128,2|0,1:2|1:2,0:2:0:0:
255,166,26816,2,0,P|298:188|333:180,1,64,2|0,1:2|0:2,0:2:0:0:
226,91,27130,2,0,P|186:117|175:152,1,64,2|0,1:2|0:2,0:2:0:0:
105,226,27447,2,0,P|142:221|180:216,1,64,2|0,1:2|0:2,0:2:0:0:
252,317,27765,2,0,P|214:312|177:307,1,64,2|0,1:2|0:2,0:2:0:0:
306,214,28083,1,6,1:2:0:0:
336,223,28401,6,0,P|342:262|346:298,1,64,6|0,1:2|0:2,0:2:0:0:
426,371,28716,2,0,P|430:338|434:304,1,64,2|2,1:2|0:2,0:2:0:0:
495,239,29032,1,0,1:2:0:0:
408,118,29190,2,0,P|413:151|417:185,1,64,2|2,0:2|1:2,0:2:0:0:
333,78,29506,2,0,P|359:45|395:39,1,64,2|4,0:2|0:2,0:0:0:0:
495,103,29822,1,0,1:2:0:0:
495,103,29901,1,0,1:2:0:0:
495,103,29979,1,8,0:2:0:0:
331,186,30137,1,4,3:3:0:0:
449,206,30295,1,8,3:3:0:0:
440,193,30453,1,8,3:3:0:0:
345,316,30611,2,0,P|276:306|206:298,1,120,12|0,0:2|0:2,0:2:0:0:
166,361,30926,6,0,P|140:300|189:225,1,143.999995605469,6|8,1:2|0:2,0:2:0:0:
62,136,31399,2,0,P|68:174|73:211,1,71.9999978027344,2|2,0:2|1:2,0:0:0:0:
173,132,31715,2,0,P|177:93|183:56,1,71.9999978027344,2|0,1:2|0:2,0:2:0:0:
256,198,32031,6,0,B|301:209|334:182|321:177|355:148|396:162,1,143.999995605469,10|2,0:2|1:2,0:2:0:0:
454,8,32504,2,0,P|440:45|444:83,1,71.9999978027344,10|0,0:2|0:2,0:2:0:0:
462,109,32741,1,8,0:2:0:0:
462,109,32820,2,0,P|477:152|472:184,1,71.9999978027344,2|0,1:2|1:2,0:0:0:0:
396,267,33136,1,10,0:2:0:0:
286,181,33294,1,2,0:2:0:0:
207,334,33452,6,0,B|196:284|196:284|212:255|212:255|197:181,1,143.999995605469,2|8,1:2|0:2,0:2:0:0:
53,223,33926,2,0,P|88:228|129:234,1,71.9999978027344,2|2,0:2|1:2,0:0:0:0:
235,261,34241,1,2,1:2:0:0:
125,153,34399,1,8,0:2:0:0:
243,38,34557,6,0,P|205:95|238:185,1,143.999995605469,6|0,1:2|0:2,0:2:0:0:
363,101,35031,2,0,P|325:105|287:110,1,71.9999978027344,10|0,0:2|1:2,0:0:0:0:
187,254,35347,2,0,P|213:256|239:260,2,47.9999985351563,4|4|4,3:3|3:3|3:3,0:0:0:0:
347,182,35662,2,0,P|323:185|299:188,2,47.9999985351563,8|8|8,3:3|3:3|3:3,0:0:0:0:
329,288,35978,1,4,1:0:0:0:
312,271,36610,6,0,P|274:276|236:281,1,55.9999982910157,2|0,0:2|0:2,0:2:0:0:
199,345,36926,2,0,P|161:340|123:335,1,55.9999982910157,2|0,0:2|0:2,0:2:0:0:
42,358,37241,2,0,P|64:324|45:241,1,111.999996582031,2|0,0:2|0:2,0:2:0:0:
34,86,37874,2,0,P|30:124|26:164,1,55.9999982910157,2|0,0:2|0:2,0:2:0:0:
74,221,38196,1,2,0:2:0:0:
74,221,38357,1,2,1:2:0:0:
165,158,38519,6,0,B|201:148|227:170|217:175|244:197|277:186,1,111.999996582031,2|0,1:2|0:2,0:2:0:0:
351,138,38991,2,0,B|380:178|380:178|346:250,1,111.999996582031,2|0,0:2|0:2,0:2:0:0:
278,289,39463,2,0,P|307:314|340:319,1,55.9999982910157,2|0,0:2|0:2,0:2:0:0:
426,374,39778,2,0,P|433:315|440:256,1,111.999996582031,2|0,0:2|0:2,0:2:0:0:
369,82,40408,2,0,P|372:112|375:137,1,55.9999982910157,2|2,0:2|1:2,0:0:0:0:
464,185,40723,1,2,1:2:0:0:
454,166,40881,1,0,1:2:0:0:
341,226,41038,6,0,P|282:233|223:240,1,111.999996582031,2|0,1:2|0:2,0:2:0:0:
162,169,41511,2,0,P|220:162|279:154,1,111.999996582031,2|0,0:2|0:2,0:2:0:0:
305,73,41983,2,0,P|275:75|246:79,1,55.9999982910157,2|0,0:2|0:2,0:2:0:0:
154,134,42298,2,0,P|166:78|145:25,1,111.999996582031,2|0,0:2|0:2,0:2:0:0:
56,34,42770,2,0,P|44:90|66:145,1,111.999996582031,2|0,0:2|0:2,0:2:0:0:
131,217,43243,1,2,0:2:0:0:
118,205,43396,1,0,1:2:0:0:
89,287,43549,6,0,P|59:290|30:294,1,55.9999982910157,2|0,1:2|0:2,0:2:0:0:
95,367,43868,2,0,P|124:363|153:359,1,55.9999982910157,2|0,0:2|0:2,0:2:0:0:
220,243,44187,2,0,P|216:272|212:301,1,55.9999982910157,2|0,0:2|0:2,0:2:0:0:
285,361,44506,2,0,P|288:331|292:302,1,55.9999982910157,2|0,0:2|0:2,0:2:0:0:
383,203,44812,2,0,P|345:226|284:210,1,83.9999974365235,2|0,0:2|0:2,0:2:0:0:
295,197,45122,5,8,0:2:0:0:
384,296,45278,2,0,P|425:301|466:306,1,80,4|0,1:2|0:2,0:2:0:0:
391,185,45601,1,0,1:2:0:0:
285,338,45763,2,0,P|243:343|202:347,1,80,8|0,0:2|0:2,0:2:0:0:
52,383,46066,1,8,0:2:0:0:
197,243,46223,1,8,0:2:0:0:
221,258,46539,6,0,B|190:199|224:149|234:165|267:112|235:55,1,200,4|0,0:2|0:2,0:2:0:0:
241,68,47013,1,8,0:2:0:0:
226,41,47670,5,8,0:2:0:0:
306,213,47831,1,8,0:2:0:0:
316,235,48612,5,6,1:2:0:0:
434,139,48769,1,2,0:2:0:0:
380,313,48927,1,10,0:2:0:0:
236,188,49085,1,2,0:2:0:0:
236,188,49164,1,8,0:2:0:0:
236,188,49243,2,0,P|273:149|321:145,1,88.000002685547,0|2,1:2|1:2,0:0:0:0:
234,271,49559,2,0,P|185:276|140:281,1,88.000002685547,10|0,0:2|0:2,0:2:0:0:
30,130,49875,5,2,1:2:0:0:
147,197,50033,1,2,1:2:0:0:
58,304,50190,1,10,0:2:0:0:
203,366,50348,1,2,0:2:0:0:
203,366,50427,1,8,0:2:0:0:
203,366,50506,2,0,P|248:360|295:355,1,88.000002685547,0|0,1:2|0:2,0:2:0:0:
355,191,50822,2,0,P|319:219|307:263,1,88.000002685547,8|0,0:2|0:2,0:2:0:0:
381,363,51138,5,2,1:2:0:0:
488,281,51296,2,0,P|441:274|395:268,1,88.000002685547,2|8,0:2|0:2,0:2:0:0:
311,113,51612,1,2,0:2:0:0:
311,113,51690,1,8,0:2:0:0:
311,113,51769,2,0,P|357:107|403:101,1,88.000002685547,2|0,1:2|0:2,0:2:0:0:
504,24,52085,1,10,0:2:0:0:
443,187,52243,1,2,0:2:0:0:
335,26,52401,6,0,P|290:0|244:2,1,88.000002685547,2|0,1:2|1:2,0:2:0:0:
130,120,52717,1,8,0:2:0:0:
227,81,52875,1,0,1:2:0:0:
79,0,53033,1,8,0:2:0:0:
217,170,53190,1,0,1:2:0:0:
51,284,53348,2,0,P|42:210|33:137,1,132.00000402832,12|0,0:2|0:2,0:2:0:0:
43,111,53664,6,0,P|84:89|141:100,1,88.000002685547,6|0,1:2|0:2,0:2:0:0:
246,257,53980,2,0,P|200:261|160:240,1,88.000002685547,10|0,0:2|0:2,0:2:0:0:
147,217,54217,1,8,0:2:0:0:
147,217,54296,1,2,1:2:0:0:
241,361,54454,1,2,1:2:0:0:
321,184,54612,1,10,0:2:0:0:
427,306,54769,6,0,P|381:312|335:318,1,88.000002685547,2|0,0:2|1:2,0:2:0:0:
256,240,55085,1,2,1:2:0:0:
379,122,55243,1,10,0:2:0:0:
254,36,55401,1,2,0:2:0:0:
345,214,55559,6,0,B|402:231|440:193|424:187|466:149|522:169,1,176.000005371094,2|8,1:2|0:2,0:2:0:0:
379,122,56033,1,0,0:2:0:0:
477,0,56190,2,0,P|471:46|465:92,1,88.000002685547,2|0,1:2|0:0,0:2:0:0:
305,189,56506,2,0,P|298:146|291:102,1,88.000002685547,10|0,0:2|0:2,0:2:0:0:
305,73,56743,1,8,0:2:0:0:
305,73,56822,1,2,1:2:0:0:
209,174,56980,1,2,1:2:0:0:
137,27,57138,2,0,P|186:9|229:20,1,88.000002685547,10|2,0:2|0:2,0:2:0:0:
97,168,57454,5,8,0:2:0:0:
97,168,57533,1,8,0:2:0:0:
97,168,57612,2,0,L|51:162,1,44.0000013427735,8|8,0:2|0:2,0:0:0:0:
149,281,57769,1,8,0:2:0:0:
149,281,57848,1,8,0:2:0:0:
149,281,57927,2,8,L|195:275,1,44.0000013427735,8|8,0:2|0:2,0:2:0:0:
249,110,58085,1,8,0:2:0:0:
239,129,58163,1,8,0:2:0:0:
234,151,58242,1,8,0:2:0:0:
236,172,58321,1,8,0:2:0:0:
243,193,58401,2,0,L|289:199,1,44.0000013427735,8|8,0:2|0:2,0:0:0:0:
377,131,58559,2,8,L|333:125,1,44.0000013427735,8|8,0:2|0:2,0:2:0:0:
275,288,58717,6,0,L|452:310,1,176.000005371094,6|10,1:2|0:2,0:2:0:0:
287,198,59190,2,0,P|242:177|192:182,1,88.000002685547,2|0,0:2|1:2,0:2:0:0:
279,319,59506,1,2,1:2:0:0:
394,158,59664,2,0,P|439:137|489:142,1,88.000002685547,10|0,0:2|0:2,0:2:0:0:
312,111,59980,5,2,1:2:0:0:
375,252,60138,1,2,1:2:0:0:
421,58,60296,1,10,0:2:0:0:
264,225,60454,2,0,B|198:210|198:210|158:226|158:226|79:212,1,176.000005371094,2|0,0:2|1:2,0:0:0:0:
189,380,60927,2,0,P|210:335|205:285,1,88.000002685547,10|0,0:2|0:2,0:2:0:0:
161,171,61243,5,2,1:2:0:0:
28,330,61401,2,0,P|71:323|115:316,1,88.000002685547,2|8,0:2|0:2,0:2:0:0:
244,218,61717,1,2,0:2:0:0:
244,218,61796,1,8,0:2:0:0:
244,218,61875,2,0,P|287:225|331:232,1,88.000002685547,2|0,1:2|1:2,0:2:0:0:
479,349,62190,1,10,0:2:0:0:
423,215,62348,1,2,0:2:0:0:
299,327,62506,6,0,P|342:320|386:313,1,88.000002685547,2|0,1:2|1:2,0:2:0:0:
363,141,62822,1,8,0:2:0:0:
302,228,62980,1,0,1:2:0:0:
465,294,63138,1,8,0:2:0:0:
281,146,63296,1,0,1:2:0:0:
456,59,63454,2,0,P|447:124|439:190,1,132.00000402832,12|0,0:2|0:2,0:2:0:0:
412,220,63769,6,0,P|374:241|330:239,1,88.000002685547,6|0,1:2|0:2,0:2:0:0:
256,56,64085,2,0,P|299:51|338:69,1,88.000002685547,10|0,0:2|0:2,0:2:0:0:
357,103,64322,1,8,0:2:0:0:
357,103,64401,1,2,1:2:0:0:
252,226,64559,1,2,1:2:0:0:
162,85,64717,1,10,0:2:0:0:
49,184,64875,6,0,P|92:177|136:170,1,88.000002685547,2|0,0:2|1:2,0:2:0:0:
245,100,65190,1,2,1:2:0:0:
161,246,65348,1,10,0:2:0:0:
346,295,65506,1,2,0:2:0:0:
128,351,65664,2,0,B|113:285|113:285|129:245|129:245|115:166,1,176.000005371094,2|8,1:2|0:2,0:2:0:0:
0,64,66138,1,0,1:2:0:0:
0,64,66217,1,8,0:2:0:0:
0,64,66296,6,0,P|43:99|87:102,1,88.000002685547,2|0,1:2|0:0,0:2:0:0:
237,58,66612,2,0,P|185:77|160:114,1,88.000002685547,10|0,0:2|0:2,0:2:0:0:
210,230,66927,1,2,1:2:0:0:
316,108,67085,1,2,1:2:0:0:
382,295,67243,2,0,P|339:288|295:281,1,88.000002685547,10|2,0:2|0:2,0:2:0:0:
392,61,67559,6,0,P|433:98|434:191,1,132.00000402832,8|0,0:2|0:2,0:2:0:0:
363,202,67875,2,0,L|317:196,1,44.0000013427735,8|8,0:2|0:2,0:2:0:0:
272,102,68033,2,0,L|315:107,1,44.0000013427735,8|8,0:2|0:2,0:2:0:0:
205,267,68190,1,8,0:2:0:0:
202,245,68268,1,8,0:2:0:0:
199,223,68347,1,8,0:2:0:0:
196,201,68426,1,8,0:2:0:0:
193,179,68505,1,8,0:2:0:0:
190,157,68584,1,8,0:2:0:0:
187,136,68664,2,8,L|193:90,1,44.0000013427735,8|8,0:2|0:2,0:2:0:0:
110,201,68822,6,0,L|127:331,1,132.00000402832,6|0,1:2|0:2,0:2:0:0:
153,358,69138,2,0,P|202:372|250:360,1,88.000002685547,10|0,0:2|0:2,0:2:0:0:
358,269,69454,2,0,P|289:242|209:265,1,132.00000402832,2|0,1:2|0:2,0:2:0:0:
205,267,69769,2,0,P|212:224|219:180,1,88.000002685547,10|0,0:2|0:2,0:2:0:0:
95,36,70085,6,0,B|153:23|188:63|171:68|211:109|268:93,1,176.000005371094,2|8,1:2|0:2,0:2:0:0:
350,234,70559,2,0,P|343:190|336:147,1,88.000002685547,2|0,0:2|1:2,0:2:0:0:
354,32,70875,1,0,0:2:0:0:
239,183,71033,2,0,P|245:139|252:96,1,88.000002685547,10|0,0:2|0:2,0:2:0:0:
438,246,71348,6,0,P|393:275|299:268,1,132.00000402832,6|0,1:2|0:2,0:2:0:0:
296,250,71664,1,10,0:2:0:0:
408,160,71822,1,2,0:2:0:0:
326,5,71980,2,0,P|333:48|339:91,1,88.000002685547,2|0,1:2|0:0,0:2:0:0:
499,200,72296,2,0,P|505:156|512:113,1,88.000002685547,10|0,0:2|0:2,0:2:0:0:
382,243,72612,5,6,1:2:0:0:
506,353,72769,2,0,P|462:346|419:339,1,88.000002685547,2|8,0:2|0:2,0:2:0:0:
271,383,73085,1,2,0:2:0:0:
202,195,73243,1,2,1:2:0:0:
295,277,73401,1,2,0:2:0:0:
150,367,73559,2,0,P|106:371|65:356,1,88.000002685547,10|0,0:2|0:2,0:2:0:0:
81,129,73875,6,0,P|91:196|102:262,1,132.00000402832,4|0,1:2|0:2,0:2:0:0:
121,285,74190,2,0,P|162:270|205:274,1,88.000002685547,10|0,0:2|0:2,0:2:0:0:
347,363,74506,2,0,P|303:367|262:352,1,88.000002685547,0|0,1:2|0:2,0:2:0:0:
331,169,74822,2,0,P|324:213|317:256,1,88.000002685547,10|0,0:2|0:2,0:2:0:0:
459,377,75138,6,0,B|444:311|444:311|460:271|460:271|446:192,1,176.000005371094,2|8,1:2|0:2,0:2:0:0:
314,77,75612,2,0,P|358:84|401:91,1,88.000002685547,2|0,0:2|1:2,0:2:0:0:
506,59,75927,1,0,0:2:0:0:
357,199,76085,2,0,P|401:192|444:185,1,88.000002685547,10|0,0:2|0:2,0:2:0:0:
298,301,76401,6,0,P|251:240|253:183,1,132.00000402832,6|0,1:2|0:2,0:2:0:0:
269,156,76717,2,0,P|225:149|182:142,1,88.000002685547,10|0,0:2|0:2,0:2:0:0:
36,8,77033,2,0,P|101:18|166:28,1,132.00000402832,6|0,1:2|0:2,0:2:0:0:
178,56,77348,2,0,P|222:49|265:42,1,88.000002685547,10|2,0:2|0:2,0:0:0:0:
388,166,77664,5,8,0:2:0:0:
388,166,77743,1,8,0:2:0:0:
388,166,77822,1,8,0:2:0:0:
276,136,77980,1,8,0:2:0:0:
386,37,78138,1,0,1:2:0:0:
259,154,78296,2,0,L|213:148,1,44.0000013427735,8|8,0:2|0:2,0:0:0:0:
172,59,78454,2,0,L|215:64,1,44.0000013427735,8|8,0:2|0:2,0:0:0:0:
321,219,78612,1,8,0:2:0:0:
326,241,78691,1,8,3:3:0:0:
323,262,78770,1,8,3:3:0:0:
314,282,78849,1,8,3:3:0:0:
299,298,78927,6,0,B|248:314|214:281|229:275|190:242|141:260,1,160,6|10,1:2|0:2,0:2:0:0:
33,374,79398,2,0,P|40:330|47:287,1,80,2|0,0:2|1:2,0:2:0:0:
0,207,79712,1,0,1:2:0:0:
155,163,79869,1,10,0:2:0:0:
46,9,80026,6,0,P|52:48|58:87,1,80,2|0,1:2|0:2,0:2:0:0:
84,215,80340,1,2,1:2:0:0:
191,81,80498,2,0,P|234:61|289:75,1,80,10|0,0:2|0:2,0:2:0:0:
290,86,80735,1,8,0:2:0:0:
290,86,80814,1,2,1:2:0:0:
179,182,80972,1,0,1:2:0:0:
342,251,81130,2,0,P|381:244|420:238,1,80,10|0,0:2|0:2,0:2:0:0:
263,308,81446,5,2,1:2:0:0:
339,150,81604,1,2,0:2:0:0:
242,73,81761,2,0,P|248:112|254:151,1,80,10|0,0:2|0:0,0:2:0:0:
215,235,82071,1,2,1:2:0:0:
339,150,82227,1,2,1:2:0:0:
155,110,82382,1,10,0:2:0:0:
306,233,82538,6,0,P|362:240|393:226,1,80,6|0,1:2|0:2,0:2:0:0:
510,113,82856,1,2,1:2:0:0:
510,113,82936,1,2,0:2:0:0:
510,113,83016,2,0,P|454:106|423:120,1,80,10|0,0:2|0:2,0:2:0:0:
463,306,83335,1,2,1:2:0:0:
400,212,83494,1,2,1:2:0:0:
307,341,83654,1,10,0:2:0:0:
245,148,83814,1,2,0:2:0:0:
74,258,83973,6,0,B|133:271|133:271|169:257|169:257|240:269,1,160,6|10,1:2|0:2,0:2:0:0:
146,117,84446,2,0,P|99:141|82:185,1,80,2|0,0:2|1:2,0:2:0:0:
253,132,84762,2,0,P|255:79|226:42,1,80,2|8,1:2|0:2,0:2:0:0:
173,205,85081,1,2,0:2:0:0:
320,304,85242,5,8,0:2:0:0:
320,304,85320,1,8,0:2:0:0:
320,304,85399,2,0,L|366:298,1,40,8|8,0:2|0:2,0:0:0:0:
454,217,85557,1,8,0:2:0:0:
454,217,85636,1,8,0:2:0:0:
454,217,85715,2,8,L|408:211,1,40,8|8,0:2|0:2,0:2:0:0:
347,87,85873,2,8,L|353:133,1,40,8|8,0:2|0:2,0:2:0:0:
269,215,86031,2,8,L|274:175,1,40,8|8,0:2|0:2,0:2:0:0:
363,69,86189,2,8,L|369:115,1,40,8|8,0:2|0:2,0:2:0:0:
242,228,86347,2,0,L|247:188,1,40,8|8,0:2|0:2,0:0:0:0:
264,91,86505,1,2,1:2:0:0:
264,91,87758,5,2,1:2:0:0:
171,162,87915,2,0,B|96:204|33:133|33:133|78:154|128:122,1,240,10|8,0:2|0:0,0:2:0:0:
64,16,88556,2,0,L|69:55,1,40,0|8,1:2|0:2,0:2:0:0:
159,52,88714,2,0,L|154:13,3,40,8|8|0|0,0:0|0:0|1:2|0:0,0:0:0:0:
