osu file format v14

[General]
AudioFilename: audio.ogg
AudioLeadIn: 0
PreviewTime: 45914
Countdown: 0
SampleSet: Soft
StackLeniency: 0.4
Mode: 0
LetterboxInBreaks: 0
WidescreenStoryboard: 1

[Editor]
DistanceSpacing: 1.4
BeatDivisor: 4
GridSize: 32
TimelineZoom: 3.000002

[Metadata]
Title:grayscale dominator (TV Size)
TitleUnicode:grayscale dominator (TV Size)
Artist:OxT
ArtistUnicode:OxT
Creator:AsuKow
Version:Rose
Source:陰の実力者になりたくて! 2nd season
Tags:Amats Shayks eringiRa NakaroniX that_blazord blazord japanese rock j-rock jrock anime opening op male vocals vocalist the eminence in shadow 2nd season kage no jitsuryokusha ni naritakute! to be a power in the shadows! Kadokawa Pony Canyon
BeatmapID:4470130
BeatmapSetID:2126479

[Difficulty]
HPDrainRate:6
CircleSize:4.2
OverallDifficulty:9
ApproachRate:9.3
SliderMultiplier:1.7
SliderTickRate:1

[Events]
//Background and Video events
0,0,"114549888_p0.jpg",0,0
Video,0,"video.avi"
//Break Periods
//Storyboard Layer 0 (Background)
//Storyboard Layer 1 (Fail)
//Storyboard Layer 2 (Pass)
//Storyboard Layer 3 (Foreground)
//Storyboard Layer 4 (Overlay)
//Storyboard Sound Samples

[TimingPoints]
612,315.789473684211,4,2,1,70,1,0
612,-100,4,2,1,70,0,0
1164,-100,4,2,2,70,0,0
1243,-100,4,2,1,70,0,0
1796,-100,4,2,2,70,0,0
1875,-100,4,2,1,70,0,0
2427,-100,4,2,2,70,0,0
2506,-100,4,2,1,70,0,0
3059,-100,4,2,2,70,0,0
3138,-100,4,2,1,70,0,0
3690,-100,4,2,2,70,0,0
3769,-100,4,2,1,70,0,0
4085,-142.857142857143,4,2,3,70,0,0
4322,-100,4,2,3,5,0,0
4401,-83.3333333333333,4,2,3,50,0,0
4717,-83.3333333333333,4,2,3,55,0,0
5033,-76.9230769230769,4,2,3,60,0,0
5348,-83.3333333333333,4,2,3,65,0,0
5664,-166.666666666667,4,2,1,65,0,0
5980,-166.666666666667,4,2,2,40,0,0
6296,-166.666666666667,4,2,1,40,0,0
6454,-166.666666666667,4,2,2,40,0,0
6927,-166.666666666667,4,2,5,40,0,0
6942,314.13612565445,4,2,5,40,1,0
6942,-166.666666666667,4,2,5,40,0,0
7256,-166.666666666667,4,2,4,40,0,0
7413,-166.666666666667,4,2,3,40,0,0
7570,-166.666666666667,4,2,3,40,0,0
7727,-166.666666666667,4,2,2,40,0,0
7884,-166.666666666667,4,2,4,40,0,0
8041,-166.666666666667,4,2,2,40,0,0
8198,-125,4,2,3,50,0,0
8748,-125,4,2,5,50,0,0
9140,-125,4,2,3,50,0,0
10004,-125,4,2,5,50,0,0
10397,-125,4,2,6,50,0,0
10633,-125,4,2,6,5,0,0
10711,319.148936170213,4,2,1,40,1,0
10711,-166.666666666667,4,2,1,40,0,0
11030,-166.666666666667,4,2,2,40,0,0
11349,-166.666666666667,4,2,1,40,0,0
11508,-166.666666666667,4,2,2,40,0,0
11987,315.789473684211,4,2,5,40,1,0
11987,-166.666666666667,4,2,5,40,0,0
12302,-166.666666666667,4,2,4,40,0,0
12461,-166.666666666667,4,2,3,40,0,0
12934,-166.666666666667,4,2,4,40,0,0
13250,314.13612565445,4,2,1,60,1,0
13250,-100,4,2,1,60,0,0
13328,-100,4,2,1,5,0,0
13407,-125,4,2,2,60,0,0
13721,-100,4,2,4,60,0,0
14506,319.148936170213,4,2,1,60,1,0
14506,-100,4,2,1,60,0,0
14585,-100,4,2,1,5,0,0
14665,-125,4,2,2,60,0,0
15139,326.086956521739,4,2,1,60,1,0
15139,-100,4,2,1,60,0,0
15220,-100,4,2,1,5,0,0
15302,-125,4,2,2,60,0,0
15769,314.13612565445,4,2,1,50,1,0
15769,-142.857142857143,4,2,1,50,0,0
16083,-142.857142857143,4,2,7,50,0,0
16397,-142.857142857143,4,2,8,50,0,0
16711,-142.857142857143,4,2,7,50,0,0
18296,315.789473684211,4,2,5,50,1,0
18296,-142.857142857143,4,2,5,50,0,0
18611,-142.857142857143,4,2,7,50,0,0
18769,-142.857142857143,4,2,3,50,0,0
18927,-142.857142857143,4,2,8,50,0,0
19085,-142.857142857143,4,2,3,50,0,0
19401,-142.857142857143,4,2,1,50,0,0
19874,-142.857142857143,4,2,6,50,0,0
20032,-142.857142857143,4,2,3,50,0,0
20190,-142.857142857143,4,2,1,50,0,0
20348,-142.857142857143,4,2,9,50,0,0
20664,-100,4,2,9,50,0,0
20822,-100,4,2,9,60,0,0
21137,-100,4,2,1,60,0,0
21295,-111.111111111111,4,2,3,60,0,0
21453,-111.111111111111,4,2,1,60,0,0
22400,-111.111111111111,4,2,6,60,0,0
22558,-111.111111111111,4,2,5,60,0,0
22716,-111.111111111111,4,2,1,60,0,0
22874,-111.111111111111,4,2,3,60,0,0
23032,-125,4,2,6,60,0,0
23269,-125,4,2,6,5,0,0
23348,-100,4,2,6,60,0,0
23664,-142.857142857143,4,2,1,60,0,0
23822,-142.857142857143,4,2,5,60,0,0
23979,-142.857142857143,4,2,1,60,0,0
24453,-100,4,2,1,60,0,0
24927,-142.857142857143,4,2,6,60,0,0
25085,-142.857142857143,4,2,3,60,0,0
25243,-111.111111111111,4,2,1,60,0,0
25558,-100,4,2,9,60,0,0
25795,-100,4,2,9,5,0,0
25874,314.13612565445,4,2,3,50,1,0
25874,-142.857142857143,4,2,3,50,0,0
26188,-142.857142857143,4,2,7,50,0,0
26502,-142.857142857143,4,2,8,50,0,0
26816,-142.857142857143,4,2,7,50,0,0
27130,317.965023847377,4,2,7,50,1,8
27130,-142.857142857143,4,2,7,50,0,0
28083,-142.857142857143,4,2,3,50,0,0
28401,315.789473684211,4,2,9,50,1,0
28401,-142.857142857143,4,2,9,50,0,0
28716,-142.857142857143,4,2,7,50,0,0
28874,-142.857142857143,4,2,3,50,0,0
29032,-142.857142857143,4,2,1,50,0,0
29506,-142.857142857143,4,2,1,50,0,0
29979,-142.857142857143,4,2,5,50,0,0
30216,-142.857142857143,4,2,1,50,0,0
30453,-142.857142857143,4,2,2,50,0,0
30611,-142.857142857143,4,2,9,50,0,0
30848,-142.857142857143,4,2,9,5,0,0
30926,315.789473684211,4,2,3,60,1,0
30927,-100,4,2,3,60,0,0
31241,-142.857142857143,4,2,1,60,0,0
31399,-142.857142857143,4,2,5,60,0,0
31557,-142.857142857143,4,2,1,60,0,0
31715,-125,4,2,1,60,0,0
32031,-111.111111111111,4,2,1,60,0,0
32268,-111.111111111111,4,2,1,5,0,0
32347,-111.111111111111,4,2,1,60,0,0
32504,-142.857142857143,4,2,6,60,0,0
32662,-111.111111111111,4,2,5,60,0,0
32820,-142.857142857143,4,2,1,60,0,0
32978,-142.857142857143,4,2,3,60,0,0
33136,-142.857142857143,4,2,6,60,0,0
33294,-142.857142857143,4,2,6,60,0,0
33452,-111.111111111111,4,2,6,60,0,0
33768,-142.857142857143,4,2,1,60,0,0
33926,-142.857142857143,4,2,5,60,0,0
34083,-125,4,2,1,60,0,0
34557,-100,4,2,1,60,0,0
35031,-142.857142857143,4,2,6,60,0,0
35347,-142.857142857143,4,2,1,60,0,0
35557,-142.857142857143,4,2,2,60,0,0
35662,-142.857142857143,4,2,1,60,0,0
35768,-142.857142857143,4,2,1,60,0,0
35873,-142.857142857143,4,2,2,60,0,0
35978,-142.857142857143,4,2,1,40,0,0
36294,-142.857142857143,4,2,8,40,0,0
36610,-142.857142857143,4,2,7,40,0,0
36768,-142.857142857143,4,2,3,40,0,0
36926,-142.857142857143,4,2,7,40,0,0
37557,-142.857142857143,4,2,8,40,0,0
37874,322.58064516129,4,2,7,40,1,0
37874,-142.857142857143,4,2,7,40,0,0
38357,-142.857142857143,4,2,3,40,0,0
38519,314.96062992126,4,2,7,40,1,0
38519,-142.857142857143,4,2,7,40,0,0
38833,-142.857142857143,4,2,8,40,0,0
40408,-142.857142857143,4,2,7,40,0,0
40566,-142.857142857143,4,2,3,40,0,0
40723,-142.857142857143,4,2,7,40,0,0
41038,-125,4,2,12,40,0,0
41353,-142.857142857143,4,2,8,40,0,0
41511,-142.857142857143,4,2,3,40,0,0
41668,-142.857142857143,4,2,8,40,0,0
41983,-142.857142857143,4,2,7,40,0,0
42613,-142.857142857143,4,2,8,40,0,0
42770,-142.857142857143,4,2,3,40,0,0
42928,-142.857142857143,4,2,8,40,0,0
43243,306.122448979592,4,2,7,40,1,8
43243,-142.857142857143,4,2,7,40,0,0
43549,319.148936170213,4,2,7,50,1,0
43549,-125,4,2,7,50,0,0
44812,310.880829015544,4,2,7,50,1,0
44812,-142.857142857143,4,2,7,50,0,0
45045,-142.857142857143,4,2,7,5,0,0
45122,-142.857142857143,4,2,9,50,0,0
45278,323.450134770889,4,2,9,50,1,8
45278,-100,4,2,9,50,0,0
45520,-100,4,2,9,5,0,0
45601,-100,4,2,9,50,0,0
45763,303.030303030303,4,2,1,50,1,8
45763,-100,4,2,1,50,0,0
45987,-100,4,2,1,50,0,0
45990,-100,4,2,1,5,0,0
46066,315.789473684211,4,2,3,50,1,0
46066,-100,4,2,3,50,0,0
46144,-100,4,2,3,5,0,0
46223,-100,4,2,13,50,0,0
46539,-90.9090909090909,4,2,9,50,0,0
47670,322.58064516129,4,2,9,50,1,0
47670,-100,4,2,9,50,0,0
47750,-100,4,2,9,5,0,0
47831,-100,4,2,14,50,0,0
47992,-100,4,2,9,50,0,0
48612,315.789473684211,4,2,9,80,1,0
48612,-66.6666666666667,4,2,9,80,0,0
48769,-83.3333333333333,4,2,9,80,0,0
48848,-83.3333333333333,4,2,9,5,0,0
48927,-83.3333333333333,4,2,6,80,0,0
49085,-83.3333333333333,4,2,5,80,0,0
49243,-83.3333333333333,4,2,1,80,0,0
49401,-83.3333333333333,4,2,3,80,0,0
49559,-100,4,2,6,80,0,0
49796,-100,4,2,6,5,0,0
49875,-100,4,2,6,80,0,0
50033,-83.3333333333333,4,2,3,80,0,0
50190,-83.3333333333333,4,2,6,80,0,0
50348,-83.3333333333333,4,2,5,80,0,0
50506,-83.3333333333333,4,2,1,80,0,0
51138,-83.3333333333333,4,2,6,80,0,0
51296,-83.3333333333333,4,2,3,80,0,0
51454,-83.3333333333333,4,2,1,80,0,0
51611,-83.3333333333333,4,2,5,80,0,0
51769,-83.3333333333333,4,2,6,80,0,0
52243,-83.3333333333333,4,2,3,80,0,0
52401,-83.3333333333333,4,2,6,80,0,0
52638,-83.3333333333333,4,2,6,5,0,0
52717,-83.3333333333333,4,2,1,80,0,0
53033,-83.3333333333333,4,2,6,80,0,0
53348,-100,4,2,3,80,0,0
53585,-100,4,2,3,5,0,0
53664,-66.6666666666667,4,2,9,80,0,0
53901,-66.6666666666667,4,2,9,5,0,0
53980,-83.3333333333333,4,2,6,80,0,0
54217,-83.3333333333333,4,2,2,80,0,0
54296,-83.3333333333333,4,2,6,80,0,0
54454,-83.3333333333333,4,2,3,80,0,0
54611,-83.3333333333333,4,2,6,80,0,0
54769,-83.3333333333333,4,2,3,80,0,0
54927,-83.3333333333333,4,2,1,80,0,0
55085,-83.3333333333333,4,2,3,80,0,0
55243,-83.3333333333333,4,2,6,80,0,0
55401,-83.3333333333333,4,2,5,80,0,0
55559,-83.3333333333333,4,2,6,80,0,0
55875,-83.3333333333333,4,2,1,80,0,0
56111,-83.3333333333333,4,2,1,5,0,0
56190,-83.3333333333333,4,2,6,80,0,0
56427,-83.3333333333333,4,2,6,5,0,0
56506,-83.3333333333333,4,2,6,80,0,0
56743,-83.3333333333333,4,2,2,80,0,0
56822,-83.3333333333333,4,2,6,80,0,0
56980,-83.3333333333333,4,2,3,80,0,0
57138,-83.3333333333333,4,2,6,80,0,0
57296,-83.3333333333333,4,2,3,80,0,0
57454,-83.3333333333333,4,2,1,80,0,0
57611,-83.3333333333333,4,2,9,80,0,0
58717,-55.5555555555556,4,2,9,80,0,0
58954,-55.5555555555556,4,2,9,5,0,0
59033,-83.3333333333333,4,2,3,80,0,0
59269,-83.3333333333333,4,2,2,80,0,0
59348,-83.3333333333333,4,2,1,80,0,0
59506,-83.3333333333333,4,2,3,80,0,0
59664,-83.3333333333333,4,2,6,80,0,0
59901,-83.3333333333333,4,2,2,80,0,0
59980,-83.3333333333333,4,2,6,80,0,0
60138,-83.3333333333333,4,2,3,80,0,0
60296,-83.3333333333333,4,2,6,80,0,0
60454,-83.3333333333333,4,2,5,80,0,0
60611,-83.3333333333333,4,2,1,80,0,0
61243,-83.3333333333333,4,2,6,80,0,0
61401,-83.3333333333333,4,2,3,80,0,0
61559,-83.3333333333333,4,2,1,80,0,0
61717,-83.3333333333333,4,2,5,80,0,0
61875,-83.3333333333333,4,2,6,80,0,0
62348,-83.3333333333333,4,2,3,80,0,0
62506,-83.3333333333333,4,2,6,80,0,0
63138,-83.3333333333333,4,2,10,80,0,0
63296,-83.3333333333333,4,2,3,80,0,0
63454,-100,4,2,3,80,0,0
63690,-100,4,2,3,5,0,0
63769,-66.6666666666667,4,2,9,80,0,0
64006,-66.6666666666667,4,2,9,5,0,0
64085,-83.3333333333333,4,2,6,80,0,0
64322,-83.3333333333333,4,2,2,80,0,0
64401,-83.3333333333333,4,2,6,80,0,0
64559,-83.3333333333333,4,2,3,80,0,0
64717,-83.3333333333333,4,2,6,80,0,0
64875,-83.3333333333333,4,2,3,80,0,0
65033,-83.3333333333333,4,2,1,80,0,0
65190,-83.3333333333333,4,2,3,80,0,0
65348,-83.3333333333333,4,2,6,80,0,0
65506,-83.3333333333333,4,2,5,80,0,0
65664,-83.3333333333333,4,2,6,80,0,0
65980,-83.3333333333333,4,2,1,80,0,0
66217,-83.3333333333333,4,2,2,80,0,0
66296,-83.3333333333333,4,2,6,80,0,0
66848,-83.3333333333333,4,2,2,80,0,0
66927,-83.3333333333333,4,2,6,80,0,0
67085,-83.3333333333333,4,2,3,80,0,0
67243,-83.3333333333333,4,2,6,80,0,0
67401,-83.3333333333333,4,2,3,80,0,0
67559,-83.3333333333333,4,2,6,80,0,0
67717,-83.3333333333333,4,2,9,80,0,0
68822,-66.6666666666667,4,2,9,80,0,0
69059,-66.6666666666667,4,2,9,5,0,0
69138,-90.9090909090909,4,2,15,80,0,0
69454,-90.9090909090909,4,2,15,80,0,0
69690,-90.9090909090909,4,2,15,5,0,0
69769,-90.9090909090909,4,2,15,80,0,0
70401,-90.9090909090909,4,2,15,80,0,0
70559,-90.9090909090909,4,2,3,80,0,0
70717,-90.9090909090909,4,2,15,80,0,0
71033,-100,4,2,15,80,0,0
71269,-100,4,2,15,5,0,0
71348,-90.9090909090909,4,2,3,80,0,0
71585,-90.9090909090909,4,2,3,5,0,0
71664,-90.9090909090909,4,2,15,80,0,0
71822,-90.9090909090909,4,2,9,80,0,0
71980,-90.9090909090909,4,2,9,80,0,0
72217,-90.9090909090909,4,2,9,5,0,0
72296,-100,4,2,15,80,0,0
72454,-90.9090909090909,4,2,3,80,0,0
72927,-90.9090909090909,4,2,15,80,0,0
73085,-90.9090909090909,4,2,3,80,0,0
73243,-90.9090909090909,4,2,15,80,0,0
73401,-90.9090909090909,4,2,3,80,0,0
73559,-90.9090909090909,4,2,15,80,0,0
73796,-90.9090909090909,4,2,14,5,0,0
73875,-100,4,2,1,80,0,0
74190,-83.3333333333333,4,2,15,80,0,0
74506,-83.3333333333333,4,2,15,80,0,0
74664,-83.3333333333333,4,2,15,80,0,0
74822,-100,4,2,15,80,0,0
75059,-100,4,2,14,5,0,0
75138,-90.9090909090909,4,2,15,80,0,0
75454,-100,4,2,15,80,0,0
75611,-100,4,2,3,80,0,0
75769,-100,4,2,15,80,0,0
76401,-90.9090909090909,4,2,3,80,0,0
76638,-90.9090909090909,4,2,3,5,0,0
76717,-100,4,2,15,80,0,0
77033,-90.9090909090909,4,2,9,80,0,0
77269,-90.9090909090909,4,2,9,5,0,0
77348,-90.9090909090909,4,2,15,80,0,0
77506,-90.9090909090909,4,2,3,80,0,0
78375,-90.9090909090909,4,2,1,80,0,0
78454,-90.9090909090909,4,2,2,80,0,0
78611,-90.9090909090909,4,2,1,80,0,0
78690,-90.9090909090909,4,2,2,80,0,0
78927,314.13612565445,4,2,9,70,1,0
78927,-83.3333333333333,4,2,9,70,0,0
79241,-90.9090909090909,4,2,3,70,0,0
79555,-90.9090909090909,4,2,6,70,0,0
79869,-90.9090909090909,4,2,1,70,0,0
80183,315.789473684211,4,2,1,70,1,0
80183,-90.9090909090909,4,2,1,70,0,0
80735,-90.9090909090909,4,2,2,70,0,0
80814,-90.9090909090909,4,2,1,70,0,0
81683,-90.9090909090909,4,2,1,5,0,0
81761,310.880829015544,4,2,1,70,1,0
81761,-90.9090909090909,4,2,1,70,0,0
82538,319.148936170213,4,2,3,70,1,8
82538,-90.9090909090909,4,2,3,70,0,0
82697,319.148936170213,4,2,3,70,1,0
82697,-90.9090909090909,4,2,3,70,0,0
83016,-90.9090909090909,4,2,1,70,0,0
83255,-90.9090909090909,4,2,2,70,0,0
83335,-90.9090909090909,4,2,1,70,0,0
83973,315.789473684211,4,2,1,70,1,0
83973,-90.9090909090909,4,2,1,70,0,0
84920,322.58064516129,4,2,1,70,1,0
84920,-125,4,2,1,70,0,0
85242,315.789473684211,4,2,1,50,1,0
85242,-83.3333333333333,4,2,1,50,0,0
85557,-83.3333333333333,4,2,1,55,0,0
85873,-83.3333333333333,4,2,1,60,0,0
86189,-83.3333333333333,4,2,1,65,0,0
86505,-83.3333333333333,4,2,16,70,0,0
86822,-83.3333333333333,4,2,3,70,0,0
87758,315.789473684211,4,2,3,70,1,0
87758,-100,4,2,3,70,0,0
87915,322.58064516129,4,2,5,70,1,8
87915,-100,4,2,5,70,0,0
88399,315.789473684211,4,2,5,70,1,8
88399,-100,4,2,5,70,0,0
88556,-83.3333333333333,4,2,3,70,0,0

[Colours]
Combo1 : 255,253,168
Combo2 : 160,201,241
Combo3 : 175,128,240

[HitObjects]
380,148,612,5,4,1:2:0:0:
512,22,769,1,0,1:1:0:0:
407,12,927,2,0,P|427:62|440:100,1,85,10|8,2:2|0:0,0:0:0:0:
443,98,1164,1,8,2:2:0:0:
448,106,1243,1,2,1:2:0:0:
512,228,1401,1,0,1:1:0:0:
430,377,1559,6,0,P|395:352|354:354,1,85,10|8,2:2|0:2,0:0:0:0:
346,361,1796,1,8,2:2:0:0:
339,372,1875,1,2,1:2:0:0:
179,261,2033,1,0,1:1:0:0:
163,374,2190,2,0,P|203:357|254:339,1,85,10|8,2:2|0:2,0:0:0:0:
250,341,2427,1,8,2:2:0:0:
259,339,2506,1,2,1:2:0:0:
393,243,2664,1,0,1:1:0:0:
308,140,2822,6,0,P|267:152|227:167,1,85,10|8,2:2|0:2,0:0:0:0:
219,175,3059,1,8,2:2:0:0:
210,183,3138,1,2,1:2:0:0:
80,72,3296,1,0,1:1:0:0:
15,162,3454,2,0,P|50:186|91:183,1,85,10|8,2:2|0:2,0:0:0:0:
102,181,3690,1,8,2:2:0:0:
112,177,3769,1,2,1:2:0:0:
230,29,3927,1,0,1:1:0:0:
133,0,4085,6,0,P|151:61|159:101,1,89.2499972763062,12|0,2:2|0:0,0:0:0:0:
259,183,4401,5,8,1:2:0:0:
281,215,4480,1,8,2:2:0:0:
281,250,4559,2,0,P|251:259|231:270,1,50.9999984436036,8|8,2:2|2:2,0:0:0:0:
50,384,4717,5,8,1:2:0:0:
57,360,4796,1,8,2:2:0:0:
64,336,4875,1,8,2:2:0:0:
70,312,4954,1,8,2:2:0:0:
0,276,5033,5,8,1:2:0:0:
39,239,5111,1,8,2:2:0:0:
92,237,5190,1,8,2:2:0:0:
136,268,5269,1,8,2:2:0:0:
145,280,5348,5,8,1:2:0:0:
155,338,5427,5,8,2:2:0:0:
202,378,5506,5,8,2:2:0:0:
263,379,5585,5,8,2:2:0:0:
312,341,5664,6,0,P|296:285|279:230,1,101.999996887207,4|2,1:2|2:2,0:0:0:0:
58,0,6296,5,8,2:2:0:0:
58,0,6454,1,8,2:2:0:0:
72,79,6611,1,2,2:2:0:0:
0,51,6769,1,8,2:2:0:0:
138,122,6942,6,0,P|183:104|246:96,2,101.999996887207,0|2|8,1:2|1:2|2:2,0:0:0:0:
207,12,7727,1,8,2:2:0:0:
207,12,7884,1,2,2:2:0:0:
338,51,8041,5,8,2:2:0:0:
345,58,8120,1,8,2:2:0:0:
353,66,8198,2,0,P|402:23|470:33,1,136,6|10,1:2|2:2,0:0:0:0:
512,174,8669,1,2,2:2:0:0:
503,168,8748,1,10,2:2:0:0:
494,161,8826,1,2,1:2:0:0:
353,66,8983,1,0,1:1:0:0:
356,266,9140,6,0,P|369:230|378:201,1,68,10|0,2:2|1:2,0:0:0:0:
383,194,9376,1,0,1:2:0:0:
389,187,9455,1,2,1:2:0:0:
272,94,9612,1,2,1:2:0:0:
353,66,9769,1,8,2:2:0:0:
300,182,9926,5,10,2:2:0:0:
293,177,10004,1,10,2:2:0:0:
287,172,10083,1,2,1:2:0:0:
198,96,10240,1,2,1:2:0:0:
81,10,10397,2,0,P|26:7|-1:45,1,102,10|0,2:2|0:0,0:0:0:0:
0,61,10711,6,0,P|14:108|32:178,1,101.999996887207,4|2,1:2|2:2,0:0:0:0:
0,384,11349,5,8,2:2:0:0:
0,384,11508,1,8,2:2:0:0:
8,305,11668,1,2,2:2:0:0:
84,283,11828,1,8,2:2:0:0:
219,383,11987,6,0,B|267:373|259:346|314:340,2,101.999996887207,2|2|8,1:2|1:2|2:2,0:0:0:0:
134,282,12776,1,0,0:0:0:0:
228,256,12934,2,0,P|218:281|208:314,1,50.9999984436036,2|0,2:2|0:0,0:0:0:0:
96,98,13250,6,0,P|84:87|92:101,1,42.5,8|0,2:2|0:0,0:0:0:0:
171,211,13407,1,4,1:2:0:0:
512,68,13721,5,4,1:2:0:0:
512,384,14506,6,0,P|483:373|469:369,1,42.5,8|0,2:2|0:0,0:0:0:0:
327,310,14665,1,4,1:2:0:0:
0,249,15139,6,0,P|-15:252|0:255,1,42.5,8|0,2:2|0:0,0:0:0:0:
116,384,15302,1,4,1:2:0:0:
408,310,15769,6,0,P|463:293|512:324,2,118.999996368408,4|2|2,1:2|1:2|1:2,0:0:0:0:
327,210,16554,1,0,0:0:0:0:
271,278,16711,2,0,P|296:294|334:295,1,59.4999981842042,2|0,1:2|0:0,0:0:0:0:
419,227,17025,6,0,P|431:159|447:103,2,118.999996368408,2|2|2,1:2|1:2|1:2,0:0:0:0:
346,128,17810,1,0,0:0:0:0:
263,192,17967,2,0,P|234:203|204:219,1,59.4999981842042,2|0,1:2|0:0,0:0:0:0:
56,177,18296,6,0,P|22:149|36:68,1,118.999996368408,6|2,1:2|1:2,0:0:0:0:
108,25,18769,2,0,P|138:32|166:41,1,59.4999981842042,2|2,2:2|1:2,0:0:0:0:
305,85,19085,5,2,0:0:0:0:
255,0,19243,5,2,1:2:0:0:
312,95,19401,6,0,P|295:152|284:210,1,118.999996368408,2|2,2:2|2:2,0:0:0:0:
221,280,19874,1,2,1:2:0:0:
287,360,20032,2,0,P|313:347|354:336,1,59.4999981842042,2|2,2:2|1:2,0:0:0:0:
492,263,20348,5,10,2:2:0:0:
507,274,20427,1,10,2:2:0:0:
512,291,20506,1,10,1:2:0:0:
410,384,20664,2,0,P|421:354|429:332,1,42.5,8|8,2:2|2:2,0:0:0:0:
370,232,20822,6,0,B|309:250|309:250|294:283|294:283|223:312,1,170,6|10,1:2|2:2,0:0:0:0:
127,227,21295,1,2,2:2:0:0:
181,148,21453,2,0,P|212:167|223:208,1,76.4999976654053,2|0,1:2|1:1,0:0:0:0:
153,305,21769,1,2,2:2:0:0:
0,201,21927,6,0,P|15:127|34:29,1,152.999995330811,8|0,2:2|1:1,0:0:0:0:
118,0,22400,1,10,2:2:0:0:
190,96,22558,1,10,2:2:0:0:
204,107,22637,1,8,2:2:0:0:
227,109,22716,1,2,1:2:0:0:
329,3,22874,1,2,1:2:0:0:
417,125,23032,6,0,B|455:113|462:84|462:84|446:101|416:107,1,102,10|0,2:2|0:0,0:0:0:0:
360,75,23348,6,0,P|384:143|414:256,1,170,2|10,1:2|2:2,0:0:0:0:
512,354,23822,1,10,2:2:0:0:
499,339,23900,1,8,2:2:0:0:
483,333,23979,1,2,1:2:0:0:
384,383,24137,5,0,1:1:0:0:
305,328,24295,5,2,2:2:0:0:
133,384,24453,6,0,B|104:358|82:338|82:338|106:294|133:250,1,170,8|0,2:2|1:1,0:0:0:0:
241,136,24927,5,10,2:2:0:0:
67,14,25085,5,2,2:2:0:0:
112,92,25243,5,2,1:2:0:0:
160,168,25400,5,0,1:1:0:0:
0,338,25558,6,0,P|44:295|113:305,1,127.5,14|0,2:2|0:0,0:0:0:0:
183,300,25874,6,0,P|189:271|198:242,1,59.4999981842042,4|0,1:2|0:0,0:0:0:0:
274,350,26188,2,0,B|332:346|318:311|385:314,1,118.999996368408,2|2,1:2|1:2,0:0:0:0:
512,254,26659,1,0,0:0:0:0:
444,182,26816,2,0,P|425:204|425:250,1,59.4999981842042,2|0,1:2|0:0,0:0:0:0:
397,383,27130,6,0,P|470:362|525:354,2,118.999996368408,2|2|2,1:2|1:2|1:2,0:0:0:0:
312,332,27924,1,0,0:0:0:0:
236,384,28083,2,0,P|218:353|226:323,1,59.4999981842042,6|0,1:2|0:0,0:0:0:0:
352,178,28401,6,0,P|371:108|392:43,1,118.999996368408,6|2,1:2|1:2,0:0:0:0:
279,0,28874,1,2,2:2:0:0:
279,0,29032,1,2,1:2:0:0:
249,84,29190,2,0,P|281:74|318:65,1,59.4999981842042,0|2,0:0|1:2,0:0:0:0:
512,118,29506,6,0,P|518:60|479:18,1,118.999996368408,0|8,0:0|0:0,0:0:0:0:
470,18,29901,1,8,2:2:0:0:
462,23,29979,1,2,1:2:0:0:
376,87,30137,1,10,2:2:0:0:
277,171,30295,5,4,1:3:0:0:
428,274,30453,5,4,2:3:0:0:
467,189,30611,6,0,P|418:176|378:200,1,89.2499972763062,14|0,2:2|0:0,0:0:0:0:
317,235,30927,6,0,P|237:205|154:187,1,170,6|10,1:2|2:2,0:0:0:0:
0,130,31399,1,2,2:2:0:0:
50,218,31557,1,2,1:2:0:0:
118,119,31715,2,0,P|141:107|184:92,1,68,0|2,1:1|2:2,0:0:0:0:
386,35,32031,6,0,B|427:80|427:80|400:127,1,114.749996498108,8|0,2:2|0:0,0:0:0:0:
355,181,32347,1,0,1:1:0:0:
252,71,32504,1,10,2:2:0:0:
179,166,32662,1,10,2:2:0:0:
187,181,32741,1,8,2:2:0:0:
194,193,32820,1,2,1:2:0:0:
280,294,32978,1,2,1:2:0:0:
178,350,33136,5,10,2:2:0:0:
280,294,33294,5,0,0:0:0:0:
427,379,33452,6,0,P|476:373|487:276,1,152.999995330811,2|10,1:2|2:2,0:0:0:0:
407,160,33926,1,2,2:2:0:0:
347,245,34083,2,0,P|373:253|422:273,1,68,2|0,1:2|1:1,0:0:0:0:
512,190,34399,1,10,2:2:0:0:
406,39,34557,6,0,B|348:24|329:64|337:62|316:107|252:96,1,170,4|0,1:2|1:1,0:0:0:0:
144,175,35031,2,0,P|132:133|120:103,1,59.4999981842042,10|0,2:2|1:1,0:0:0:0:
0,13,35347,5,8,2:3:0:0:
46,34,35452,5,8,2:3:0:0:
52,80,35557,5,8,2:3:0:0:
32,104,35662,5,4,2:3:0:0:
25,121,35768,5,4,2:3:0:0:
26,140,35873,5,4,2:3:0:0:
35,150,35978,5,4,1:2:0:0:
0,307,36610,6,0,P|25:291|63:288,1,59.4999981842042,10|2,2:2|2:2,0:0:0:0:
130,361,36926,2,0,P|149:284|167:238,2,118.999996368408,10|10|10,2:2|2:2|2:2,0:0:0:0:
0,178,37874,6,0,P|54:133|109:146,1,118.999996368408,10|10,2:2|2:2,0:0:0:0:
164,77,38357,1,2,1:2:0:0:
261,144,38519,2,0,B|317:144|305:105|373:114,2,118.999996368408,10|10|10,1:2|2:2|2:2,0:0:0:0:
333,384,39463,6,0,P|341:346|352:322,1,59.4999981842042,10|0,2:2|0:0,0:0:0:0:
406,240,39778,2,0,P|461:250|520:205,1,118.999996368408,10|10,2:2|2:2,0:0:0:0:
384,7,40408,6,0,P|372:43|364:74,1,59.4999981842042,10|2,2:2|1:2,0:0:0:0:
318,146,40723,1,10,2:2:0:0:
318,146,40881,1,0,1:1:0:0:
125,66,41038,6,0,P|166:15|230:18,1,136,10|10,2:2|2:2,0:0:0:0:
290,77,41511,2,0,P|278:115|255:209,1,118.999996368408,2|0,2:2|0:0,0:0:0:0:
185,246,41983,2,0,P|168:222|166:193,1,59.4999981842042,10|0,2:2|0:0,0:0:0:0:
323,280,42298,6,0,P|377:293|459:322,1,118.999996368408,10|10,2:2|2:2,0:0:0:0:
512,377,42770,2,0,P|458:355|406:382,1,118.999996368408,2|0,2:2|0:0,0:0:0:0:
338,337,43243,2,0,P|329:303|321:272,1,59.4999981842042,10|0,2:2|1:1,0:0:0:0:
373,200,43549,6,0,P|384:153|392:120,1,68,10|0,1:2|0:0,0:0:0:0:
281,95,43868,2,0,P|235:117|209:115,1,68,10|0,2:2|0:0,0:0:0:0:
126,0,44187,2,0,P|168:28|179:52,1,68,10|0,2:2|0:0,0:0:0:0:
114,183,44506,2,0,P|117:132|132:110,1,68,10|0,2:2|0:0,0:0:0:0:
259,217,44812,6,0,P|246:259|233:302,1,89.2499972763062,10|0,2:2|0:0,0:0:0:0:
187,361,45122,1,8,2:2:0:0:
0,161,45278,6,0,P|12:197|39:296,1,127.5,6|0,1:2|0:0,0:0:0:0:
0,352,45601,1,0,1:1:0:0:
221,172,45763,2,0,P|194:120|122:112,1,127.5,10|0,2:2|0:0,0:0:0:0:
89,177,46066,6,0,P|97:196|104:216,1,42.5,10|0,2:2|0:0,0:0:0:0:
148,372,46223,1,2,1:2:0:0:
378,91,46539,6,0,B|430:63|477:42|477:42|522:59|509:103,1,187.000005706787,6|0,1:2|1:1,0:0:0:0:
503,112,46934,1,0,1:1:0:0:
497,122,47013,1,10,2:2:0:0:
441,335,47670,6,0,P|458:335|443:343,1,42.5,10|0,2:2|0:0,0:0:0:0:
344,218,47831,1,2,1:2:0:0:
509,290,48612,6,0,B|476:230|422:244|422:244|412:289|356:301,1,191.250007295609,6|0,1:2|0:0,0:0:0:0:
292,237,48927,1,10,2:2:0:0:
415,62,49085,1,10,2:2:0:0:
461,74,49164,1,8,2:2:0:0:
476,120,49243,1,2,1:2:0:0:
278,16,49401,1,2,1:2:0:0:
132,171,49559,6,0,P|180:133|241:144,1,127.5,10|0,2:2|0:0,0:0:0:0:
313,179,49875,5,2,1:2:0:0:
154,48,50033,1,2,1:2:0:0:
324,191,50190,1,10,2:2:0:0:
195,351,50348,5,10,2:2:0:0:
154,368,50427,1,8,2:2:0:0:
113,348,50506,1,2,1:2:0:0:
0,228,50664,1,0,1:1:0:0:
203,119,50822,2,0,P|182:165|167:214,1,101.999996887207,10|0,2:2|0:0,0:0:0:0:
0,95,51138,5,2,1:2:0:0:
159,294,51296,2,0,P|195:257|247:256,1,101.999996887207,2|10,2:2|2:2,0:0:0:0:
456,186,51612,1,10,2:2:0:0:
486,221,51690,1,8,2:2:0:0:
459,263,51769,2,0,P|411:242|360:228,1,101.999996887207,2|0,1:2|1:1,0:0:0:0:
193,142,52085,1,10,2:2:0:0:
353,21,52243,1,2,2:2:0:0:
181,230,52401,6,0,P|154:132|132:58,1,152.999995330811,2|0,1:2|0:0,0:0:0:0:
107,13,52717,1,10,2:2:0:0:
290,128,52875,1,0,1:1:0:0:
101,261,53033,1,10,2:2:0:0:
316,115,53190,1,0,1:1:0:0:
454,378,53348,6,0,B|492:379|517:344|517:344|488:362|460:363,1,127.5,12|0,2:2|0:0,0:0:0:0:
402,313,53664,6,0,B|340:287|313:333|322:334|293:385|225:356,1,191.250007295609,6|0,1:2|0:0,0:0:0:0:
179,288,53980,1,10,2:2:0:0:
1,323,54138,1,8,0:0:0:0:
13,369,54217,1,8,2:2:0:0:
59,384,54296,1,2,1:2:0:0:
234,241,54454,1,2,1:2:0:0:
76,144,54611,1,10,2:2:0:0:
263,33,54769,1,2,2:2:0:0:
133,230,54927,5,2,1:2:0:0:
31,12,55085,1,2,1:2:0:0:
251,119,55243,1,10,2:2:0:0:
58,241,55401,5,10,2:2:0:0:
12,226,55480,1,8,2:2:0:0:
0,180,55559,1,2,1:2:0:0:
153,22,55717,1,0,1:1:0:0:
302,212,55875,1,10,2:2:0:0:
471,70,56033,6,0,P|481:69|466:64,1,50.9999984436036
396,10,56190,6,0,P|418:83|440:156,1,152.999995330811,2|0,1:2|0:0,0:0:0:0:
480,229,56506,1,10,2:2:0:0:
268,384,56664,1,8,0:0:0:0:
283,338,56743,1,8,2:2:0:0:
329,326,56822,1,2,1:2:0:0:
503,382,56980,5,2,1:2:0:0:
365,211,57138,1,10,2:2:0:0:
268,384,57296,1,2,2:2:0:0:
385,183,57454,1,10,1:2:0:0:
512,302,57611,5,10,2:2:0:0:
495,311,57690,1,8,2:2:0:0:
478,317,57769,1,10,1:2:0:0:
460,323,57848,1,8,2:2:0:0:
443,331,57927,2,0,P|422:320|391:309,1,50.9999984436036,10|8,2:2|2:2,0:0:0:0:
237,170,58085,5,10,1:2:0:0:
272,142,58163,5,8,2:2:0:0:
290,97,58242,5,8,2:2:0:0:
272,40,58321,5,8,2:2:0:0:
220,1,58400,5,8,1:2:0:0:
151,0,58479,5,8,2:2:0:0:
108,63,58559,6,0,P|118:83|133:130,1,50.9999984436036,8|8,2:2|2:2,0:0:0:0:
113,380,58717,6,0,B|215:342|185:222|84:243|95:321,1,229.499992996216,6|0,1:2|0:0,0:0:0:0:
45,360,59033,1,14,2:2:0:0:
226,231,59190,2,0,P|277:245|324:258,1,101.999996887207,2|2,2:2|1:2,0:2:0:0:
203,86,59506,1,2,1:2:0:0:
0,186,59664,6,0,P|25:227|73:236,1,101.999996887207,10|8,2:2|0:2,0:0:0:0:
84,233,59901,1,8,2:2:0:0:
93,228,59980,1,2,1:2:0:0:
256,141,60138,1,2,1:2:0:0:
101,38,60296,1,10,2:2:0:0:
201,226,60454,1,2,2:2:0:0:
331,55,60611,6,0,P|367:19|417:16,1,101.999996887207,2|0,1:2|1:1,0:0:0:0:
512,170,60927,2,0,P|459:184|409:205,1,101.999996887207,10|8,2:2|0:0,0:0:0:0:
408,204,61164,1,0,1:2:0:0:
399,207,61243,1,2,1:2:0:0:
223,380,61401,6,0,P|176:348|175:296,1,101.999996887207,2|10,2:2|2:2,0:0:0:0:
292,114,61717,1,10,2:2:0:0:
327,84,61796,1,8,2:2:0:0:
369,111,61875,2,0,P|348:159|334:210,1,101.999996887207,2|0,1:2|1:1,0:0:0:0:
195,66,62190,1,10,2:2:0:0:
100,238,62348,1,2,2:2:0:0:
3,20,62506,5,2,1:2:0:0:
108,256,62664,1,0,1:1:0:0:
197,63,62822,5,8,2:2:0:0:
0,266,62980,1,0,1:1:0:0:
185,330,63138,5,6,2:2:0:0:
33,115,63296,1,0,1:1:0:0:
364,237,63454,6,0,P|340:285|254:285,1,127.5,12|0,2:2|0:0,0:0:0:0:
221,228,63769,6,0,P|243:134|268:42,1,191.250007295609,6|0,1:2|0:0,0:0:0:0:
342,20,64086,1,10,2:2:0:0:
512,142,64243,1,8,0:2:0:0:
483,103,64323,1,8,2:2:0:0:
436,106,64401,1,2,1:2:0:0:
294,225,64560,1,2,1:2:0:0:
475,307,64718,1,10,2:2:0:0:
305,383,64876,1,2,2:2:0:0:
437,188,65034,5,2,1:2:0:0:
256,108,65191,1,2,1:2:0:0:
358,298,65349,1,10,2:2:0:0:
150,384,65506,5,10,2:2:0:0:
111,355,65586,1,8,2:2:0:0:
114,308,65665,1,2,1:2:0:0:
261,189,65823,1,0,1:1:0:0:
146,115,65980,2,0,P|160:157|178:218,1,101.999996887207,10|8,2:2|0:0,0:0:0:0:
181,223,66217,1,8,2:2:0:0:
185,234,66297,6,0,P|227:266|286:263,1,101.999996887207,2|0,1:2|0:0,0:0:0:0:
430,151,66612,1,10,2:2:0:0:
360,27,66769,5,8,0:2:0:0:
313,37,66848,1,8,2:2:0:0:
296,82,66927,1,2,1:2:0:0:
384,217,67085,1,2,1:2:0:0:
512,40,67243,1,10,2:2:0:0:
377,228,67401,1,2,1:2:0:0:
233,50,67560,6,0,P|196:15|132:16,1,101.999996887207,10|2,2:2|2:2,0:0:0:0:
0,251,67875,5,10,1:2:0:0:
10,242,67954,5,8,2:2:0:0:
26,238,68033,5,10,2:2:0:0:
50,242,68112,5,8,2:2:0:0:
66,260,68190,5,10,1:2:0:0:
94,295,68269,5,8,2:2:0:0:
139,313,68348,5,8,2:2:0:0:
196,295,68427,5,8,2:2:0:0:
235,243,68506,5,8,1:2:0:0:
236,171,68585,5,8,2:2:0:0:
170,129,68664,6,0,P|139:139|103:154,1,50.9999984436036,8|8,2:2|2:2,0:0:0:0:
261,384,68823,6,0,P|356:342|453:317,1,191.250007295609,4|0,1:2|0:0,0:0:0:0:
497,261,69139,2,0,P|510:217|490:175,1,93.5000028533936,10|0,2:2|0:0,0:0:0:0:
298,31,69455,6,0,P|321:103|340:174,1,140.25000428009,2|0,1:2|0:0,0:0:0:0:
306,235,69770,2,0,P|350:246|390:225,1,93.5000028533936,10|0,2:2|0:0,0:0:0:0:
226,153,70086,6,0,B|186:110|137:130|137:130|131:177|70:188,1,187.000005706787,2|10,1:2|2:2,0:0:0:0:
0,86,70560,1,2,2:2:0:0:
117,8,70717,2,0,P|157:21|215:40,1,93.5000028533936,2|0,1:2|0:0,0:0:0:0:
347,117,71034,2,0,P|376:63|342:9,1,127.5,10|0,2:2|0:0,0:0:0:0:
295,65,71349,6,0,P|311:134|328:202,1,140.25000428009,6|0,1:2|0:0,0:0:0:0:
356,266,71665,1,10,2:2:0:0:
467,189,71823,1,2,2:2:0:0:
346,277,71981,2,0,P|303:249|229:290,1,140.25000428009,6|0,1:2|0:0,0:0:0:0:
172,355,72297,2,0,P|212:356|264:376,1,85,10|2,2:2|2:2,0:0:0:0:
455,384,72612,6,0,P|464:338|477:293,1,93.5000028533936,6|2,1:2|2:2,0:0:0:0:
502,191,72928,1,10,2:2:0:0:
401,124,73085,1,2,2:2:0:0:
512,198,73244,2,0,P|500:140|494:107,1,93.5000028533936,2|2,1:2|2:2,0:0:0:0:
385,12,73560,2,0,P|308:16|283:84,1,140.25000428009,10|0,2:2|0:0,0:0:0:0:
193,96,73875,6,0,P|139:76|94:65,1,85,4|0,1:2|0:0,0:0:0:0:
265,211,74190,2,0,B|331:225|360:167|349:172|374:121|439:135,1,203.999993774414,10|2,2:2|1:2,0:0:0:0:
512,275,74664,1,0,0:0:0:0:
338,327,74823,6,0,B|308:303|311:260|311:260|322:292|343:311,1,127.5,10|0,2:2|0:0,0:0:0:0:
399,384,75138,6,0,P|320:340|240:381,1,187.000005706787,2|10,1:2|2:2,0:0:0:0:
113,270,75612,1,2,2:2:0:0:
83,365,75770,2,0,P|124:352|166:343,1,85,2|0,1:2|0:0,0:0:0:0:
258,224,76086,2,0,P|283:258|273:298,1,85,10|0,2:2|0:0,0:0:0:0:
36,254,76402,6,0,P|19:186|-6:100,1,140.25000428009,6|0,1:2|0:0,0:0:0:0:
31,50,76718,1,10,2:2:0:0:
146,151,76876,1,0,0:0:0:0:
266,54,77034,6,0,P|212:9|144:21,1,140.25000428009,6|0,1:2|0:0,0:0:0:0:
100,74,77349,1,10,2:2:0:0:
0,186,77506,1,2,2:2:0:0:
88,316,77665,5,8,2:2:0:0:
95,325,77744,1,8,2:2:0:0:
103,335,77823,1,2,1:2:0:0:
136,297,77901,1,0,1:1:0:0:
184,285,77980,1,10,2:2:0:0:
231,305,78059,1,0,1:1:0:0:
257,347,78138,2,0,P|283:354|313:363,1,46.7500014266968,2|0,1:2|1:1,0:0:0:0:
490,253,78296,6,0,P|464:259|435:268,1,46.7500014266968,10|8,2:2|2:3,0:0:0:0:
284,143,78454,2,0,P|309:149|338:158,1,46.7500014266968,8|8,2:3|2:3,0:0:0:0:
476,52,78612,5,4,2:3:0:0:
449,18,78690,1,4,2:3:0:0:
413,5,78769,1,4,2:3:0:0:
376,16,78848,1,4,2:3:0:0:
350,52,78927,6,0,P|377:150|403:248,1,203.999993774414,6|12,1:2|2:2,0:0:0:0:
282,381,79398,1,0,0:0:0:0:
217,285,79555,2,0,P|256:261|301:267,1,93.5000028533936,2|0,1:2|1:1,0:0:0:0:
406,159,79869,1,10,2:2:0:0:
255,49,80026,6,0,B|181:75|181:75|168:107|168:107|95:132,1,187.000005706787,0|0,1:1|1:1,0:0:0:0:
267,173,80498,2,0,P|309:186|361:208,1,93.5000028533936,10|8,2:2|0:2,0:0:0:0:
361,210,80735,1,8,2:2:0:0:
369,216,80814,1,2,1:2:0:0:
512,82,80972,1,0,1:1:0:0:
377,14,81130,2,0,P|392:57|409:101,1,93.5000028533936,10|0,2:2|0:0,0:0:0:0:
512,362,81446,6,0,P|438:343|400:384,1,140.25000428009,4|0,1:2|0:0,0:0:0:0:
345,306,81761,2,0,P|357:254|369:213,1,93.5000028533936,10|0,2:2|0:0,0:0:0:0:
270,100,82071,1,2,1:2:0:0:
190,218,82227,1,0,1:1:0:0:
59,94,82382,1,10,2:2:0:0:
6,384,82538,6,0,P|50:369|196:331,1,187.000005706787,4|0,1:2|1:1,0:0:0:0:
194,333,82936,1,0,1:1:0:0:
203,333,83016,1,10,2:2:0:0:
364,384,83175,5,8,0:2:0:0:
388,371,83255,1,8,2:2:0:0:
388,343,83335,1,2,1:2:0:0:
286,201,83494,1,0,1:1:0:0:
422,100,83654,1,10,2:2:0:0:
422,100,83814,1,2,0:2:0:0:
292,303,83973,6,0,B|224:311|207:264|214:263|196:216|119:240,1,187.000005706787,4|10,1:2|2:2,0:0:0:0:
0,136,84446,1,0,0:0:0:0:
147,29,84604,1,2,1:2:0:0:
46,9,84762,2,0,P|60:46|84:113,1,93.5000028533936,0|10,1:1|2:2,0:0:0:0:
130,236,85081,1,0,0:0:0:0:
289,75,85242,5,8,1:2:0:0:
332,61,85320,1,8,2:2:0:0:
363,90,85399,2,0,P|355:107|343:142,1,50.9999984436036,8|8,2:2|2:2,0:0:0:0:
297,330,85557,5,8,1:2:0:0:
249,346,85635,1,8,2:2:0:0:
206,323,85714,1,8,2:2:0:0:
195,274,85793,1,8,2:2:0:0:
225,234,85873,2,0,P|247:226|284:216,1,50.9999984436036,8|8,1:2|2:2,0:0:0:0:
391,156,86031,2,0,P|367:146|343:137,1,50.9999984436036,8|8,2:2|2:2,0:0:0:0:
223,41,86189,5,8,1:2:0:0:
179,27,86267,5,8,2:2:0:0:
127,36,86346,5,8,2:2:0:0:
84,73,86425,5,8,2:2:0:0:
78,145,86504,5,6,1:2:0:0:
30,320,87758,5,10,2:2:0:0:
148,220,87915,2,0,P|123:299|105:390,1,170,6|2,1:2|2:2,0:0:0:0:
20,250,88398,5,10,1:2:0:0:
0,218,88477,1,8,2:2:0:0:
14,184,88556,1,10,2:2:0:0:
47,182,88635,1,8,2:2:0:0:
65,199,88714,1,10,1:2:0:0:
275,262,88872,5,8,2:2:0:0:
256,240,88951,1,8,2:2:0:0:
