osu file format v14

[General]
AudioFilename: audio.ogg
AudioLeadIn: 0
PreviewTime: 45914
Countdown: 0
SampleSet: Soft
StackLeniency: 0.7
Mode: 0
LetterboxInBreaks: 0
WidescreenStoryboard: 1

[Editor]
DistanceSpacing: 0.5
BeatDivisor: 4
GridSize: 32
TimelineZoom: 2.699999

[Metadata]
Title:grayscale dominator (TV Size)
TitleUnicode:grayscale dominator (TV Size)
Artist:OxT
ArtistUnicode:OxT
Creator:AsuKow
Version:RoniX's Extra
Source:陰の実力者になりたくて! 2nd season
Tags:Amats Shayks eringiRa NakaroniX that_blazord blazord japanese rock j-rock jrock anime opening op male vocals vocalist the eminence in shadow 2nd season kage no jitsuryokusha ni naritakute! to be a power in the shadows! Kadokawa Pony Canyon
BeatmapID:4538363
BeatmapSetID:2126479

[Difficulty]
HPDrainRate:5.3
CircleSize:4
OverallDifficulty:8.7
ApproachRate:9.2
SliderMultiplier:1.72
SliderTickRate:1

[Events]
//Background and Video events
0,0,"114549888_p0.jpg",0,0
Video,0,"video.avi"
//Break Periods
//Storyboard Layer 0 (Background)
//Storyboard Layer 1 (Fail)
//Storyboard Layer 2 (Pass)
//Storyboard Layer 3 (Foreground)
//Storyboard Layer 4 (Overlay)
//Storyboard Sound Samples

[TimingPoints]
612,315.789473684211,4,2,1,70,1,0
612,-98.0392156862745,4,2,1,70,0,0
1164,-98.0392156862745,4,2,2,70,0,0
1243,-98.0392156862745,4,2,1,70,0,0
1796,-98.0392156862745,4,2,2,5,0,0
1875,-98.0392156862745,4,2,1,70,0,0
2427,-98.0392156862745,4,2,2,70,0,0
2506,-98.0392156862745,4,2,1,70,0,0
3059,-98.0392156862745,4,2,2,70,0,0
3138,-98.0392156862745,4,2,1,70,0,0
3690,-98.0392156862745,4,2,2,70,0,0
3769,-98.0392156862745,4,2,1,70,0,0
4085,-98.0392156862745,4,2,3,70,0,0
4322,-98.0392156862745,4,2,3,5,0,0
4401,-98.0392156862745,4,2,3,50,0,0
4717,-98.0392156862745,4,2,3,55,0,0
5033,-98.0392156862745,4,2,3,60,0,0
5348,-98.0392156862745,4,2,3,65,0,0
5664,-138.888888888889,4,2,1,70,0,0
5980,-138.888888888889,4,2,2,40,0,0
6296,-138.888888888889,4,2,1,40,0,0
6942,314.13612565445,4,2,1,40,1,0
6942,-138.888888888889,4,2,1,40,0,0
7491,-138.888888888889,4,2,1,5,0,0
7570,-138.888888888889,4,2,1,40,0,0
7727,-138.888888888889,4,2,2,40,0,0
7884,-138.888888888889,4,2,4,40,0,0
8041,-138.888888888889,4,2,2,40,0,0
8198,-108.695652173913,4,2,3,40,0,0
8434,-108.695652173913,4,2,3,5,0,0
8512,-108.695652173913,4,2,3,40,0,0
8748,-108.695652173913,4,2,5,50,0,0
9140,-108.695652173913,4,2,3,50,0,0
9376,-108.695652173913,4,2,3,5,0,0
9455,-108.695652173913,4,2,3,50,0,0
10004,-108.695652173913,4,2,5,50,0,0
10397,-108.695652173913,4,2,6,50,0,0
10633,-108.695652173913,4,2,6,5,0,0
10711,319.148936170213,4,2,1,40,1,0
10711,-138.888888888889,4,2,1,40,0,0
11030,-138.888888888889,4,2,2,40,0,0
11349,-138.888888888889,4,2,1,40,0,0
11508,-138.888888888889,4,2,2,40,0,0
11987,315.789473684211,4,2,5,40,1,0
11987,-138.888888888889,4,2,5,40,0,0
12302,-138.888888888889,4,2,4,40,0,0
12461,-138.888888888889,4,2,3,40,0,0
12539,-138.888888888889,4,2,3,5,0,0
12618,-138.888888888889,4,2,3,40,0,0
12934,-138.888888888889,4,2,4,40,0,0
13250,314.13612565445,4,2,1,60,1,0
13250,-108.695652173913,4,2,1,60,0,0
13328,-108.695652173913,4,2,1,5,0,0
13407,-108.695652173913,4,2,2,60,0,0
13721,-108.695652173913,4,2,4,60,0,0
14506,319.148936170213,4,2,1,60,1,0
14506,-108.695652173913,4,2,1,60,0,0
14585,-108.695652173913,4,2,1,5,0,0
14665,-108.695652173913,4,2,2,60,0,0
15139,326.086956521739,4,2,1,60,1,0
15139,-108.695652173913,4,2,1,60,0,0
15220,-108.695652173913,4,2,1,5,0,0
15302,-108.695652173913,4,2,2,60,0,0
15769,314.13612565445,4,2,1,50,1,0
15769,-121.951219512195,4,2,1,50,0,0
16083,-121.951219512195,4,2,7,50,0,0
16397,-121.951219512195,4,2,8,50,0,0
16711,-121.951219512195,4,2,7,50,0,0
16947,-121.951219512195,4,2,7,5,0,0
17025,-121.951219512195,4,2,7,50,0,0
17575,-121.951219512195,4,2,7,5,0,0
17653,-121.951219512195,4,2,7,50,0,0
18296,315.789473684211,4,2,5,50,1,0
18296,-121.951219512195,4,2,5,50,0,0
18611,-121.951219512195,4,2,7,50,0,0
18769,-121.951219512195,4,2,3,50,0,0
18927,-121.951219512195,4,2,8,50,0,0
19401,-121.951219512195,4,2,1,50,0,0
19874,-121.951219512195,4,2,6,50,0,0
20032,-121.951219512195,4,2,3,50,0,0
20190,-121.951219512195,4,2,1,50,0,0
20348,-121.951219512195,4,2,9,50,0,0
20822,-98.0392156862745,4,2,1,65,0,0
21137,-98.0392156862745,4,2,9,60,0,0
21295,-98.0392156862745,4,2,3,60,0,0
21453,-98.0392156862745,4,2,1,60,0,0
22400,-98.0392156862745,4,2,6,60,0,0
22558,-98.0392156862745,4,2,5,60,0,0
22716,-98.0392156862745,4,2,1,60,0,0
22874,-98.0392156862745,4,2,3,60,0,0
23032,-98.0392156862745,4,2,6,60,0,0
23269,-98.0392156862745,4,2,6,5,0,0
23348,-98.0392156862745,4,2,6,60,0,0
23664,-98.0392156862745,4,2,1,60,0,0
23822,-98.0392156862745,4,2,5,60,0,0
23979,-98.0392156862745,4,2,1,60,0,0
24927,-98.0392156862745,4,2,6,60,0,0
25243,-98.0392156862745,4,2,1,60,0,0
25558,-98.0392156862745,4,2,9,60,0,0
25795,-98.0392156862745,4,2,9,5,0,0
25874,314.13612565445,4,2,3,50,1,0
25874,-121.951219512195,4,2,3,50,0,0
26188,-121.951219512195,4,2,7,50,0,0
26502,-121.951219512195,4,2,8,50,0,0
26816,-121.951219512195,4,2,7,50,0,0
27050,-121.951219512195,4,2,7,5,0,0
27130,317.965023847377,4,2,3,50,1,8
27130,-121.951219512195,4,2,3,50,0,0
27686,-121.951219512195,4,2,3,5,0,0
27765,-121.951219512195,4,2,3,50,0,0
28401,315.789473684211,4,2,9,50,1,0
28401,-121.951219512195,4,2,9,50,0,0
28716,-121.951219512195,4,2,7,50,0,0
28874,-121.951219512195,4,2,3,50,0,0
29032,-121.951219512195,4,2,1,50,0,0
29506,-121.951219512195,4,2,3,50,0,0
29979,-121.951219512195,4,2,5,50,0,0
30216,-121.951219512195,4,2,1,50,0,0
30453,-121.951219512195,4,2,10,50,0,0
30611,-121.951219512195,4,2,9,50,0,0
30848,-121.951219512195,4,2,9,5,0,0
30926,315.789473684211,4,2,3,60,1,0
30926,-98.0392156862745,4,2,3,60,0,0
31241,-98.0392156862745,4,2,1,60,0,0
31399,-98.0392156862745,4,2,3,60,0,0
31557,-98.0392156862745,4,2,1,60,0,0
32268,-98.0392156862745,4,2,1,5,0,0
32347,-98.0392156862745,4,2,1,60,0,0
32504,-98.0392156862745,4,2,6,60,0,0
32662,-98.0392156862745,4,2,5,60,0,0
32820,-98.0392156862745,4,2,1,60,0,0
32978,-98.0392156862745,4,2,3,60,0,0
33136,-98.0392156862745,4,2,6,60,0,0
33294,-98.0392156862745,4,2,5,60,0,0
33373,-98.0392156862745,4,2,5,5,0,0
33452,-98.0392156862745,4,2,6,60,0,0
33768,-98.0392156862745,4,2,1,60,0,0
33926,-98.0392156862745,4,2,5,60,0,0
34083,-98.0392156862745,4,2,1,60,0,0
35031,-98.0392156862745,4,2,6,60,0,0
35347,-98.0392156862745,4,2,1,60,0,0
35557,-98.0392156862745,4,2,2,60,0,0
35662,-98.0392156862745,4,2,11,60,0,0
35768,-98.0392156862745,4,2,1,60,0,0
35873,-98.0392156862745,4,2,2,60,0,0
35978,-138.888888888889,4,2,1,40,0,0
36294,-138.888888888889,4,2,8,40,0,0
36610,-138.888888888889,4,2,7,40,0,0
36768,-138.888888888889,4,2,3,40,0,0
36926,-138.888888888889,4,2,7,40,0,0
37557,-138.888888888889,4,2,8,40,0,0
37874,322.58064516129,4,2,7,40,1,0
37874,-138.888888888889,4,2,7,40,0,0
38357,-138.888888888889,4,2,3,40,0,0
38519,314.96062992126,4,2,8,40,1,0
38519,-138.888888888889,4,2,8,40,0,0
40408,-138.888888888889,4,2,7,40,0,0
40566,-138.888888888889,4,2,3,40,0,0
40723,-138.888888888889,4,2,7,40,0,0
41038,-138.888888888889,4,2,12,40,0,0
41353,-138.888888888889,4,2,8,40,0,0
41511,-138.888888888889,4,2,3,40,0,0
41668,-138.888888888889,4,2,8,40,0,0
41983,-138.888888888889,4,2,7,40,0,0
42613,-138.888888888889,4,2,8,40,0,0
42770,-138.888888888889,4,2,3,40,0,0
42928,-138.888888888889,4,2,8,40,0,0
43243,306.122448979592,4,2,7,40,1,8
43243,-138.888888888889,4,2,7,40,0,0
43549,319.148936170213,4,2,7,50,1,0
43549,-121.951219512195,4,2,7,50,0,0
44812,310.880829015544,4,2,7,50,1,0
44812,-121.951219512195,4,2,7,50,0,0
45045,-121.951219512195,4,2,7,5,0,0
45122,-121.951219512195,4,2,9,50,0,0
45278,323.450134770889,4,2,9,60,1,8
45278,-98.0392156862745,4,2,9,60,0,0
45520,-98.0392156862745,4,2,9,5,0,0
45601,-98.0392156862745,4,2,9,60,0,0
45763,303.030303030303,4,2,1,60,1,8
45763,-98.0392156862745,4,2,1,60,0,0
45987,-98.0392156862745,4,2,1,5,0,0
46066,315.789473684211,4,2,3,60,1,0
46066,-98.0392156862745,4,2,3,60,0,0
46144,-98.0392156862745,4,2,3,5,0,0
46223,-98.0392156862745,4,2,13,60,0,0
46539,-98.0392156862745,4,2,9,60,0,0
47670,322.58064516129,4,2,9,60,1,0
47670,-98.0392156862745,4,2,9,60,0,0
47750,-98.0392156862745,4,2,9,5,0,0
47831,-98.0392156862745,4,2,14,60,0,0
47992,-98.0392156862745,4,2,9,60,0,0
48612,315.789473684211,4,2,9,60,1,0
48612,-75.7575757575758,4,2,9,60,0,0
48769,-75.7575757575758,4,2,9,80,0,0
48848,-75.7575757575758,4,2,9,5,0,0
48927,-75.7575757575758,4,2,6,80,0,0
49077,-89.2857142857143,4,2,6,80,0,0
49085,-89.2857142857143,4,2,5,80,0,0
49243,-89.2857142857143,4,2,1,80,0,0
49401,-89.2857142857143,4,2,3,80,0,0
49559,-89.2857142857143,4,2,6,80,0,0
49796,-89.2857142857143,4,2,6,5,0,0
49875,-89.2857142857143,4,2,6,80,0,0
50033,-89.2857142857143,4,2,3,80,0,0
50190,-89.2857142857143,4,2,6,80,0,0
50348,-89.2857142857143,4,2,5,80,0,0
50506,-89.2857142857143,4,2,1,80,0,0
51059,-89.2857142857143,4,2,1,5,0,0
51138,-89.2857142857143,4,2,6,80,0,0
51296,-89.2857142857143,4,2,3,80,0,0
51454,-89.2857142857143,4,2,1,80,0,0
51611,-89.2857142857143,4,2,5,80,0,0
51769,-89.2857142857143,4,2,6,80,0,0
52006,-89.2857142857143,4,2,6,5,0,0
52085,-89.2857142857143,4,2,6,80,0,0
52243,-89.2857142857143,4,2,3,80,0,0
52401,-89.2857142857143,4,2,6,80,0,0
52638,-89.2857142857143,4,2,6,5,0,0
52717,-89.2857142857143,4,2,1,80,0,0
53033,-89.2857142857143,4,2,6,80,0,0
53348,-89.2857142857143,4,2,3,80,0,0
53585,-89.2857142857143,4,2,3,5,0,0
53664,-89.2857142857143,4,2,9,80,0,0
53901,-89.2857142857143,4,2,9,5,0,0
53980,-89.2857142857143,4,2,6,80,0,0
54217,-89.2857142857143,4,2,2,80,0,0
54296,-89.2857142857143,4,2,6,80,0,0
54454,-89.2857142857143,4,2,3,80,0,0
54611,-89.2857142857143,4,2,6,80,0,0
54769,-89.2857142857143,4,2,3,80,0,0
54927,-89.2857142857143,4,2,1,80,0,0
55006,-89.2857142857143,4,2,1,5,0,0
55085,-89.2857142857143,4,2,3,80,0,0
55243,-89.2857142857143,4,2,6,80,0,0
55401,-89.2857142857143,4,2,5,80,0,0
55559,-89.2857142857143,4,2,6,80,0,0
55875,-89.2857142857143,4,2,1,80,0,0
56111,-89.2857142857143,4,2,1,5,0,0
56190,-89.2857142857143,4,2,6,80,0,0
56427,-89.2857142857143,4,2,6,5,0,0
56506,-89.2857142857143,4,2,6,80,0,0
56743,-89.2857142857143,4,2,2,80,0,0
56822,-89.2857142857143,4,2,6,80,0,0
56980,-89.2857142857143,4,2,3,80,0,0
57138,-89.2857142857143,4,2,6,80,0,0
57296,-89.2857142857143,4,2,3,80,0,0
57454,-89.2857142857143,4,2,1,80,0,0
57611,-89.2857142857143,4,2,9,80,0,0
58954,-89.2857142857143,4,2,9,5,0,0
59033,-89.2857142857143,4,2,3,80,0,0
59348,-89.2857142857143,4,2,1,80,0,0
59506,-89.2857142857143,4,2,3,80,0,0
59664,-89.2857142857143,4,2,6,80,0,0
59901,-89.2857142857143,4,2,2,5,0,0
59980,-89.2857142857143,4,2,6,80,0,0
60138,-89.2857142857143,4,2,3,80,0,0
60296,-89.2857142857143,4,2,6,80,0,0
60454,-89.2857142857143,4,2,3,80,0,0
60611,-89.2857142857143,4,2,1,80,0,0
61164,-89.2857142857143,4,2,1,5,0,0
61243,-89.2857142857143,4,2,6,80,0,0
61401,-89.2857142857143,4,2,3,80,0,0
61559,-89.2857142857143,4,2,1,80,0,0
61717,-89.2857142857143,4,2,5,80,0,0
61875,-89.2857142857143,4,2,6,80,0,0
62112,-89.2857142857143,4,2,6,5,0,0
62190,-89.2857142857143,4,2,6,80,0,0
62348,-89.2857142857143,4,2,3,80,0,0
62506,-89.2857142857143,4,2,6,80,0,0
63138,-89.2857142857143,4,2,10,80,0,0
63296,-89.2857142857143,4,2,3,80,0,0
63690,-89.2857142857143,4,2,3,5,0,0
63769,-89.2857142857143,4,2,9,80,0,0
64006,-89.2857142857143,4,2,9,5,0,0
64085,-89.2857142857143,4,2,6,80,0,0
64322,-89.2857142857143,4,2,2,80,0,0
64401,-89.2857142857143,4,2,6,80,0,0
64559,-89.2857142857143,4,2,3,80,0,0
64717,-89.2857142857143,4,2,6,80,0,0
64875,-89.2857142857143,4,2,3,80,0,0
65033,-89.2857142857143,4,2,1,80,0,0
65112,-89.2857142857143,4,2,1,5,0,0
65190,-89.2857142857143,4,2,3,80,0,0
65348,-89.2857142857143,4,2,6,80,0,0
65506,-89.2857142857143,4,2,5,80,0,0
65664,-89.2857142857143,4,2,6,80,0,0
65980,-89.2857142857143,4,2,1,80,0,0
66217,-89.2857142857143,4,2,2,80,0,0
66296,-89.2857142857143,4,2,6,80,0,0
66848,-89.2857142857143,4,2,6,5,0,0
66927,-89.2857142857143,4,2,6,80,0,0
67085,-89.2857142857143,4,2,3,80,0,0
67243,-89.2857142857143,4,2,6,80,0,0
67401,-89.2857142857143,4,2,3,80,0,0
67559,-89.2857142857143,4,2,1,80,0,0
67717,-89.2857142857143,4,2,9,80,0,0
69059,-89.2857142857143,4,2,9,5,0,0
69138,-89.2857142857143,4,2,15,80,0,0
69375,-89.2857142857143,4,2,15,5,0,0
69454,-89.2857142857143,4,2,16,80,0,0
69690,-89.2857142857143,4,2,16,5,0,0
69769,-89.2857142857143,4,2,15,80,0,0
70006,-89.2857142857143,4,2,15,5,0,0
70085,-89.2857142857143,4,2,15,80,0,0
70401,-89.2857142857143,4,2,15,80,0,0
70559,-89.2857142857143,4,2,3,80,0,0
70717,-89.2857142857143,4,2,16,80,0,0
70954,-89.2857142857143,4,2,16,5,0,0
71033,-89.2857142857143,4,2,15,80,0,0
71269,-89.2857142857143,4,2,16,5,0,0
71348,-89.2857142857143,4,2,3,80,0,0
71585,-89.2857142857143,4,2,3,5,0,0
71664,-89.2857142857143,4,2,15,80,0,0
71822,-89.2857142857143,4,2,9,80,0,0
72217,-89.2857142857143,4,2,9,5,0,0
72296,-89.2857142857143,4,2,15,80,0,0
72454,-89.2857142857143,4,2,3,80,0,0
72533,-89.2857142857143,4,2,3,5,0,0
72612,-89.2857142857143,4,2,3,80,0,0
72927,-89.2857142857143,4,2,15,80,0,0
73085,-89.2857142857143,4,2,3,80,0,0
73243,-89.2857142857143,4,2,15,80,0,0
73401,-89.2857142857143,4,2,3,80,0,0
73559,-89.2857142857143,4,2,15,80,0,0
73796,-89.2857142857143,4,2,15,5,0,0
73875,-89.2857142857143,4,2,1,80,0,0
74190,-89.2857142857143,4,2,15,80,0,0
74427,-89.2857142857143,4,2,15,5,0,0
74506,-89.2857142857143,4,2,16,80,0,0
74822,-89.2857142857143,4,2,15,80,0,0
75059,-89.2857142857143,4,2,15,5,0,0
75138,-89.2857142857143,4,2,15,80,0,0
75454,-89.2857142857143,4,2,15,80,0,0
75611,-89.2857142857143,4,2,3,80,0,0
75769,-89.2857142857143,4,2,16,80,0,0
76006,-89.2857142857143,4,2,16,5,0,0
76085,-89.2857142857143,4,2,15,80,0,0
76401,-89.2857142857143,4,2,3,80,0,0
76638,-89.2857142857143,4,2,3,5,0,0
76717,-89.2857142857143,4,2,15,80,0,0
77033,-89.2857142857143,4,2,9,80,0,0
77269,-89.2857142857143,4,2,9,5,0,0
77348,-89.2857142857143,4,2,15,80,0,0
77506,-89.2857142857143,4,2,3,80,0,0
78375,-89.2857142857143,4,2,1,80,0,0
78454,-89.2857142857143,4,2,2,80,0,0
78611,-89.2857142857143,4,2,1,80,0,0
78690,-89.2857142857143,4,2,2,80,0,0
78927,314.13612565445,4,2,9,70,1,0
78927,-98.0392156862745,4,2,9,70,0,0
79241,-98.0392156862745,4,2,3,70,0,0
79555,-98.0392156862745,4,2,6,70,0,0
79869,-98.0392156862745,4,2,1,70,0,0
80183,315.789473684211,4,2,2,70,1,0
80183,-98.0392156862745,4,2,2,70,0,0
80814,-98.0392156862745,4,2,1,70,0,0
81367,-98.0392156862745,4,2,1,5,0,0
81446,-98.0392156862745,4,2,1,70,0,0
81683,-98.0392156862745,4,2,1,5,0,0
81761,310.880829015544,4,2,1,70,1,0
81761,-98.0392156862745,4,2,1,70,0,0
81994,-98.0392156862745,4,2,1,5,0,0
82071,-98.0392156862745,4,2,1,70,0,0
82538,319.148936170213,4,2,3,70,1,8
82538,-98.0392156862745,4,2,3,70,0,0
82697,319.148936170213,4,2,1,70,1,0
82697,-98.0392156862745,4,2,1,70,0,0
83255,-98.0392156862745,4,2,2,5,0,0
83335,-98.0392156862745,4,2,1,70,0,0
83415,-98.0392156862745,4,2,1,5,0,0
83494,-98.0392156862745,4,2,1,70,0,0
83574,-98.0392156862745,4,2,1,5,0,0
83654,-98.0392156862745,4,2,1,70,0,0
83734,-98.0392156862745,4,2,1,5,0,0
83814,-98.0392156862745,4,2,1,70,0,0
83894,-98.0392156862745,4,2,1,5,0,0
83973,315.789473684211,4,2,1,60,1,0
83973,-98.0392156862745,4,2,1,60,0,0
84920,322.58064516129,4,2,1,60,1,0
84920,-98.0392156862745,4,2,1,60,0,0
85242,315.789473684211,4,2,1,50,1,0
85242,-98.0392156862745,4,2,1,50,0,0
85557,-98.0392156862745,4,2,1,55,0,0
85873,-98.0392156862745,4,2,1,60,0,0
86189,-98.0392156862745,4,2,1,65,0,0
86505,-98.0392156862745,4,2,16,70,0,0
86822,-98.0392156862745,4,2,3,70,0,0
87758,315.789473684211,4,2,1,60,1,0
87758,-98.0392156862745,4,2,1,60,0,0
87915,322.58064516129,4,2,5,70,1,8
87915,-98.0392156862745,4,2,5,70,0,0
88399,315.789473684211,4,2,1,60,1,8
88399,-98.0392156862745,4,2,1,60,0,0
88556,-98.0392156862745,4,2,3,70,0,0

[Colours]
Combo1 : 255,253,168
Combo2 : 160,201,241
Combo3 : 175,128,240

[HitObjects]
0,321,612,6,0,P|53:315|162:395,1,175.440001070801,4|10,1:2|2:2,0:0:0:0:
360,300,1085,1,8,2:2:0:0:
360,300,1164,1,8,2:2:0:0:
360,300,1243,1,2,1:2:0:0:
194,202,1401,1,0,1:1:0:0:
250,343,1559,2,0,P|267:276|301:204,1,131.580000803101,10|0,2:2|2:2,0:0:0:0:
306,190,1875,5,2,1:2:0:0:
238,0,2033,1,0,1:1:0:0:
156,64,2190,2,0,P|204:67|241:87,1,87.7200005354004,10|8,2:2|0:2,0:0:0:0:
267,107,2427,1,8,2:2:0:0:
267,107,2506,1,2,1:2:0:0:
190,206,2664,1,0,1:1:0:0:
401,297,2822,6,0,P|349:283|243:356,1,175.440001070801,10|2,2:2|1:2,0:0:0:0:
154,384,3296,1,0,1:1:0:0:
0,250,3454,2,0,P|51:260|95:300,1,87.7200005354004,10|8,2:2|0:2,0:0:0:0:
108,301,3690,1,8,2:2:0:0:
108,301,3769,1,2,1:2:0:0:
264,149,3927,1,0,1:1:0:0:
143,115,4085,2,0,P|162:167|171:209,1,87.7200005354004,12|0,2:2|0:0,0:0:0:0:
249,342,4401,5,8,1:2:0:0:
261,345,4479,1,8,2:2:0:0:
274,348,4558,1,8,2:2:0:0:
287,352,4637,1,8,2:2:0:0:
299,356,4716,1,8,1:2:0:0:
312,360,4795,1,8,2:2:0:0:
324,364,4874,1,8,2:2:0:0:
337,368,4953,1,8,2:2:0:0:
349,372,5033,5,8,1:2:0:0:
393,354,5112,1,8,2:2:0:0:
417,313,5190,1,8,2:2:0:0:
411,266,5269,1,8,2:2:0:0:
378,233,5348,1,8,1:2:0:0:
333,215,5427,1,8,2:2:0:0:
309,175,5506,1,8,2:2:0:0:
314,127,5585,1,8,2:2:0:0:
347,94,5664,5,4,1:2:0:0:
72,31,6296,1,8,2:2:0:0:
72,31,6454,2,0,P|100:65|183:77,1,123.840003023438,8|8,2:2|2:2,0:0:0:0:
347,94,6942,2,0,P|305:105|278:127,1,61.9200015117188,2|8,1:2|2:2,0:0:0:0:
115,175,7256,2,0,P|132:215|185:215,1,92.8800022675782,2|0,1:2|0:0,0:0:0:0:
207,197,7570,2,0,P|199:145|168:66,1,123.840003023438,8|2,2:2|2:2,0:0:0:0:
452,150,8041,5,8,2:2:0:0:
452,150,8120,1,8,0:2:0:0:
452,150,8198,2,0,P|414:146|335:217,1,118.679996015991,6|0,1:2|0:0,0:0:0:0:
333,215,8512,1,10,2:2:0:0:
421,369,8669,1,2,2:2:0:0:
512,298,8826,2,0,P|474:272|440:269,1,79.1199973439942,2|0,1:2|1:1,0:0:0:0:
186,327,9140,2,0,P|223:323|302:394,1,118.679996015991,10|0,2:2|0:0,0:0:0:0:
317,384,9454,6,0,P|340:340|342:285,1,79.1199973439942,2|2,1:2|1:2,0:0:0:0:
235,182,9769,1,8,2:2:0:0:
355,139,9926,1,10,2:2:0:0:
355,139,10004,1,10,2:2:0:0:
355,139,10083,2,0,P|339:188|329:233,1,79.1199973439942,2|2,1:2|1:2,0:0:0:0:
117,217,10397,2,0,P|141:143|156:75,1,118.679996015991,10|0,2:2|0:0,0:0:0:0:
139,69,10711,6,0,P|164:62|263:119,1,123.840003023438,4|2,1:2|2:2,0:0:0:0:
112,226,11349,1,8,2:2:0:0:
112,226,11508,2,0,B|45:242|70:268|-11:286,1,123.840003023438,8|8,2:2|2:2,0:0:0:0:
137,343,11987,2,0,P|187:357|219:375,1,61.9200015117188,2|8,1:2|2:2,0:0:0:0:
392,311,12302,2,0,P|375:351|322:351,1,92.8800022675782,2|0,1:2|0:0,0:0:0:0:
300,333,12618,2,0,P|308:281|339:202,1,123.840003023438,8|2,2:2|2:2,0:0:0:0:
243,4,13250,5,8,2:2:0:0:
105,48,13407,2,0,P|137:77|194:80,1,79.1199973439942,4|0,1:2|0:0,0:0:0:0:
332,214,13721,2,0,P|306:177|195:175,1,158.239994687988,4|0,1:2|0:0,0:0:0:0:
243,4,14506,5,8,2:2:0:0:
332,214,14665,2,0,P|306:177|195:175,1,158.239994687988,4|0,1:2|0:0,0:0:0:0:
243,4,15139,5,8,2:2:0:0:
512,33,15302,2,0,P|441:26|373:80,1,158.239994687988,4|0,1:2|0:0,0:0:0:0:
326,207,15769,6,0,P|381:217|483:258,2,141.0400021521,4|2|2,1:2|1:2|1:2,0:0:0:0:
45,243,16711,2,0,P|73:271|155:265,1,105.780001614075,2|0,1:2|0:0,0:0:0:0:
165,257,17025,2,0,P|149:202|134:164,1,70.5200010760498,2|0,1:2|0:0,0:0:0:0:
268,292,17339,2,0,P|316:307|384:356,1,105.780001614075,2|0,1:2|0:0,0:0:0:0:
396,347,17653,2,0,P|417:315|417:269,1,70.5200010760498,2|0,1:2|0:0,0:0:0:0:
313,120,17967,1,2,1:2:0:0:
463,176,18125,5,0,1:2:0:0:
463,176,18203,1,0,1:2:0:0:
463,176,18296,2,0,P|397:171|330:240,1,141.0400021521,6|2,1:2|1:2,0:0:0:0:
269,284,18769,1,2,2:2:0:0:
62,310,18927,2,0,P|113:312|208:381,2,141.0400021521,2|2|0,1:2|1:2|1:1,0:0:0:0:
62,310,19874,6,0,P|47:264|32:231,1,70.5200010760498,2|2,1:2|2:2,0:0:0:0:
156,47,20190,1,2,1:2:0:0:
60,128,20349,1,10,2:2:0:0:
37,145,20427,1,10,2:2:0:0:
10,151,20506,1,10,1:2:0:0:
175,222,20664,5,8,2:2:0:0:
198,205,20742,1,8,2:2:0:0:
225,199,20822,2,0,P|306:213|432:261,1,175.440001070801,6|10,1:2|2:2,0:0:0:0:
312,73,21295,1,2,2:2:0:0:
467,186,21453,1,2,1:2:0:0:
506,62,21611,2,0,P|460:75|415:103,1,87.7200005354004,0|2,1:1|2:2,0:0:0:0:
221,208,21927,6,0,P|218:265|332:321,1,175.440001070801,8|0,2:2|1:1,0:0:0:0:
502,384,22400,1,10,2:2:0:0:
505,278,22558,1,2,2:2:0:0:
505,278,22637,1,8,2:2:0:0:
505,278,22716,2,0,P|459:291|414:319,1,87.7200005354004,2|2,1:2|1:2,0:0:0:0:
219,217,23032,2,0,P|260:176|354:183,1,131.580000803101,10|0,2:2|0:0,0:0:0:0:
368,187,23348,5,2,1:2:0:0:
217,0,23506,1,0,1:1:0:0:
100,57,23664,2,0,P|150:69|198:100,1,87.7200005354004,10|10,2:2|2:2,0:0:0:0:
211,107,23900,1,8,2:2:0:0:
211,107,23979,1,2,1:2:0:0:
33,227,24137,2,0,P|4:183|13:136,1,87.7200005354004,0|2,1:1|2:2,0:0:0:0:
165,284,24453,6,0,P|118:292|-10:376,1,175.440001070801,8|0,2:2|1:1,0:0:0:0:
248,355,24927,2,0,P|277:311|268:264,1,87.7200005354004,10|2,2:2|0:0,0:0:0:0:
463,281,25243,1,2,1:2:0:0:
379,347,25400,1,0,1:1:0:0:
233,174,25558,2,0,P|285:172|367:228,1,131.580000803101,14|0,2:2|0:0,0:0:0:0:
375,230,25874,6,0,P|406:170|454:99,2,141.0400021521,4|2|2,1:2|1:2|1:2,0:0:0:0:
201,48,26816,2,0,P|231:17|317:27,1,105.780001614075,2|0,1:2|0:0,0:0:0:0:
324,23,27130,2,0,P|314:56|302:109,1,70.5200010760498,2|0,1:2|0:0,0:0:0:0:
152,138,27447,2,0,B|90:152|112:173|31:191,1,105.780001614075,2|0,1:2|0:0,0:0:0:0:
24,185,27765,2,0,P|5:147|14:108,1,70.5200010760498,2|0,1:2|0:0,0:0:0:0:
155,232,28083,1,6,1:2:0:0:
9,310,28242,5,0,1:2:0:0:
9,310,28322,1,0,1:2:0:0:
9,310,28401,2,0,P|49:312|149:380,1,141.0400021521,6|2,1:2|1:2,0:0:0:0:
234,384,28874,1,2,2:2:0:0:
344,236,29032,2,0,P|330:196|308:70,2,141.0400021521,2|2|2,1:2|1:2|1:2,0:0:0:0:
458,331,29822,5,8,0:0:0:0:
481,338,29901,1,8,2:2:0:0:
505,345,29979,1,2,1:2:0:0:
358,384,30137,1,10,2:2:0:0:
225,192,30295,1,4,1:3:0:0:
354,240,30453,1,6,2:2:0:0:
178,358,30611,2,0,P|131:374|46:356,1,105.780001614075,14|0,2:2|0:0,0:0:0:0:
43,354,30926,6,0,P|29:273|-19:147,1,175.440001070801,6|10,1:2|2:2,0:0:0:0:
128,50,31399,1,10,2:2:0:0:
128,50,31478,1,8,2:2:0:0:
128,50,31557,2,0,P|174:62|207:87,1,87.7200005354004,2|0,1:2|1:1,0:0:0:0:
270,154,31873,1,2,2:2:0:0:
507,81,32031,6,0,P|437:78|341:166,1,175.440001070801,8|0,2:2|1:1,0:0:0:0:
217,271,32504,2,0,P|180:236|171:197,1,87.7200005354004,10|10,2:2|2:2,0:0:0:0:
169,169,32741,1,8,2:2:0:0:
169,169,32820,1,2,1:2:0:0:
304,241,32978,1,2,1:2:0:0:
162,365,33136,2,0,P|112:331|27:327,1,131.580000803101,10|0,2:2|0:0,0:0:0:0:
7,333,33452,5,2,1:2:0:0:
169,169,33610,1,0,1:1:0:0:
11,118,33768,2,0,P|34:156|60:208,1,87.7200005354004,10|10,2:2|2:2,0:0:0:0:
70,228,34004,1,8,2:2:0:0:
70,228,34083,1,2,1:2:0:0:
262,89,34241,1,0,1:1:0:0:
382,232,34399,1,10,2:2:0:0:
180,178,34557,6,0,P|163:127|146:-9,1,175.440001070801,4|0,1:2|1:1,0:0:0:0:
420,87,35031,2,0,P|370:106|330:139,1,87.7200005354004,10|0,2:2|1:1,0:0:0:0:
156,217,35347,5,8,2:3:0:0:
175,185,35452,6,0,P|213:181|253:200,1,58.4800003569336,8|8,2:3|2:3,0:0:0:0:
448,277,35662,5,6,2:2:0:0:
428,308,35768,6,0,P|389:311|349:292,1,58.4800003569336,4|4,2:3|2:3,0:0:0:0:
306,246,35978,5,4,1:2:0:0:
306,246,36294,1,10,2:2:0:0:
306,246,36610,1,10,2:2:0:0:
222,349,36768,1,2,2:2:0:0:
153,227,36926,2,0,P|189:239|220:262,1,61.9200015117188,10|0,2:2|0:0,0:0:0:0:
30,357,37241,2,0,P|61:325|145:321,1,123.840003023438,10|10,2:2|2:2,0:0:0:0:
350,371,37874,6,0,P|382:340|386:256,1,123.840003023438,10|10,2:2|2:2,0:0:0:0:
217,148,38357,1,2,1:2:0:0:
330,74,38519,5,10,1:2:0:0:
330,74,38833,1,10,2:2:0:0:
330,74,39148,1,10,2:2:0:0:
420,111,39463,6,0,P|467:96|497:88,1,61.9200015117188,10|0,2:2|0:0,0:0:0:0:
345,178,39778,2,0,P|269:154|221:141,1,123.840003023438,10|10,2:2|2:2,0:0:0:0:
226,142,40408,5,10,2:2:0:0:
49,122,40566,2,0,P|70:159|76:192,1,61.9200015117188,2|10,1:2|2:2,0:0:0:0:
147,118,40881,1,0,1:1:0:0:
0,263,41038,6,0,P|60:266|123:312,1,123.840003023438,10|10,2:2|2:2,0:0:0:0:
346,336,41511,2,0,P|324:302|226:295,1,123.840003023438,2|0,2:2|0:0,0:0:0:0:
190,360,41983,1,10,2:2:0:0:
190,360,42298,6,0,P|126:371|57:388,1,123.840003023438,10|10,2:2|2:2,0:0:0:0:
238,281,42770,2,0,P|262:240|306:161,1,123.840003023438,2|0,2:2|0:0,0:0:0:0:
85,42,43243,1,10,2:2:0:0:
115,138,43396,1,0,1:1:0:0:
115,138,43549,6,0,P|155:150|191:168,1,70.5200010760498,10|0,1:2|0:0,0:0:0:0:
241,12,43868,2,0,P|253:52|271:88,1,70.5200010760498,10|0,2:2|0:0,0:0:0:0:
394,228,44187,2,0,P|406:188|424:152,1,70.5200010760498,10|0,2:2|0:0,0:0:0:0:
441,44,44506,2,0,P|401:56|365:74,1,70.5200010760498,10|0,2:2|0:0,0:0:0:0:
189,164,44812,6,0,P|211:193|225:226,1,70.5200010760498,10|0,2:2|0:0,0:0:0:0:
307,170,45122,1,8,2:2:0:0:
162,315,45278,2,0,P|199:281|335:272,1,175.440001070801,6|0,1:2|1:1,0:0:0:0:
70,110,45763,2,0,P|141:124|197:162,1,131.580000803101,10|0,2:2|0:0,0:0:0:0:
214,173,46066,5,10,2:2:0:0:
434,76,46223,2,0,P|470:29|473:-11,1,87.7200005354004,2|0,1:2|0:0,0:0:0:0:
345,164,46539,2,0,P|375:218|426:362,1,175.440001070801,6|0,1:2|1:2,0:0:0:0:
433,352,46934,1,0,1:2:0:0:
433,352,47013,1,10,2:2:0:0:
212,182,47670,5,10,2:2:0:0:
438,68,47831,1,2,1:2:0:0:
52,109,48612,6,0,P|128:101|211:199,1,170.279999480347,6|0,1:2|0:0,0:0:0:0:
212,182,48927,1,10,2:2:0:0:
0,300,49085,1,10,2:2:0:0:
0,300,49164,1,8,2:2:0:0:
0,300,49243,2,0,P|45:269|111:260,1,96.3200011757813,2|2,1:2|1:2,0:0:0:0:
319,221,49559,2,0,P|329:175|305:135,1,96.3200011757813,10|0,2:2|0:0,0:0:0:0:
166,1,49875,5,2,1:2:0:0:
210,184,50033,1,2,1:2:0:0:
0,167,50190,1,10,2:2:0:0:
69,80,50348,1,10,2:2:0:0:
69,80,50427,1,8,2:2:0:0:
69,80,50506,2,0,P|85:125|99:171,1,96.3200011757813,2|0,1:2|1:1,0:0:0:0:
160,364,50822,2,0,P|107:320|6:320,1,144.480001763672,10|0,2:2|0:0,0:0:0:0:
0,317,51138,5,2,1:2:0:0:
252,198,51296,2,0,P|225:237|205:287,1,96.3200011757813,2|10,2:2|2:2,0:0:0:0:
115,210,51612,1,2,2:2:0:0:
292,367,51769,2,0,P|351:340|453:335,1,144.480001763672,2|0,1:2|0:0,0:0:0:0:
460,339,52085,2,0,P|484:284|518:239,1,96.3200011757813,10|2,2:2|2:2,0:0:0:0:
352,41,52401,5,2,1:2:0:0:
465,139,52559,1,0,1:1:0:0:
306,282,52717,1,10,2:2:0:0:
377,130,52875,1,0,1:1:0:0:
191,203,53033,1,10,2:2:0:0:
132,116,53190,1,0,1:1:0:0:
314,270,53348,2,0,P|251:286|153:342,1,144.480001763672,12|0,2:2|0:0,0:0:0:0:
152,340,53664,6,0,P|112:305|111:245,1,96.3200011757813,6|0,1:2|0:0,0:0:0:0:
193,70,53980,2,0,P|224:122|238:179,1,96.3200011757813,10|8,2:2|0:2,0:0:0:0:
250,197,54217,1,8,2:2:0:0:
250,197,54296,1,2,1:2:0:0:
251,0,54454,1,2,1:2:0:0:
331,55,54611,1,10,2:2:0:0:
9,104,54769,6,0,P|75:111|136:181,1,144.480001763672,2|0,2:2|0:0,0:0:0:0:
150,192,55085,1,2,1:2:0:0:
323,48,55243,1,10,2:2:0:0:
446,124,55401,1,10,2:2:0:0:
446,124,55480,1,8,2:2:0:0:
446,124,55559,2,0,P|398:135|342:173,1,96.3200011757813,2|0,1:2|1:1,0:0:0:0:
154,302,55875,2,0,P|191:350|288:343,1,144.480001763672,10|0,2:2|0:0,0:0:0:0:
294,333,56190,6,0,P|275:282|251:238,1,96.3200011757813,2|0,1:2|0:0,0:0:0:0:
455,123,56506,2,0,P|432:165|416:210,1,96.3200011757813,10|8,2:2|0:2,0:0:0:0:
408,247,56743,1,8,2:2:0:0:
408,247,56822,1,2,1:2:0:0:
275,126,56980,1,2,1:2:0:0:
166,206,57138,1,10,2:2:0:0:
85,157,57296,1,2,2:2:0:0:
33,321,57454,5,10,1:2:0:0:
45,324,57532,1,8,2:2:0:0:
58,327,57611,1,10,2:2:0:0:
71,331,57690,1,8,2:2:0:0:
83,335,57769,1,10,1:2:0:0:
96,339,57848,1,8,2:2:0:0:
108,343,57927,1,10,2:2:0:0:
121,347,58006,1,8,2:2:0:0:
133,351,58086,5,10,1:2:0:0:
177,333,58164,1,8,2:2:0:0:
201,292,58243,1,8,2:2:0:0:
195,245,58322,1,8,2:2:0:0:
162,212,58400,1,8,1:2:0:0:
117,194,58480,1,8,2:2:0:0:
93,154,58559,1,8,2:2:0:0:
98,106,58638,1,8,2:2:0:0:
131,73,58717,6,0,P|179:98|225:105,1,96.3200011757813,6|2,1:2|2:2,0:0:0:0:
157,208,59033,1,14,2:2:0:0:
375,350,59190,2,0,P|339:311|198:305,1,192.640002351563,2|2,2:2|1:2,0:0:0:0:
0,125,59664,2,0,P|62:128|135:60,1,144.480001763672,10|8,2:2|2:2,0:0:0:0:
147,55,59980,5,2,1:2:0:0:
267,193,60138,1,2,1:2:0:0:
423,10,60296,1,10,2:2:0:0:
275,70,60454,1,10,2:2:0:0:
275,70,60533,1,8,2:2:0:0:
275,70,60612,2,0,P|321:85|374:118,1,96.3200011757813,2|0,1:2|1:1,0:0:0:0:
498,252,60927,2,0,P|468:292|361:279,1,144.480001763672,10|0,2:2|0:0,0:0:0:0:
350,273,61243,5,2,1:2:0:0:
151,384,61401,2,0,P|214:350|276:349,1,96.3200011757813,2|10,2:2|2:2,0:0:0:0:
115,149,61717,1,2,2:2:0:0:
0,211,61875,2,0,P|52:227|136:272,1,144.480001763672,2|0,1:2|0:0,0:0:0:0:
163,285,62190,2,0,P|188:232|223:182,1,96.3200011757813,10|2,2:2|2:2,0:0:0:0:
50,45,62506,5,2,1:2:0:0:
120,156,62664,1,0,1:1:0:0:
326,5,62822,1,8,2:2:0:0:
201,57,62980,1,0,1:1:0:0:
347,233,63138,1,6,2:2:0:0:
418,98,63296,1,0,1:1:0:0:
220,192,63454,2,0,P|237:261|241:368,1,144.480001763672,12|0,2:2|0:0,0:0:0:0:
254,368,63769,6,0,P|313:363|379:386,1,96.3200011757813,6|0,1:2|0:0,0:0:0:0:
144,279,64085,2,0,P|100:242|58:230,1,96.3200011757813,10|8,2:2|0:0,0:0:0:0:
30,218,64322,1,8,2:2:0:0:
30,218,64401,1,2,1:2:0:0:
169,82,64559,1,2,1:2:0:0:
103,23,64717,1,10,2:2:0:0:
263,213,64875,6,0,P|325:176|399:162,1,144.480001763672,2|0,2:2|0:0,0:0:0:0:
431,157,65191,1,2,1:2:0:0:
242,13,65348,1,10,2:2:0:0:
166,89,65506,1,10,2:2:0:0:
166,89,65585,1,8,2:2:0:0:
166,89,65664,2,0,P|223:103|266:123,1,96.3200011757813,2|0,1:2|1:1,0:0:0:0:
134,276,65980,1,10,2:2:0:0:
25,202,66138,5,8,0:0:0:0:
25,202,66217,1,8,2:2:0:0:
25,202,66296,2,0,P|81:198|115:179,1,96.3200011757813,2|0,1:2|0:0,0:0:0:0:
340,287,66612,2,0,B|256:300|303:331|178:356,1,144.480001763672,10|0,2:2|0:0,0:0:0:0:
176,359,66927,2,0,P|134:321|127:275,1,96.3200011757813,2|2,1:2|1:2,0:0:0:0:
238,166,67243,1,10,2:2:0:0:
105,53,67401,1,2,1:2:0:0:
21,139,67559,6,0,P|78:157|120:173,1,96.3200011757813,10|2,2:2|2:2,0:0:0:0:
360,378,67875,1,10,1:2:0:0:
364,365,67954,1,8,2:2:0:0:
368,353,68033,1,10,2:2:0:0:
372,340,68112,1,8,2:2:0:0:
376,328,68190,5,10,1:2:0:0:
358,284,68270,1,8,2:2:0:0:
317,260,68349,1,8,2:2:0:0:
270,266,68428,1,8,2:2:0:0:
237,299,68506,1,8,1:2:0:0:
219,344,68584,1,8,2:2:0:0:
179,368,68663,1,8,2:2:0:0:
131,363,68742,1,8,2:2:0:0:
99,329,68823,6,0,P|122:284|138:234,1,96.3200011757813,4|0,1:2|0:0,0:0:0:0:
305,30,69138,2,0,P|327:81|352:175,1,144.480001763672,10|0,2:2|0:0,0:0:0:0:
367,196,69454,2,0,P|424:212|464:226,1,96.3200011757813,2|0,1:2|0:0,0:0:0:0:
273,384,69769,2,0,P|221:344|129:327,1,144.480001763672,10|0,2:2|0:0,0:0:0:0:
110,331,70085,6,0,P|86:273|59:241,1,96.3200011757813,2|0,1:2|0:0,0:0:0:0:
237,147,70401,1,10,2:2:0:0:
190,225,70559,1,2,2:2:0:0:
0,84,70717,2,0,P|59:72|142:-3,1,144.480001763672,2|0,1:2|0:0,0:0:0:0:
151,0,71033,2,0,P|186:42|184:89,1,96.3200011757813,10|0,2:2|0:0,0:0:0:0:
457,125,71348,6,0,P|384:130|320:198,1,144.480001763672,6|0,1:2|0:0,0:0:0:0:
316,207,71664,1,10,2:2:0:0:
416,371,71822,1,2,2:2:0:0:
512,295,71980,2,0,P|469:271|419:265,1,96.3200011757813,6|0,1:2|0:0,0:0:0:0:
117,336,72296,2,0,P|162:372|247:369,1,144.480001763672,10|0,2:2|0:0,0:0:0:0:
271,353,72612,6,0,P|251:299|228:253,1,96.3200011757813,6|2,1:2|2:2,0:0:0:0:
53,109,72927,1,10,2:2:0:0:
0,187,73085,1,2,2:2:0:0:
173,74,73243,1,2,1:2:0:0:
3,0,73401,1,2,2:2:0:0:
97,190,73559,2,0,P|114:248|130:340,1,144.480001763672,10|0,2:2|0:0,0:0:0:0:
136,358,73875,6,0,P|192:355|249:315,1,96.3200011757813,4|0,1:2|0:0,0:0:0:0:
458,226,74190,2,0,P|405:230|337:154,1,144.480001763672,10|0,2:2|0:0,0:0:0:0:
349,144,74506,2,0,P|377:94|395:55,1,96.3200011757813,2|0,1:2|0:0,0:0:0:0:
217,154,74822,2,0,B|130:164|177:210|50:224,1,144.480001763672,10|0,2:2|0:0,0:0:0:0:
55,219,75138,6,0,P|34:144|5:94,1,96.3200011757813,2|0,1:2|0:0,0:0:0:0:
231,50,75454,1,10,2:2:0:0:
138,0,75612,1,2,2:2:0:0:
323,170,75769,2,0,P|380:180|460:114,1,144.480001763672,2|0,1:2|0:0,0:0:0:0:
465,108,76085,2,0,P|414:86|363:61,1,96.3200011757813,10|0,2:2|0:0,0:0:0:0:
135,293,76401,6,0,P|176:252|272:250,1,144.480001763672,6|0,1:2|0:0,0:0:0:0:
290,259,76717,2,0,P|307:194|325:148,1,96.3200011757813,10|0,2:2|0:0,0:0:0:0:
88,0,77033,2,0,P|59:43|72:131,1,144.480001763672,6|0,1:2|0:0,0:0:0:0:
89,161,77348,1,10,2:2:0:0:
230,56,77506,1,2,2:2:0:0:
434,239,77664,5,8,2:2:0:0:
402,204,77743,1,8,2:2:0:0:
357,188,77822,1,2,1:2:0:0:
309,195,77901,1,0,1:1:0:0:
270,222,77980,2,0,P|282:252|289:281,3,48.1600005878906,10|0|2|0,2:2|1:1|1:2|1:1,0:0:0:0:
124,358,78296,5,10,2:2:0:0:
109,328,78374,1,8,2:3:0:0:
113,295,78453,1,8,2:3:0:0:
134,269,78532,1,8,2:3:0:0:
166,259,78612,1,4,2:3:0:0:
196,274,78690,1,4,2:3:0:0:
229,270,78769,1,4,2:3:0:0:
255,249,78848,1,4,2:3:0:0:
265,217,78927,6,0,P|249:159|222:31,1,175.440001070801,6|12,1:2|2:2,0:0:0:0:
160,0,79398,1,0,0:0:0:0:
30,130,79555,2,0,P|70:156|126:160,1,87.7200005354004,2|0,1:2|1:1,0:0:0:0:
40,258,79869,1,10,2:2:0:0:
267,383,80026,6,0,P|219:337|105:335,1,175.440001070801,0|0,1:1|1:1,0:0:0:0:
384,215,80498,2,0,P|354:253|332:291,1,87.7200005354004,10|8,2:2|0:2,0:0:0:0:
319,318,80735,1,8,2:2:0:0:
319,318,80814,1,2,1:2:0:0:
218,210,80972,1,0,1:1:0:0:
450,382,81130,2,0,P|490:341|480:256,1,131.580000803101,10|0,2:2|0:0,0:0:0:0:
474,241,81446,6,0,P|431:227|373:202,1,87.7200005354004,4|0,1:2|0:0,0:0:0:0:
182,106,81761,2,0,P|245:103|318:27,1,131.580000803101,10|0,2:2|0:0,0:0:0:0:
319,38,82071,1,2,1:2:0:0:
249,278,82227,2,0,P|238:233|215:185,1,87.7200005354004,0|10,1:1|2:2,0:0:0:0:
47,384,82538,2,0,P|28:329|101:243,1,175.440001070801,4|0,1:2|1:1,0:0:0:0:
131,235,82936,1,0,1:1:0:0:
131,235,83016,1,10,2:2:0:0:
0,144,83175,6,0,P|7:126|16:103,1,43.8600002677002,8|8,2:2|2:2,0:0:0:0:
127,19,83335,2,0,P|134:37|143:60,1,43.8600002677002,2|0,1:2|0:0,0:0:0:0:
225,187,83494,2,0,P|232:168|241:146,1,43.8600002677002,0|0,1:1|0:0,0:0:0:0:
276,35,83655,2,0,P|257:42|235:51,1,43.8600002677002,10|0,2:2|0:0,0:0:0:0:
108,133,83814,2,0,P|126:140|149:149,1,43.8600002677002
352,250,83973,6,0,P|297:250|195:352,1,175.440001070801,4|10,1:2|2:2,0:0:0:0:
205,321,84604,1,2,1:2:0:0:
108,124,84762,1,0,1:1:0:0:
9,209,84920,2,0,P|65:222|107:250,1,87.7200005354004,10|0,2:2|0:0,0:0:0:0:
258,138,85242,5,8,1:2:0:0:
261,126,85320,1,8,2:2:0:0:
264,113,85399,1,8,2:2:0:0:
268,100,85478,1,8,2:2:0:0:
272,88,85557,1,8,1:2:0:0:
276,75,85636,1,8,2:2:0:0:
280,63,85715,1,8,2:2:0:0:
284,50,85794,1,8,2:2:0:0:
288,38,85873,5,8,1:2:0:0:
244,56,85953,1,8,2:2:0:0:
220,97,86032,1,8,2:2:0:0:
226,144,86111,1,8,2:2:0:0:
259,177,86189,1,8,1:2:0:0:
304,195,86269,1,8,2:2:0:0:
328,235,86348,1,8,2:2:0:0:
323,283,86427,1,8,2:2:0:0:
290,316,86506,5,6,1:2:0:0:
290,316,87758,5,10,2:2:0:0:
53,322,87915,2,0,P|106:316|215:396,1,175.440001070801,6|2,1:2|2:2,0:0:0:0:
475,206,88399,5,10,1:2:0:0:
444,209,88477,1,8,2:2:0:0:
415,219,88556,1,10,2:2:0:0:
390,237,88635,1,8,2:2:0:0:
370,260,88714,1,10,1:2:0:0:
250,164,88872,5,8,2:2:0:0:
264,131,88950,1,8,2:2:0:0:
