osu file format v14

[General]
AudioFilename: audio.ogg
AudioLeadIn: 0
PreviewTime: 45914
Countdown: 0
SampleSet: Soft
StackLeniency: 0.3
Mode: 0
LetterboxInBreaks: 0
WidescreenStoryboard: 1

[Editor]
Bookmarks: 15769,30926,48612,58717,68822,78927,89030
DistanceSpacing: 1.4
BeatDivisor: 4
GridSize: 32
TimelineZoom: 3.000002

[Metadata]
Title:grayscale dominator (TV Size)
TitleUnicode:grayscale dominator (TV Size)
Artist:OxT
ArtistUnicode:OxT
Creator:AsuKow
Version:Collab Hard
Source:陰の実力者になりたくて! 2nd season
Tags:Amats Shayks eringiRa NakaroniX that_blazord blazord japanese rock j-rock jrock anime opening op male vocals vocalist the eminence in shadow 2nd season kage no jitsuryokusha ni naritakute! to be a power in the shadows! Kadokawa Pony Canyon
BeatmapID:4530281
BeatmapSetID:2126479

[Difficulty]
HPDrainRate:4.5
CircleSize:3.5
OverallDifficulty:6.5
ApproachRate:7.5
SliderMultiplier:1.4
SliderTickRate:1

[Events]
//Background and Video events
0,0,"114549888_p0.jpg",0,0
Video,0,"video.avi"
//Break Periods
//Storyboard Layer 0 (Background)
//Storyboard Layer 1 (Fail)
//Storyboard Layer 2 (Pass)
//Storyboard Layer 3 (Foreground)
//Storyboard Layer 4 (Overlay)
//Storyboard Sound Samples

[TimingPoints]
612,315.789473684211,4,2,1,70,1,0
1164,-100,4,2,2,70,0,0
1243,-100,4,2,1,70,0,0
1796,-100,4,2,2,70,0,0
1875,-100,4,2,1,70,0,0
2427,-100,4,2,2,70,0,0
2506,-100,4,2,1,70,0,0
3059,-100,4,2,2,70,0,0
3138,-100,4,2,1,70,0,0
3690,-100,4,2,2,70,0,0
3769,-100,4,2,1,70,0,0
4085,-100,4,2,3,70,0,0
4322,-100,4,2,3,5,0,0
4401,-100,4,2,3,50,0,0
4717,-100,4,2,3,55,0,0
5033,-100,4,2,3,60,0,0
5348,-100,4,2,3,65,0,0
5664,-125,4,2,1,65,0,0
5980,-125,4,2,2,40,0,0
6296,-125,4,2,1,40,0,0
6454,-125,4,2,2,40,0,0
6927,-125,4,2,5,40,0,0
6942,314.13612565445,4,2,5,40,1,0
6942,-125,4,2,5,40,0,0
7256,-125,4,2,4,40,0,0
7413,-125,4,2,3,40,0,0
7570,-125,4,2,3,40,0,0
7727,-125,4,2,2,40,0,0
7884,-125,4,2,4,40,0,0
8041,-125,4,2,2,40,0,0
8198,-111.111111111111,4,2,3,50,0,0
8748,-111.111111111111,4,2,5,50,0,0
9140,-111.111111111111,4,2,3,50,0,0
10004,-111.111111111111,4,2,5,50,0,0
10397,-111.111111111111,4,2,6,50,0,0
10633,-111.111111111111,4,2,6,5,0,0
10711,319.148936170213,4,2,1,40,1,0
10711,-125,4,2,1,40,0,0
11030,-125,4,2,2,40,0,0
11349,-125,4,2,1,40,0,0
11508,-125,4,2,2,40,0,0
11987,315.789473684211,4,2,5,40,1,0
11987,-125,4,2,5,40,0,0
12302,-125,4,2,4,40,0,0
12461,-125,4,2,3,40,0,0
12934,-125,4,2,4,40,0,0
13250,314.13612565445,4,2,1,60,1,0
13328,-100,4,2,1,5,0,0
13407,-100,4,2,2,60,0,0
13721,-100,4,2,4,60,0,0
14506,319.148936170213,4,2,1,60,1,0
14585,-100,4,2,1,5,0,0
14665,-100,4,2,2,60,0,0
15139,326.086956521739,4,2,1,60,1,0
15220,-100,4,2,1,5,0,0
15302,-100,4,2,2,60,0,0
15769,314.13612565445,4,2,1,50,1,0
15769,-125,4,2,1,50,0,0
16083,-125,4,2,7,50,0,0
16397,-125,4,2,8,50,0,0
16711,-125,4,2,7,50,0,0
18296,315.789473684211,4,2,5,50,1,0
18296,-125,4,2,5,50,0,0
18611,-125,4,2,7,50,0,0
18769,-125,4,2,3,50,0,0
18927,-125,4,2,8,50,0,0
19085,-125,4,2,3,50,0,0
19401,-125,4,2,1,50,0,0
19874,-125,4,2,6,50,0,0
20032,-125,4,2,3,50,0,0
20190,-125,4,2,1,50,0,0
20348,-125,4,2,9,50,0,0
20822,-111.111111111111,4,2,9,60,0,0
21138,-111.111111111111,4,2,1,60,0,0
21295,-111.111111111111,4,2,3,60,0,0
21453,-111.111111111111,4,2,1,60,0,0
22400,-111.111111111111,4,2,6,60,0,0
22558,-111.111111111111,4,2,5,60,0,0
22716,-111.111111111111,4,2,1,60,0,0
22874,-111.111111111111,4,2,3,60,0,0
23032,-111.111111111111,4,2,6,60,0,0
23269,-111.111111111111,4,2,6,5,0,0
23348,-111.111111111111,4,2,6,60,0,0
23664,-111.111111111111,4,2,1,60,0,0
23822,-111.111111111111,4,2,5,60,0,0
23979,-111.111111111111,4,2,1,60,0,0
24927,-111.111111111111,4,2,6,60,0,0
25085,-111.111111111111,4,2,3,60,0,0
25243,-111.111111111111,4,2,1,60,0,0
25558,-111.111111111111,4,2,9,60,0,0
25795,-111.111111111111,4,2,9,5,0,0
25874,314.13612565445,4,2,3,50,1,0
25874,-125,4,2,3,50,0,0
26188,-125,4,2,7,50,0,0
26502,-125,4,2,8,50,0,0
26816,-125,4,2,7,50,0,0
27130,317.965023847377,4,2,7,50,1,8
27130,-125,4,2,7,50,0,8
28083,-125,4,2,3,50,0,8
28401,315.789473684211,4,2,9,50,1,0
28401,-125,4,2,9,50,0,0
28716,-125,4,2,7,50,0,0
28874,-125,4,2,3,50,0,0
29032,-125,4,2,1,50,0,0
29506,-125,4,2,1,50,0,0
29979,-125,4,2,5,50,0,0
30216,-125,4,2,1,50,0,0
30453,-125,4,2,2,50,0,0
30611,-125,4,2,9,50,0,0
30848,-125,4,2,9,5,0,0
30926,315.789473684211,4,2,3,60,1,0
30926,-111.111111111111,4,2,3,60,0,0
31241,-111.111111111111,4,2,1,60,0,0
31399,-111.111111111111,4,2,5,60,0,0
31557,-111.111111111111,4,2,1,60,0,0
32268,-111.111111111111,4,2,1,5,0,0
32347,-111.111111111111,4,2,1,60,0,0
32504,-111.111111111111,4,2,6,60,0,0
32662,-111.111111111111,4,2,5,60,0,0
32820,-111.111111111111,4,2,1,60,0,0
32978,-111.111111111111,4,2,3,60,0,0
33136,-111.111111111111,4,2,6,60,0,0
33294,-111.111111111111,4,2,6,60,0,0
33452,-111.111111111111,4,2,6,60,0,0
33768,-111.111111111111,4,2,1,60,0,0
33926,-111.111111111111,4,2,5,60,0,0
34083,-111.111111111111,4,2,1,60,0,0
35031,-111.111111111111,4,2,6,60,0,0
35347,-111.111111111111,4,2,1,60,0,0
35557,-111.111111111111,4,2,2,60,0,0
35662,-111.111111111111,4,2,1,60,0,0
35768,-111.111111111111,4,2,1,60,0,0
35873,-111.111111111111,4,2,2,60,0,0
35978,-125,4,2,1,40,0,0
36294,-125,4,2,8,40,0,0
36610,-125,4,2,7,40,0,0
36768,-125,4,2,3,40,0,0
36926,-125,4,2,7,40,0,0
37557,-125,4,2,8,40,0,0
37874,322.58064516129,4,2,7,40,1,0
37874,-125,4,2,7,40,0,0
38357,-125,4,2,3,40,0,0
38519,314.96062992126,4,2,7,40,1,0
38519,-125,4,2,7,40,0,0
38833,-125,4,2,8,40,0,0
40408,-125,4,2,7,40,0,0
40566,-125,4,2,3,40,0,0
40723,-125,4,2,7,40,0,0
41038,-111.111111111111,4,2,12,40,0,0
41353,-111.111111111111,4,2,8,40,0,0
41511,-111.111111111111,4,2,3,40,0,0
41668,-111.111111111111,4,2,8,40,0,0
41983,-111.111111111111,4,2,7,40,0,0
42613,-111.111111111111,4,2,8,40,0,0
42770,-111.111111111111,4,2,3,40,0,0
42928,-111.111111111111,4,2,8,40,0,0
43243,306.122448979592,4,2,7,40,1,8
43243,-111.111111111111,4,2,7,40,0,8
43549,319.148936170213,4,2,7,50,1,0
43549,-100,4,2,7,50,0,0
44812,310.880829015544,4,2,7,50,1,0
45045,-100,4,2,7,5,0,0
45122,-100,4,2,9,50,0,0
45278,323.450134770889,4,2,9,50,1,8
45520,-100,4,2,9,5,0,8
45601,-100,4,2,9,50,0,8
45763,303.030303030303,4,2,1,50,1,8
45987,-100,4,2,1,50,0,8
45990,-100,4,2,1,5,0,8
46066,315.789473684211,4,2,3,50,1,0
46144,-100,4,2,3,5,0,0
46223,-100,4,2,13,50,0,0
46539,-100,4,2,9,50,0,0
47670,322.58064516129,4,2,9,50,1,0
47750,-100,4,2,9,5,0,0
47831,-100,4,2,14,50,0,0
47992,-100,4,2,9,50,0,0
48612,315.789473684211,4,2,9,80,1,0
48612,-100,4,2,9,80,0,0
48769,-100,4,2,9,80,0,0
48848,-100,4,2,9,5,0,0
48927,-100,4,2,6,80,0,0
49085,-100,4,2,5,80,0,0
49243,-100,4,2,1,80,0,0
49401,-100,4,2,3,80,0,0
49559,-100,4,2,6,80,0,0
49796,-100,4,2,6,5,0,0
49875,-100,4,2,6,80,0,0
50033,-100,4,2,3,80,0,0
50190,-100,4,2,6,80,0,0
50348,-100,4,2,5,80,0,0
50506,-100,4,2,1,80,0,0
51059,-100,4,2,1,5,0,0
51138,-100,4,2,6,80,0,0
51296,-100,4,2,3,80,0,0
51454,-100,4,2,1,80,0,0
51611,-100,4,2,5,80,0,0
51769,-100,4,2,6,80,0,0
52243,-100,4,2,3,80,0,0
52401,-100,4,2,6,80,0,0
52638,-100,4,2,6,5,0,0
52717,-100,4,2,1,80,0,0
53033,-100,4,2,6,80,0,0
53348,-100,4,2,3,80,0,0
53585,-100,4,2,3,5,0,0
53664,-100,4,2,9,80,0,0
53901,-100,4,2,9,5,0,0
53980,-100,4,2,6,80,0,0
54217,-100,4,2,2,80,0,0
54296,-100,4,2,6,80,0,0
54454,-100,4,2,3,80,0,0
54611,-100,4,2,6,80,0,0
54769,-100,4,2,3,80,0,0
54927,-100,4,2,1,80,0,0
55085,-100,4,2,3,80,0,0
55243,-100,4,2,6,80,0,0
55401,-100,4,2,5,80,0,0
55559,-100,4,2,6,80,0,0
55875,-100,4,2,1,80,0,0
56111,-100,4,2,1,5,0,0
56190,-100,4,2,6,80,0,0
56427,-100,4,2,6,5,0,0
56506,-100,4,2,6,80,0,0
56743,-100,4,2,2,80,0,0
56822,-100,4,2,6,80,0,0
56980,-100,4,2,3,80,0,0
57138,-100,4,2,6,80,0,0
57296,-100,4,2,3,80,0,0
57454,-100,4,2,1,80,0,0
57611,-100,4,2,9,80,0,0
58717,-100,4,2,9,80,0,0
58954,-100,4,2,9,5,0,0
59033,-100,4,2,3,80,0,0
59269,-100,4,2,2,80,0,0
59348,-100,4,2,1,80,0,0
59506,-100,4,2,3,80,0,0
59664,-100,4,2,6,80,0,0
59901,-100,4,2,2,80,0,0
59980,-100,4,2,6,80,0,0
60138,-100,4,2,3,80,0,0
60296,-100,4,2,6,80,0,0
60454,-100,4,2,5,80,0,0
60611,-100,4,2,1,80,0,0
61243,-100,4,2,6,80,0,0
61401,-100,4,2,3,80,0,0
61559,-100,4,2,1,80,0,0
61717,-100,4,2,5,80,0,0
61875,-100,4,2,6,80,0,0
62348,-100,4,2,3,80,0,0
62506,-100,4,2,6,80,0,0
63138,-100,4,2,10,80,0,0
63296,-100,4,2,3,80,0,0
63690,-100,4,2,3,5,0,0
63769,-100,4,2,9,80,0,0
64006,-100,4,2,9,5,0,0
64085,-100,4,2,6,80,0,0
64322,-100,4,2,2,80,0,0
64401,-100,4,2,6,80,0,0
64559,-100,4,2,3,80,0,0
64717,-100,4,2,6,80,0,0
64875,-100,4,2,3,80,0,0
65033,-100,4,2,1,80,0,0
65190,-100,4,2,3,80,0,0
65348,-100,4,2,6,80,0,0
65506,-100,4,2,5,80,0,0
65664,-100,4,2,6,80,0,0
65980,-100,4,2,1,80,0,0
66217,-100,4,2,2,80,0,0
66296,-100,4,2,6,80,0,0
66848,-100,4,2,2,80,0,0
66927,-100,4,2,6,80,0,0
67085,-100,4,2,3,80,0,0
67243,-100,4,2,6,80,0,0
67401,-100,4,2,3,80,0,0
67559,-100,4,2,6,80,0,0
67717,-100,4,2,9,80,0,0
68822,-111.111111111111,4,2,9,80,0,0
69059,-111.111111111111,4,2,9,5,0,0
69138,-111.111111111111,4,2,15,80,0,0
69454,-111.111111111111,4,2,15,80,0,0
69690,-111.111111111111,4,2,15,5,0,0
69769,-111.111111111111,4,2,15,80,0,0
70401,-111.111111111111,4,2,15,80,0,0
70559,-111.111111111111,4,2,3,80,0,0
70717,-111.111111111111,4,2,15,80,0,0
71269,-111.111111111111,4,2,15,5,0,0
71348,-111.111111111111,4,2,3,80,0,0
71585,-111.111111111111,4,2,3,5,0,0
71664,-111.111111111111,4,2,15,80,0,0
71822,-111.111111111111,4,2,9,80,0,0
72217,-111.111111111111,4,2,9,5,0,0
72296,-111.111111111111,4,2,15,80,0,0
72454,-111.111111111111,4,2,3,80,0,0
72927,-111.111111111111,4,2,15,80,0,0
73085,-111.111111111111,4,2,3,80,0,0
73243,-111.111111111111,4,2,15,80,0,0
73401,-111.111111111111,4,2,3,80,0,0
73559,-111.111111111111,4,2,15,80,0,0
73796,-111.111111111111,4,2,14,5,0,0
73875,-111.111111111111,4,2,1,80,0,0
74190,-111.111111111111,4,2,15,80,0,0
74506,-111.111111111111,4,2,15,80,0,0
74822,-111.111111111111,4,2,15,80,0,0
75059,-111.111111111111,4,2,14,5,0,0
75138,-111.111111111111,4,2,15,80,0,0
75454,-111.111111111111,4,2,15,80,0,0
75611,-111.111111111111,4,2,3,80,0,0
75769,-111.111111111111,4,2,15,80,0,0
76401,-111.111111111111,4,2,3,80,0,0
76638,-111.111111111111,4,2,3,5,0,0
76717,-111.111111111111,4,2,15,80,0,0
77033,-111.111111111111,4,2,9,80,0,0
77269,-111.111111111111,4,2,9,5,0,0
77348,-111.111111111111,4,2,15,80,0,0
77506,-111.111111111111,4,2,3,80,0,0
78375,-111.111111111111,4,2,1,80,0,0
78454,-111.111111111111,4,2,2,80,0,0
78611,-111.111111111111,4,2,1,80,0,0
78690,-111.111111111111,4,2,2,80,0,0
78927,314.13612565445,4,2,9,70,1,0
79241,-100,4,2,3,70,0,0
79555,-100,4,2,6,70,0,0
79869,-100,4,2,1,70,0,0
80183,315.789473684211,4,2,1,70,1,0
80735,-100,4,2,2,70,0,0
80814,-100,4,2,1,70,0,0
81683,-100,4,2,1,5,0,0
81761,310.880829015544,4,2,1,70,1,0
82538,319.148936170213,4,2,3,70,1,8
82697,319.148936170213,4,2,3,70,1,0
83016,-100,4,2,1,70,0,0
83255,-100,4,2,2,70,0,0
83335,-100,4,2,1,70,0,0
83973,315.789473684211,4,2,1,70,1,0
84920,322.58064516129,4,2,1,70,1,0
85242,315.789473684211,4,2,1,50,1,0
85557,-100,4,2,1,55,0,0
85873,-100,4,2,1,60,0,0
86189,-100,4,2,1,65,0,0
86505,-100,4,2,16,70,0,0
86822,-100,4,2,3,70,0,0
87758,315.789473684211,4,2,3,70,1,0
87915,322.58064516129,4,2,5,70,1,8
88399,315.789473684211,4,2,5,70,1,8
88556,-100,4,2,3,70,0,8

[Colours]
Combo1 : 255,253,168
Combo2 : 160,201,241
Combo3 : 175,128,240

[HitObjects]
0,384,612,6,0,P|12:334|21:305,1,70,4|0,1:2|1:1,0:0:0:0:
71,237,927,2,0,P|57:185|40:128,1,105,10|8,2:2|2:2,0:0:0:0:
22,125,1243,2,0,P|3:96|8:62,1,70,2|0,1:2|1:1,0:0:0:0:
86,2,1559,2,0,P|117:11|156:24,1,70,10|8,2:2|0:2,0:0:0:0:
162,28,1796,1,8,2:2:0:0:
171,35,1875,5,2,1:2:0:0:
241,102,2033,1,0,1:1:0:0:
310,33,2190,2,0,P|340:15|411:34,1,105,10|8,2:2|2:2,0:0:0:0:
413,43,2506,2,0,P|403:72|393:112,1,70,2|0,1:2|1:1,0:0:0:0:
317,173,2822,2,0,P|324:197|337:243,1,70,10|8,2:2|0:2,0:0:0:0:
341,250,3059,1,8,2:2:0:0:
347,260,3138,5,2,1:2:0:0:
416,329,3296,1,0,1:1:0:0:
333,381,3454,2,0,P|275:369|211:362,1,105,10|8,2:2|2:2,0:0:0:0:
191,360,3769,2,0,P|175:330|181:297,1,70,2|0,1:2|1:1,0:0:0:0:
230,211,4085,2,0,P|241:176|252:142,1,70,12|0,2:2|0:0,0:0:0:0:
339,100,4401,6,0,P|355:106|376:117,3,35,8|8|8|8,1:2|2:2|2:2|2:2,0:0:0:0:
391,129,4717,2,0,P|406:121|422:114,3,35,8|8|8|8,1:2|2:2|2:2|2:2,0:0:0:0:
452,123,5033,2,0,P|459:103|466:91,3,35,8|8|8|8,1:2|2:2|2:2|2:2,0:0:0:0:
499,66,5348,2,0,P|492:46|484:34,3,35,8|8|8|8,1:2|2:2|2:2|2:2,0:0:0:0:
454,8,5664,5,4,1:2:0:0:
507,384,6296,6,0,P|497:340|488:316,1,56,8|8,2:2|2:2,0:0:0:0:
419,301,6612,2,0,P|428:265|435:244,1,56,2|8,2:2|2:2,0:0:0:0:
415,162,6942,6,0,P|466:202|521:189,2,112,0|2|8,1:2|1:2|2:2,0:0:0:0:
156,49,8041,5,8,2:2:0:0:
247,13,8198,2,0,P|232:65|210:154,1,125.999996154785,6|10,1:2|2:2,0:0:0:0:
149,192,8669,1,10,2:2:0:0:
149,192,8748,1,10,2:2:0:0:
149,192,8826,2,0,P|105:160|33:175,1,125.999996154785,2|10,1:2|2:2,0:0:0:0:
0,344,9455,5,2,1:2:0:0:
0,344,9612,2,0,P|33:334|68:325,1,62.9999980773926,2|8,1:2|2:2,0:0:0:0:
133,376,9926,1,10,2:2:0:0:
133,376,10083,1,2,1:2:0:0:
208,330,10240,1,2,1:2:0:0:
154,259,10397,1,10,2:2:0:0:
76,125,10711,6,0,P|60:52|48:7,2,112,4|2|8,1:2|2:2|2:2,0:0:0:0:
216,193,11668,2,0,P|239:184|275:172,1,56,2|8,2:2|2:2,0:0:0:0:
347,186,11987,6,0,P|376:231|360:282,1,112,2|2,1:2|1:2,0:0:0:0:
299,332,12460,1,0,0:0:0:0:
365,374,12618,2,0,P|417:360|481:348,1,112,8|2,2:2|2:2,0:0:0:0:
512,153,13250,5,8,2:2:0:0:
416,109,13407,1,4,1:2:0:0:
278,254,13721,5,4,1:2:0:0:
0,215,14506,5,8,2:2:0:0:
72,285,14665,1,4,1:2:0:0:
255,65,15139,5,8,2:2:0:0:
167,109,15302,1,4,1:2:0:0:
281,272,15769,5,4,1:2:0:0:
281,272,16083,2,0,P|329:297|385:297,2,112,2|2|2,1:2|1:2|1:2,0:0:0:0:
124,280,17025,6,0,P|119:246|113:214,1,56,2|0,1:2|0:0,0:0:0:0:
53,176,17339,2,0,P|48:148|44:120,1,56,2|0,1:2|0:0,0:0:0:0:
88,49,17653,2,0,P|134:34|195:64,1,112,2|2,1:2|1:2,0:0:0:0:
352,70,18296,6,0,P|337:122|341:188,1,112,6|2,1:2|1:2,0:0:0:0:
281,232,18769,1,2,2:2:0:0:
342,289,18927,2,0,P|397:296|452:304,2,112,2|2|0,1:2|1:2|0:0,0:0:0:0:
191,319,19874,1,2,1:2:0:0:
191,319,20032,2,0,P|174:292|174:260,1,56,2|2,2:2|1:2,0:0:0:0:
191,191,20348,2,0,P|186:171|181:156,2,28,10|10|10,2:2|2:2|1:2,0:0:0:0:
270,231,20664,1,8,2:2:0:0:
270,231,20743,1,8,2:2:0:0:
270,231,20822,6,0,B|331:210|331:267|398:254,1,125.999996154785,6|10,1:2|2:2,0:0:0:0:
460,206,21295,1,2,2:2:0:0:
460,206,21453,2,0,P|457:170|449:137,1,62.9999980773926,2|0,1:2|1:1,0:0:0:0:
459,55,21769,1,2,2:2:0:0:
373,95,21927,6,0,P|328:112|246:83,1,125.999996154785,8|0,2:2|1:1,0:0:0:0:
189,33,22400,2,0,L|112:45,1,62.9999980773926,10|10,2:2|2:2,0:0:0:0:
62,103,22716,1,2,1:2:0:0:
62,103,22874,1,2,1:2:0:0:
120,168,23032,2,0,P|127:200|113:236,1,62.9999980773926,10|0,2:2|0:0,0:0:0:0:
45,302,23348,6,0,B|108:292|98:347|182:336,1,125.999996154785,2|10,1:2|2:2,0:0:0:0:
245,367,23822,1,10,2:2:0:0:
245,367,23979,2,0,P|276:367|312:363,1,62.9999980773926,2|0,1:2|1:1,0:0:0:0:
360,292,24295,1,2,2:2:0:0:
446,330,24453,6,0,P|461:298|426:202,1,125.999996154785,8|0,2:2|1:1,0:0:0:0:
386,142,24927,2,0,P|349:148|299:156,1,62.9999980773926,10|2,2:2|2:2,0:0:0:0:
257,211,25243,1,2,1:2:0:0:
257,211,25400,1,0,1:1:0:0:
179,156,25558,2,0,L|192:85,1,62.9999980773926,14|0,2:2|0:0,0:0:0:0:
263,27,25874,5,4,1:2:0:0:
391,117,26188,2,0,P|406:79|372:10,2,112,2|2|2,1:2|1:2|1:2,0:0:0:0:
443,262,27130,2,0,P|404:266|364:271,1,56,2|0,1:2|0:0,0:0:0:0:
335,327,27447,2,0,P|300:322|267:321,1,56,2|0,1:2|0:0,0:0:0:0:
217,264,27765,2,0,P|161:276|89:287,1,112,2|6,1:2|1:2,0:0:0:0:
68,119,28401,6,0,P|122:128|196:142,1,112,6|2,1:2|1:2,0:0:0:0:
243,182,28874,1,2,2:2:0:0:
306,127,29032,2,0,P|296:97|336:24,2,112,2|2|0,1:2|1:2|0:0,0:0:0:0:
368,184,29822,2,0,L|358:222,2,28,8|8|2,0:0|2:2|1:2,0:0:0:0:
441,143,30137,2,0,L|465:198,1,56,10|4,2:2|1:3,0:0:0:0:
510,264,30453,1,4,2:3:0:0:
442,334,30611,1,14,2:2:0:0:
442,334,30927,6,0,P|371:350|298:372,1,125.999996154785,6|10,1:2|2:2,0:0:0:0:
227,339,31399,2,0,P|213:298|226:268,1,62.9999980773926,2|2,2:2|1:2,0:0:0:0:
253,192,31715,2,0,P|261:151|270:128,1,62.9999980773926,0|2,1:1|2:2,0:0:0:0:
223,40,32031,6,0,P|165:10|103:36,1,125.999996154785,8|0,2:2|1:1,0:0:0:0:
28,53,32504,1,10,2:2:0:0:
28,53,32662,2,0,P|37:75|52:122,1,62.9999980773926,2|2,2:2|1:2,0:0:0:0:
134,152,32978,1,2,1:2:0:0:
134,152,33136,2,0,P|125:176|110:223,1,62.9999980773926,10|0,2:2|0:0,0:0:0:0:
56,282,33452,6,0,P|109:252|166:273,1,125.999996154785,2|10,1:2|2:2,0:0:0:0:
230,335,33926,2,0,P|250:260|267:206,1,125.999996154785,2|0,2:2|1:1,0:0:0:0:
227,133,34399,1,10,2:2:0:0:
278,61,34557,6,0,P|310:25|385:30,1,125.999996154785,4|0,1:2|1:1,0:0:0:0:
463,65,35031,1,10,2:2:0:0:
463,65,35189,1,0,1:1:0:0:
390,146,35347,6,0,P|379:114|371:91,2,41.9999987182618,8|8|8,2:3|2:3|2:3,0:0:0:0:
465,193,35662,6,0,P|475:161|484:138,2,41.9999987182618,4|4|4,2:3|2:3|2:3,0:0:0:0:
389,233,35978,5,4,1:2:0:0:
56,384,36610,6,0,P|48:349|39:321,1,56,10|2,2:2|2:2,0:0:0:0:
4,261,36926,2,0,P|54:282|113:264,2,112,10|10|10,2:2|2:2|2:2,0:0:0:0:
106,146,37874,6,0,P|149:156|222:174,1,112,10|10,2:2|2:2,0:0:0:0:
286,137,38357,1,2,1:2:0:0:
286,137,38519,2,0,P|300:85|266:38,2,112,10|10|10,1:2|2:2|2:2,0:0:0:0:
117,114,39463,2,0,L|127:49,1,56,10|0,2:2|0:0,0:0:0:0:
39,148,39778,2,0,P|52:202|67:256,1,112,10|10,2:2|2:2,0:0:0:0:
155,354,40408,6,0,P|180:344|216:335,1,56,10|2,2:2|1:2,0:0:0:0:
285,311,40723,1,10,2:2:0:0:
285,311,40881,1,0,1:1:0:0:
344,375,41038,6,0,P|405:362|468:356,1,125.999996154785,10|10,2:2|2:2,0:0:0:0:
511,278,41511,2,0,P|518:217|473:177,1,125.999996154785,2|0,2:2|0:0,0:0:0:0:
406,119,41983,2,0,P|370:127|331:137,1,62.9999980773926,10|0,2:2|0:0,0:0:0:0:
297,208,42298,6,0,P|236:192|174:177,1,125.999996154785,10|10,2:2|2:2,0:0:0:0:
107,120,42770,2,0,P|156:83|215:97,1,125.999996154785,2|0,2:2|0:0,0:0:0:0:
301,63,43243,2,0,P|290:21|282:-7,1,62.9999980773926,10|0,2:2|1:1,0:0:0:0:
375,117,43549,6,0,P|443:100|512:90,2,140,10|10|10,1:2|2:2|2:2,0:0:0:0:
248,266,44506,2,0,P|285:235|319:240,1,70,10|0,2:2|0:0,0:0:0:0:
305,327,44812,2,0,P|243:314|145:296,1,140,10|8,2:2|2:2,0:0:0:0:
102,368,45278,6,0,P|61:342|81:245,1,140,6|0,1:2|1:1,0:0:0:0:
145,191,45763,1,10,2:2:0:0:
29,30,46066,5,10,2:2:0:0:
123,6,46223,1,2,1:2:0:0:
235,166,46539,6,0,P|162:143|84:130,1,140,6|0,1:2|1:1,0:0:0:0:
9,171,47013,1,10,2:2:0:0:
282,377,47670,5,10,2:2:0:0:
352,301,47831,1,2,1:2:0:0:
98,150,48612,6,0,B|169:142|163:196|243:183,1,140,6|10,1:2|2:2,0:0:0:0:
314,232,49085,1,10,2:2:0:0:
314,232,49164,1,8,2:2:0:0:
314,232,49243,2,0,P|321:196|328:152,1,70,2|2,1:2|1:2,0:0:0:0:
412,101,49559,2,0,P|417:135|424:169,1,70,10|0,2:2|0:0,0:0:0:0:
473,255,49875,5,2,1:2:0:0:
473,255,50033,1,2,1:2:0:0:
400,320,50190,2,0,P|365:328|327:341,1,70,10|10,2:2|2:2,0:0:0:0:
307,331,50427,1,8,2:2:0:0:
307,331,50506,1,2,1:2:0:0:
214,298,50664,1,0,1:1:0:0:
126,359,50822,2,0,P|108:306|76:241,1,105,10|0,2:2|0:0,0:0:0:0:
77,257,51138,5,2,1:2:0:0:
11,183,51296,2,0,P|12:141|25:113,1,70,2|10,2:2|2:2,0:0:0:0:
86,39,51612,1,10,2:2:0:0:
167,103,51769,2,0,P|205:108|239:98,1,70,2|0,1:2|1:1,0:0:0:0:
305,30,52085,1,10,2:2:0:0:
305,30,52243,1,2,2:2:0:0:
396,64,52401,6,0,P|395:103|401:140,1,70,2|0,1:2|0:0,0:0:0:0:
474,197,52717,2,0,P|468:232|457:280,1,70,10|0,2:2|1:1,0:0:0:0:
499,362,53033,1,10,2:2:0:0:
499,362,53190,1,0,1:1:0:0:
393,361,53348,2,0,P|340:372|281:381,1,105,12|0,2:2|0:0,0:0:0:0:
278,377,53664,6,0,P|240:376|208:357,1,70,6|0,1:2|0:0,0:0:0:0:
116,317,53980,2,0,L|132:243,1,70,10|8,2:2|0:0,0:0:0:0:
129,241,54217,1,8,2:2:0:0:
126,232,54296,1,2,1:2:0:0:
210,182,54454,1,2,1:2:0:0:
281,249,54612,2,0,P|332:258|354:245,1,70,10|2,2:2|2:2,0:0:0:0:
421,183,54927,6,0,P|415:148|409:114,1,70,2|2,1:2|1:2,0:0:0:0:
336,47,55243,1,10,2:2:0:0:
336,47,55401,1,10,2:2:0:0:
243,97,55559,2,0,P|202:67|105:71,1,140,2|10,1:2|2:2,0:0:0:0:
60,254,56190,6,0,P|57:289|46:325,1,70,2|0,1:2|0:0,0:0:0:0:
139,357,56506,2,0,P|171:367|217:368,1,70,10|8,2:2|0:0,0:0:0:0:
292,316,56822,1,2,1:2:0:0:
292,316,56980,1,2,1:2:0:0:
389,324,57138,2,0,P|398:285|383:253,1,70,10|2,2:2|2:2,0:0:0:0:
360,163,57454,1,10,1:2:0:0:
267,195,57612,5,10,2:2:0:0:
267,195,57690,1,8,2:2:0:0:
267,195,57769,2,0,L|222:203,3,35,10|8|10|8,1:2|2:2|2:2|2:2,0:0:0:0:
219,208,58085,2,0,L|184:201,3,35,10|8|8|8,1:2|2:2|2:2|2:2,0:0:0:0:
167,193,58401,2,0,L|132:199,3,35,8|8|8|8,1:2|2:2|2:2|2:2,0:0:0:0:
119,208,58717,6,0,P|95:127|76:69,1,140,6|14,1:2|2:2,0:0:0:0:
176,41,59190,2,0,P|207:63|243:63,1,70,2|2,2:2|1:2,0:0:0:0:
330,9,59506,1,2,1:2:0:0:
412,74,59664,2,0,P|397:118|391:143,1,70,10|8,2:2|0:2,0:0:0:0:
384,148,59901,1,8,2:2:0:0:
379,156,59980,1,2,1:2:0:0:
304,217,60138,5,2,1:2:0:0:
353,301,60296,2,0,P|383:317|417:313,1,70,10|2,2:2|2:2,0:0:0:0:
510,273,60612,2,0,P|495:222|487:192,1,70,2|0,1:2|1:1,0:0:0:0:
432,118,60927,2,0,P|447:67|455:37,1,70,10|8,2:2|0:0,0:0:0:0:
355,6,61243,5,2,1:2:0:0:
281,80,61401,2,0,P|256:58|221:53,1,70,2|10,2:2|2:2,0:0:0:0:
126,101,61717,1,10,2:2:0:0:
180,191,61875,2,0,P|209:178|258:166,1,70,2|0,1:2|1:1,0:0:0:0:
329,231,62190,1,10,2:2:0:0:
329,231,62348,1,2,2:2:0:0:
269,317,62506,6,0,P|230:303|199:295,1,70,2|0,1:2|1:1,0:0:0:0:
113,352,62822,2,0,P|80:371|46:373,1,70,8|0,2:2|1:1,0:0:0:0:
3,278,63138,1,6,2:2:0:0:
3,278,63296,1,0,1:1:0:0:
39,179,63454,2,0,P|81:191|140:209,1,105,12|0,2:2|0:0,0:0:0:0:
154,213,63769,6,0,P|192:212|224:193,1,70,6|0,1:2|0:0,0:0:0:0:
284,122,64085,1,10,2:2:0:0:
225,34,64243,1,8,0:2:0:0:
225,34,64322,1,8,2:2:0:0:
225,34,64401,2,0,P|189:31|159:47,1,70,2|2,1:2|1:2,0:0:0:0:
75,88,64717,1,10,2:2:0:0:
75,88,64874,1,2,2:2:0:0:
121,181,65032,6,0,P|155:174|189:169,1,70,2|2,1:2|1:2,0:0:0:0:
276,239,65348,1,10,2:2:0:0:
276,239,65506,1,10,2:2:0:0:
352,166,65664,2,0,P|408:128|473:146,1,140,2|10,1:2|2:2,0:0:0:0:
454,341,66295,6,0,P|423:326|384:315,1,70,2|0,1:2|0:0,0:0:0:0:
310,376,66612,2,0,P|289:348|287:313,1,70,10|8,2:2|0:2,0:0:0:0:
299,220,66927,1,2,1:2:0:0:
299,220,67085,1,2,1:2:0:0:
222,158,67243,2,0,P|194:169|151:189,1,70,10|2,2:2|1:2,0:0:0:0:
77,243,67559,6,0,P|55:211|58:177,1,70,10|2,2:2|2:2,0:0:0:0:
101,94,67874,2,0,P|95:62|93:49,3,35,10|8|10|8,1:2|2:2|2:2|2:2,0:0:0:0:
112,20,68190,2,0,P|130:25|158:32,3,35,10|8|8|8,1:2|2:2|2:2|2:2,0:0:0:0:
188,34,68506,2,0,P|204:29|221:24,3,35,8|8|8|8,1:2|2:2|2:2|2:2,0:0:0:0:
236,16,68822,6,0,P|263:25|301:32,1,62.9999980773926,4|0,1:2|0:0,0:0:0:0:
366,86,69138,2,0,P|406:100|444:197,1,125.999996154785,10|2,2:2|1:2,0:0:0:0:
409,252,69612,1,0,0:0:0:0:
409,252,69769,2,0,L|486:272,1,62.9999980773926,10|0,2:2|0:0,0:0:0:0:
361,324,70085,6,0,P|299:334|230:356,1,125.999996154785,2|10,1:2|2:2,0:0:0:0:
156,319,70559,2,0,P|119:323|30:259,1,125.999996154785,2|0,2:2|0:0,0:0:0:0:
82,202,71033,2,0,P|85:169|74:137,1,62.9999980773926,10|0,2:2|0:0,0:0:0:0:
48,50,71348,6,0,B|107:34|113:86|172:78,1,125.999996154785,6|10,1:2|2:2,0:0:0:0:
252,48,71822,1,2,2:2:0:0:
252,48,71980,2,0,P|261:81|253:122,1,62.9999980773926,6|0,1:2|0:0,0:0:0:0:
204,180,72296,2,0,P|211:212|214:263,1,62.9999980773926,10|2,2:2|2:2,0:0:0:0:
276,304,72612,6,0,P|340:318|398:333,1,125.999996154785,6|10,1:2|2:2,0:0:0:0:
483,293,73084,1,2,2:2:0:0:
416,225,73243,1,2,1:2:0:0:
416,225,73401,1,2,2:2:0:0:
482,158,73559,2,0,L|488:93,1,62.9999980773926,10|0,2:2|0:0,0:0:0:0:
416,42,73875,6,0,P|371:31|349:40,1,62.9999980773926,4|0,1:2|0:0,0:0:0:0:
284,86,74190,2,0,B|290:131|290:131|317:162|317:162|328:224,1,125.999996154785,10|2,2:2|1:2,0:0:0:0:
295,284,74664,1,0,0:0:0:0:
295,284,74822,2,0,P|325:287|361:297,1,62.9999980773926,10|0,2:2|0:0,0:0:0:0:
245,352,75138,6,0,P|214:355|113:382,1,125.999996154785,2|10,1:2|2:2,0:0:0:0:
57,317,75612,2,0,P|32:280|56:197,1,125.999996154785,2|0,2:2|0:0,0:0:0:0:
96,130,76085,2,0,L|163:143,1,62.9999980773926,10|0,2:2|0:0,0:0:0:0:
231,202,76401,6,0,B|275:194|275:194|305:166|305:166|368:157,1,125.999996154785,6|10,1:2|2:2,0:0:0:0:
420,114,76875,1,0,0:0:0:0:
420,114,77033,2,0,P|440:141|445:177,1,62.9999980773926,6|0,1:2|0:0,0:0:0:0:
397,243,77348,2,0,L|414:313,1,62.9999980773926,10|2,2:2|2:2,0:0:0:0:
338,354,77664,5,8,2:2:0:0:
338,354,77743,1,8,2:2:0:0:
338,354,77822,1,2,1:2:0:0:
265,290,77980,2,0,L|195:303,1,62.9999980773926,10|2,2:2|1:2,0:0:0:0:
117,343,78296,2,0,L|100:284,3,31.4999990386963,10|8|8|8,2:2|2:3|2:3|2:3,0:0:0:0:
94,300,78612,2,0,L|111:241,3,31.4999990386963,4|4|4|4,2:3|2:3|2:3|2:3,0:0:0:0:
110,243,78927,6,0,P|46:253|-5:192,2,140,6|12|2,1:2|2:2|1:2,0:0:0:0:
187,182,79712,1,0,1:1:0:0:
187,182,79869,1,10,2:2:0:0:
135,90,80026,6,0,P|66:109|-10:129,1,140,0|0,1:1|1:1,0:0:0:0:
15,29,80498,2,0,P|51:8|96:8,1,70,10|8,2:2|0:2,0:0:0:0:
177,9,80814,2,0,P|203:18|246:33,1,70,2|0,1:2|1:1,0:0:0:0:
313,101,81130,2,0,P|341:79|343:43,1,70,10|0,2:2|0:0,0:0:0:0:
229,130,81446,6,0,P|246:184|268:276,1,140,4|10,1:2|2:2,0:0:0:0:
390,376,82071,1,2,1:2:0:0:
390,376,82227,2,0,P|405:327|411:305,1,70,0|10,1:1|2:2,0:0:0:0:
382,213,82538,6,0,P|427:173|507:183,1,140,4|0,1:2|1:1,0:0:0:0:
509,284,83016,1,10,2:2:0:0:
409,308,83175,2,0,P|373:295|334:283,1,70,8|2,0:2|1:2,0:0:0:0:
270,351,83494,2,0,P|241:370|152:320,1,140,0|2,1:1|0:0,0:0:0:0:
227,248,83973,6,0,P|294:232|378:214,1,140,4|10,1:2|2:2,0:0:0:0:
441,156,84446,2,0,P|456:125|437:87,1,70,0|2,0:0|1:2,0:0:0:0:
385,14,84762,2,0,P|350:22|305:32,1,70,0|10,1:1|2:2,0:0:0:0:
237,85,85081,1,0,0:0:0:0:
157,25,85242,6,0,P|140:20|124:13,3,35,8|8|8|8,1:2|2:2|2:2|2:2,0:0:0:0:
96,15,85558,2,0,P|79:20|63:26,3,35,8|8|8|8,1:2|2:2|2:2|2:2,0:0:0:0:
51,39,85873,2,0,P|58:56|63:73,3,35,8|8|8|8,1:2|2:2|2:2|2:2,0:0:0:0:
76,86,86189,2,0,P|69:103|64:120,3,35,8|8|8|8,1:2|2:2|2:2|2:2,0:0:0:0:
37,135,86505,5,6,1:2:0:0:
19,384,87758,5,10,2:2:0:0:
97,329,87915,2,0,B|165:333|153:370|226:376,1,140,6|2,1:2|2:2,0:0:0:0:
291,302,88398,1,10,1:2:0:0:
214,240,88556,1,10,2:2:0:0:
214,240,88635,1,8,2:2:0:0:
214,240,88714,2,0,P|226:182|233:159,1,70,10|8,1:2|2:2,0:0:0:0:
239,158,88951,1,8,2:2:0:0:
