osu file format v14

[General]
AudioFilename: audio.ogg
AudioLeadIn: 0
PreviewTime: 45914
Countdown: 0
SampleSet: Soft
StackLeniency: 0.4
Mode: 0
LetterboxInBreaks: 0
WidescreenStoryboard: 1

[Editor]
DistanceSpacing: 1
BeatDivisor: 4
GridSize: 32
TimelineZoom: 2.200003

[Metadata]
Title:grayscale dominator (TV Size)
TitleUnicode:grayscale dominator (TV Size)
Artist:OxT
ArtistUnicode:OxT
Creator:AsuKow
Version:Amats' Normal
Source:陰の実力者になりたくて! 2nd season
Tags:Amats Shayks eringiRa NakaroniX that_blazord blazord japanese rock j-rock jrock anime opening op male vocals vocalist the eminence in shadow 2nd season kage no jitsuryokusha ni naritakute! to be a power in the shadows! Kadokawa Pony Canyon
BeatmapID:4470218
BeatmapSetID:2126479

[Difficulty]
HPDrainRate:3
CircleSize:3
OverallDifficulty:4
ApproachRate:5
SliderMultiplier:0.999999999999999
SliderTickRate:1

[Events]
//Background and Video events
0,0,"114549888_p0.jpg",0,0
Video,0,"video.avi"
//Break Periods
2,36178,42196
//Storyboard Layer 0 (Background)
//Storyboard Layer 1 (Fail)
//Storyboard Layer 2 (Pass)
//Storyboard Layer 3 (Foreground)
//Storyboard Layer 4 (Overlay)
//Storyboard Sound Samples

[TimingPoints]
612,315.789473684211,4,2,1,70,1,0
1164,-100,4,2,2,70,0,0
1243,-100,4,2,1,70,0,0
1796,-100,4,2,2,70,0,0
1875,-100,4,2,1,70,0,0
2427,-100,4,2,2,70,0,0
2506,-100,4,2,1,70,0,0
3059,-100,4,2,2,70,0,0
3138,-100,4,2,1,70,0,0
3690,-100,4,2,2,70,0,0
3769,-100,4,2,1,70,0,0
4085,-100,4,2,3,70,0,0
4322,-100,4,2,3,5,0,0
4401,-100,4,2,3,50,0,0
4717,-100,4,2,3,55,0,0
5033,-100,4,2,3,60,0,0
5348,-100,4,2,3,65,0,0
5664,-100,4,2,1,65,0,0
5980,-100,4,2,2,40,0,0
6296,-100,4,2,1,40,0,0
6454,-100,4,2,2,40,0,0
6927,-100,4,2,5,40,0,0
6942,314.13612565445,4,2,5,40,1,0
6942,-100,4,2,5,40,0,0
7256,-100,4,2,4,40,0,0
7413,-100,4,2,3,40,0,0
7570,-100,4,2,3,40,0,0
7727,-100,4,2,2,40,0,0
7884,-100,4,2,4,40,0,0
8041,-100,4,2,2,40,0,0
8198,-100,4,2,3,50,0,0
8748,-100,4,2,5,50,0,0
9140,-100,4,2,3,50,0,0
10004,-100,4,2,5,50,0,0
10397,-100,4,2,6,50,0,0
10633,-100,4,2,6,5,0,0
10711,319.148936170213,4,2,1,40,1,0
11030,-100,4,2,2,40,0,0
11349,-100,4,2,1,40,0,0
11508,-100,4,2,2,40,0,0
11987,315.789473684211,4,2,5,40,1,0
12302,-100,4,2,4,40,0,0
12461,-100,4,2,3,40,0,0
12934,-100,4,2,4,40,0,0
13250,314.13612565445,4,2,1,60,1,0
13328,-100,4,2,1,5,0,0
13407,-100,4,2,2,60,0,0
13721,-100,4,2,4,60,0,0
14506,319.148936170213,4,2,1,60,1,0
14585,-100,4,2,1,5,0,0
14665,-100,4,2,2,60,0,0
15139,326.086956521739,4,2,1,60,1,0
15220,-100,4,2,1,5,0,0
15302,-100,4,2,2,60,0,0
15769,314.13612565445,4,2,1,50,1,0
16083,-100,4,2,7,50,0,0
16397,-100,4,2,8,50,0,0
16711,-100,4,2,7,50,0,0
18296,315.789473684211,4,2,5,50,1,0
18611,-100,4,2,7,50,0,0
18769,-100,4,2,3,50,0,0
18927,-100,4,2,8,50,0,0
19085,-100,4,2,3,50,0,0
19401,-100,4,2,1,50,0,0
19874,-100,4,2,6,50,0,0
20032,-100,4,2,3,50,0,0
20190,-100,4,2,1,50,0,0
20348,-100,4,2,9,50,0,0
20822,-100,4,2,9,60,0,0
21137,-100,4,2,1,60,0,0
21295,-100,4,2,3,60,0,0
21453,-100,4,2,1,60,0,0
22400,-100,4,2,6,60,0,0
22558,-100,4,2,5,60,0,0
22716,-100,4,2,1,60,0,0
22874,-100,4,2,3,60,0,0
23032,-100,4,2,6,60,0,0
23269,-100,4,2,6,5,0,0
23348,-100,4,2,6,60,0,0
23664,-100,4,2,1,60,0,0
23822,-100,4,2,5,60,0,0
23979,-100,4,2,1,60,0,0
24927,-100,4,2,6,60,0,0
25085,-100,4,2,3,60,0,0
25243,-100,4,2,1,60,0,0
25558,-100,4,2,9,60,0,0
25795,-100,4,2,9,5,0,0
25874,314.13612565445,4,2,3,50,1,0
26188,-100,4,2,7,50,0,0
26502,-100,4,2,8,50,0,0
26816,-100,4,2,7,50,0,0
27130,317.965023847377,4,2,7,50,1,8
28083,-100,4,2,3,50,0,8
28401,315.789473684211,4,2,9,50,1,0
28716,-100,4,2,7,50,0,0
28874,-100,4,2,3,50,0,0
29032,-100,4,2,1,50,0,0
29506,-100,4,2,1,50,0,0
29979,-100,4,2,5,50,0,0
30216,-100,4,2,1,50,0,0
30453,-100,4,2,2,50,0,0
30611,-100,4,2,9,50,0,0
30848,-100,4,2,9,5,0,0
30926,315.789473684211,4,2,3,60,1,0
31241,-100,4,2,1,60,0,0
31399,-100,4,2,5,60,0,0
31557,-100,4,2,1,60,0,0
32268,-100,4,2,1,5,0,0
32347,-100,4,2,1,60,0,0
32504,-100,4,2,6,60,0,0
32662,-100,4,2,5,60,0,0
32820,-100,4,2,1,60,0,0
32978,-100,4,2,3,60,0,0
33136,-100,4,2,6,60,0,0
33294,-100,4,2,6,60,0,0
33452,-100,4,2,6,60,0,0
33768,-100,4,2,1,60,0,0
33926,-100,4,2,5,60,0,0
34083,-100,4,2,1,60,0,0
35031,-100,4,2,6,60,0,0
35347,-100,4,2,1,60,0,0
35557,-100,4,2,2,60,0,0
35662,-100,4,2,1,60,0,0
35768,-100,4,2,1,60,0,0
35873,-100,4,2,2,60,0,0
35978,-100,4,2,1,40,0,0
36294,-100,4,2,8,40,0,0
36610,-100,4,2,7,40,0,0
36768,-100,4,2,3,40,0,0
36926,-100,4,2,7,40,0,0
37557,-100,4,2,8,40,0,0
37874,322.58064516129,4,2,7,40,1,0
38357,-100,4,2,3,40,0,0
38519,314.96062992126,4,2,7,40,1,0
38833,-100,4,2,8,40,0,0
40408,-100,4,2,7,40,0,0
40566,-100,4,2,3,40,0,0
40723,-100,4,2,7,40,0,0
41038,-100,4,2,12,40,0,0
41353,-100,4,2,8,40,0,0
41511,-100,4,2,3,40,0,0
41668,-100,4,2,8,40,0,0
41983,-100,4,2,7,40,0,0
42613,-100,4,2,8,40,0,0
42770,-100,4,2,3,40,0,0
42928,-100,4,2,8,40,0,0
43243,306.122448979592,4,2,7,40,1,8
43549,319.148936170213,4,2,7,50,1,0
44812,310.880829015544,4,2,7,50,1,0
45045,-100,4,2,7,5,0,0
45122,-100,4,2,9,50,0,0
45278,323.450134770889,4,2,9,50,1,8
45520,-100,4,2,9,5,0,8
45601,-100,4,2,9,50,0,8
45763,303.030303030303,4,2,1,50,1,8
45987,-100,4,2,1,50,0,8
45990,-100,4,2,1,5,0,8
46066,315.789473684211,4,2,3,50,1,0
46144,-100,4,2,3,5,0,0
46223,-100,4,2,13,50,0,0
46539,-100,4,2,9,50,0,0
47670,322.58064516129,4,2,9,50,1,0
47750,-100,4,2,9,5,0,0
47831,-100,4,2,14,50,0,0
47992,-100,4,2,9,50,0,0
48612,315.789473684211,4,2,9,80,1,1
48769,-100,4,2,9,80,0,1
48848,-100,4,2,9,5,0,1
48927,-100,4,2,6,80,0,1
49085,-100,4,2,5,80,0,1
49243,-100,4,2,1,80,0,1
49401,-100,4,2,3,80,0,1
49559,-100,4,2,6,80,0,1
49796,-100,4,2,6,5,0,1
49875,-100,4,2,6,80,0,1
50033,-100,4,2,3,80,0,1
50190,-100,4,2,6,80,0,1
50348,-100,4,2,5,80,0,1
50506,-100,4,2,1,80,0,1
51138,-100,4,2,6,80,0,1
51296,-100,4,2,3,80,0,1
51454,-100,4,2,1,80,0,1
51611,-100,4,2,5,80,0,1
51769,-100,4,2,6,80,0,1
52243,-100,4,2,3,80,0,1
52401,-100,4,2,6,80,0,1
52638,-100,4,2,6,5,0,1
52717,-100,4,2,1,80,0,1
53033,-100,4,2,6,80,0,1
53348,-100,4,2,3,80,0,1
53585,-100,4,2,3,5,0,1
53664,-100,4,2,9,80,0,1
53901,-100,4,2,9,5,0,1
53980,-100,4,2,6,80,0,1
54217,-100,4,2,2,80,0,1
54296,-100,4,2,6,80,0,1
54454,-100,4,2,3,80,0,1
54611,-100,4,2,6,80,0,1
54769,-100,4,2,3,80,0,1
54927,-100,4,2,1,80,0,1
55085,-100,4,2,3,80,0,1
55243,-100,4,2,6,80,0,1
55401,-100,4,2,5,80,0,1
55559,-100,4,2,6,80,0,1
55875,-100,4,2,1,80,0,1
56111,-100,4,2,1,5,0,1
56190,-100,4,2,6,80,0,1
56427,-100,4,2,6,5,0,1
56506,-100,4,2,6,80,0,1
56743,-100,4,2,2,80,0,1
56822,-100,4,2,6,80,0,1
56980,-100,4,2,3,80,0,1
57138,-100,4,2,6,80,0,1
57296,-100,4,2,3,80,0,1
57454,-100,4,2,1,80,0,1
57611,-100,4,2,9,80,0,1
58954,-100,4,2,9,5,0,1
59033,-100,4,2,3,80,0,1
59269,-100,4,2,2,80,0,1
59348,-100,4,2,1,80,0,1
59506,-100,4,2,3,80,0,1
59664,-100,4,2,6,80,0,1
59901,-100,4,2,2,80,0,1
59980,-100,4,2,6,80,0,1
60138,-100,4,2,3,80,0,1
60296,-100,4,2,6,80,0,1
60454,-100,4,2,5,80,0,1
60611,-100,4,2,1,80,0,1
61243,-100,4,2,6,80,0,1
61401,-100,4,2,3,80,0,1
61559,-100,4,2,1,80,0,1
61717,-100,4,2,5,80,0,1
61875,-100,4,2,6,80,0,1
62348,-100,4,2,3,80,0,1
62506,-100,4,2,6,80,0,1
63138,-100,4,2,10,80,0,1
63296,-100,4,2,3,80,0,1
63690,-100,4,2,3,5,0,1
63769,-100,4,2,9,80,0,1
64006,-100,4,2,9,5,0,1
64085,-100,4,2,6,80,0,1
64322,-100,4,2,2,80,0,1
64401,-100,4,2,6,80,0,1
64559,-100,4,2,3,80,0,1
64717,-100,4,2,6,80,0,1
64875,-100,4,2,3,80,0,1
65033,-100,4,2,1,80,0,1
65190,-100,4,2,3,80,0,1
65348,-100,4,2,6,80,0,1
65506,-100,4,2,5,80,0,1
65664,-100,4,2,6,80,0,1
65980,-100,4,2,1,80,0,1
66217,-100,4,2,2,80,0,1
66296,-100,4,2,6,80,0,1
66848,-100,4,2,2,80,0,1
66927,-100,4,2,6,80,0,1
67085,-100,4,2,3,80,0,1
67243,-100,4,2,6,80,0,1
67401,-100,4,2,3,80,0,1
67559,-100,4,2,6,80,0,1
67717,-100,4,2,9,80,0,1
68822,-100,4,2,9,80,0,0
69059,-100,4,2,9,5,0,0
69138,-100,4,2,15,80,0,0
69454,-100,4,2,15,80,0,0
69690,-100,4,2,15,5,0,0
69769,-100,4,2,15,80,0,0
70401,-100,4,2,15,80,0,0
70559,-100,4,2,3,80,0,0
70717,-100,4,2,15,80,0,0
71269,-100,4,2,15,5,0,0
71348,-100,4,2,3,80,0,0
71585,-100,4,2,3,5,0,0
71664,-100,4,2,15,80,0,0
71822,-100,4,2,9,80,0,0
72217,-100,4,2,9,5,0,0
72296,-100,4,2,15,80,0,0
72454,-100,4,2,3,80,0,0
72927,-100,4,2,15,80,0,0
73085,-100,4,2,3,80,0,0
73243,-100,4,2,15,80,0,0
73401,-100,4,2,3,80,0,0
73559,-100,4,2,15,80,0,0
73796,-100,4,2,14,5,0,0
73875,-100,4,2,1,80,0,0
74190,-100,4,2,15,80,0,0
74506,-100,4,2,15,80,0,0
74822,-100,4,2,15,80,0,0
75059,-100,4,2,14,5,0,0
75138,-100,4,2,15,80,0,0
75454,-100,4,2,15,80,0,0
75611,-100,4,2,3,80,0,0
75769,-100,4,2,15,80,0,0
76401,-100,4,2,3,80,0,0
76638,-100,4,2,3,5,0,0
76717,-100,4,2,15,80,0,0
77033,-100,4,2,9,80,0,0
77269,-100,4,2,9,5,0,0
77348,-100,4,2,15,80,0,0
77506,-100,4,2,3,80,0,0
78375,-100,4,2,1,80,0,0
78454,-100,4,2,2,80,0,0
78611,-100,4,2,1,80,0,0
78690,-100,4,2,2,80,0,0
78927,314.13612565445,4,2,9,70,1,0
79241,-100,4,2,3,70,0,0
79555,-100,4,2,6,70,0,0
79869,-100,4,2,1,70,0,0
80183,315.789473684211,4,2,1,70,1,0
80735,-100,4,2,2,70,0,0
80814,-100,4,2,1,70,0,0
81683,-100,4,2,1,5,0,0
81761,310.880829015544,4,2,1,70,1,0
82538,319.148936170213,4,2,3,70,1,8
82697,319.148936170213,4,2,3,70,1,0
83016,-100,4,2,1,70,0,0
83255,-100,4,2,2,70,0,0
83335,-100,4,2,1,70,0,0
83973,315.789473684211,4,2,1,70,1,0
84920,322.58064516129,4,2,1,70,1,0
85242,315.789473684211,4,2,1,50,1,0
85557,-100,4,2,1,55,0,0
85873,-100,4,2,1,60,0,0
86189,-100,4,2,1,65,0,0
86505,-100,4,2,16,70,0,0
86822,-100,4,2,3,70,0,0
87758,315.789473684211,4,2,3,70,1,0
87915,322.58064516129,4,2,5,70,1,8
88399,315.789473684211,4,2,5,70,1,8
88556,-100,4,2,3,70,0,8

[Colours]
Combo1 : 255,253,168
Combo2 : 160,201,241
Combo3 : 175,128,240

[HitObjects]
49,237,612,6,0,P|73:232|98:228,1,50,4|0,1:2|1:1,0:0:0:0:
144,246,927,2,0,P|164:290|155:339,2,99.9999999999999,10|2|10,2:2|1:2|2:2,0:0:0:0:
190,159,1875,1,2,1:2:0:0:
190,159,2033,2,0,P|239:167|288:176,1,99.9999999999999,0|8,1:1|0:2,0:0:0:0:
328,207,2506,1,2,1:2:0:0:
389,127,2822,1,10,2:2:0:0:
478,172,3138,6,0,P|498:216|489:265,2,99.9999999999999,2|10|2,1:2|2:2|1:2,0:0:0:0:
389,127,4085,1,12,2:2:0:0:
328,207,4401,2,0,P|278:198|229:189,1,99.9999999999999,8|8,1:2|1:2,0:0:0:0:
194,224,4875,1,8,2:2:0:0:
194,224,5033,1,8,1:2:0:0:
109,170,5348,2,0,P|104:145|100:120,1,50,8|8,1:2|2:2,0:0:0:0:
90,71,5664,6,0,P|139:62|188:53,1,99.9999999999999,4|2,1:2|2:2,0:0:0:0:
268,113,6296,2,0,P|350:98|433:85,1,150,8|8,2:2|2:2,0:0:0:0:
469,100,6942,2,0,P|489:55|480:6,2,99.9999999999999,0|2|8,1:2|1:2|2:2,0:0:0:0:
301,203,8198,6,0,P|257:183|208:192,1,99.9999999999999,6|10,1:2|2:2,0:0:0:0:
171,225,8669,1,2,2:2:0:0:
171,225,8826,1,2,1:2:0:0:
97,157,9140,1,10,2:2:0:0:
14,214,9455,2,0,P|23:263|31:312,1,99.9999999999999,2|8,1:2|2:2,0:0:0:0:
109,376,10083,2,0,P|134:371|159:367,1,50,2|2,1:2|1:2,0:0:0:0:
195,333,10397,1,10,2:2:0:0:
289,358,10711,6,0,P|309:314|300:265,1,99.9999999999999,4|2,1:2|2:2,0:0:0:0:
256,192,11349,2,0,P|326:153|403:186,1,150,8|8,2:2|2:2,0:0:0:0:
423,200,11987,2,0,P|413:249|405:298,2,99.9999999999999,2|2|8,1:2|1:2|2:2,0:0:0:0:
303,45,13250,5,8,2:2:0:0:
303,45,13407,2,0,P|278:50|253:54,1,50,4|0,1:2|0:0,0:0:0:0:
207,34,13721,1,4,1:2:0:0:
7,176,14506,1,8,2:2:0:0:
7,176,14665,1,4,1:2:0:0:
104,291,15139,1,8,2:2:0:0:
104,291,15302,1,4,1:2:0:0:
252,268,15769,6,0,P|242:317|234:366,2,99.9999999999999,4|2|2,1:2|1:2|1:2,0:0:0:0:
207,178,16711,1,2,1:2:0:0:
264,96,17025,2,0,P|312:86|357:106,1,99.9999999999999,2|2,1:2|1:2,0:0:0:0:
455,87,17653,2,0,P|475:131|465:180,1,99.9999999999999,2|2,1:2|1:2,0:0:0:0:
427,277,18296,6,0,P|377:268|328:259,1,99.9999999999999,6|2,1:2|1:2,0:0:0:0:
305,214,18769,2,0,P|255:223|206:232,1,99.9999999999999,2|2,2:2|0:0,0:0:0:0:
176,272,19243,1,2,1:2:0:0:
76,264,19559,2,0,P|55:219|65:170,1,99.9999999999999,0|2,0:0|1:2,0:0:0:0:
89,127,20032,1,2,2:2:0:0:
192,112,20348,1,10,2:2:0:0:
192,112,20506,2,0,P|216:115|241:120,1,50,10|8,1:2|2:2,0:0:0:0:
274,159,20822,6,0,P|323:150|372:141,1,99.9999999999999,6|10,1:2|2:2,0:0:0:0:
417,162,21295,2,0,P|437:117|427:68,1,99.9999999999999,2|0,2:2|1:1,0:0:0:0:
344,12,21927,2,0,P|294:21|245:29,1,99.9999999999999,8|0,2:2|1:1,0:0:0:0:
213,68,22400,1,10,2:2:0:0:
213,68,22558,1,10,2:2:0:0:
132,19,22874,1,2,1:2:0:0:
132,19,23032,1,10,2:2:0:0:
44,68,23348,6,0,P|23:112|33:161,1,99.9999999999999,2|10,1:2|2:2,0:0:0:0:
80,175,23822,2,0,P|101:219|91:268,1,99.9999999999999,10|0,2:2|1:1,0:0:0:0:
146,351,24453,2,0,P|195:342|244:334,1,99.9999999999999,8|0,2:2|1:1,0:0:0:0:
266,288,24927,2,0,P|315:296|364:304,1,99.9999999999999,10|2,2:2|1:2,0:0:0:0:
444,364,25558,1,14,2:2:0:0:
511,289,25874,5,4,1:2:0:0:
435,224,26188,2,0,P|414:180|424:131,1,99.9999999999999,2|2,1:2|1:2,0:0:0:0:
487,54,26816,1,2,1:2:0:0:
395,17,27130,2,0,P|346:26|297:35,2,99.9999999999999,2|2|2,1:2|1:2|1:2,0:0:0:0:
487,54,28083,1,6,1:2:0:0:
415,118,28401,6,0,P|405:166|426:210,1,99.9999999999999,6|2,1:2|1:2,0:0:0:0:
476,216,28874,2,0,P|496:259|486:308,1,99.9999999999999,2|0,2:2|0:0,0:0:0:0:
388,329,29506,2,0,P|338:319|289:312,1,99.9999999999999,0|8,0:0|0:0,0:0:0:0:
253,286,29979,1,2,1:2:0:0:
253,286,30137,2,0,P|262:236|269:187,1,99.9999999999999,10|4,2:2|2:3,0:0:0:0:
302,149,30611,1,14,2:2:0:0:
367,73,30927,6,0,P|413:56|460:70,1,99.9999999999999,6|10,1:2|2:2,0:0:0:0:
492,108,31399,1,2,2:2:0:0:
452,200,31715,1,0,1:1:0:0:
357,166,32031,2,0,P|307:175|258:182,1,99.9999999999999,8|0,2:2|1:1,0:0:0:0:
215,170,32504,1,10,2:2:0:0:
215,170,32662,2,0,P|194:125|203:77,1,99.9999999999999,10|2,2:2|1:2,0:0:0:0:
238,40,33136,1,10,2:2:0:0:
143,6,33452,6,0,P|93:15|44:23,1,99.9999999999999,2|10,1:2|2:2,0:0:0:0:
7,56,33926,1,2,2:2:0:0:
7,56,34083,2,0,P|16:105|25:154,1,99.9999999999999,2|10,1:2|2:2,0:0:0:0:
61,188,34557,1,4,1:2:0:0:
122,274,34873,1,0,1:1:0:0:
122,274,35031,2,0,B|159:267|159:267|183:278|183:278|226:270,2,99.9999999999999,10|8|4,2:2|2:3|2:3,0:0:0:0:
37,327,35978,5,4,1:2:0:0:
120,93,43396,5,0,1:1:0:0:
120,93,43549,2,0,P|71:102|22:111,2,99.9999999999999,10|10|10,1:2|2:2|2:2,0:0:0:0:
196,28,44506,1,10,2:2:0:0:
278,81,44812,2,0,P|274:106|270:131,1,50,10|0,2:2|0:0,0:0:0:0:
252,179,45122,1,8,2:2:0:0:
252,179,45278,2,0,P|207:200|158:190,1,99.9999999999999,6|0,1:2|1:1,0:0:0:0:
123,150,45763,1,10,2:2:0:0:
40,195,46066,5,10,2:2:0:0:
40,195,46223,2,0,P|44:220|48:245,1,50,2|0,1:2|0:0,0:0:0:0:
58,293,46539,2,0,P|107:301|156:310,1,99.9999999999999,6|0,1:2|1:1,0:0:0:0:
202,290,47013,1,10,2:2:0:0:
389,373,47670,1,10,2:2:0:0:
389,373,47831,1,2,1:2:0:0:
507,156,48612,6,0,P|497:106|489:57,1,99.9999999999999,6|10,1:2|2:2,0:0:0:0:
451,24,49085,2,0,P|402:14|358:35,1,99.9999999999999,10|2,2:2|1:2,0:0:0:0:
332,78,49559,1,10,2:2:0:0:
250,20,49875,2,0,P|225:24|200:28,1,50,2|2,1:2|1:2,0:0:0:0:
162,58,50190,1,10,2:2:0:0:
162,58,50348,2,0,P|170:107|179:156,1,99.9999999999999,10|0,2:2|1:1,0:0:0:0:
202,201,50822,1,10,2:2:0:0:
294,158,51138,5,2,1:2:0:0:
294,158,51296,2,0,P|343:167|392:175,1,99.9999999999999,2|10,2:2|2:2,0:0:0:0:
434,148,51769,1,2,1:2:0:0:
500,223,52085,2,0,P|496:248|492:273,1,50,10|2,2:2|2:2,0:0:0:0:
484,322,52401,2,0,P|438:339|390:327,1,99.9999999999999,2|10,1:2|2:2,0:0:0:0:
357,297,52875,1,0,1:1:0:0:
357,297,53033,2,0,P|332:301|307:305,1,50,10|0,2:2|1:1,0:0:0:0:
267,334,53348,1,12,2:2:0:0:
186,274,53664,6,0,P|195:224|203:175,1,99.9999999999999,6|10,1:2|2:2,0:0:0:0:
168,81,54296,2,0,P|120:68|74:86,1,99.9999999999999,2|10,1:2|2:2,0:0:0:0:
35,117,54769,1,2,2:2:0:0:
94,204,55085,1,2,1:2:0:0:
94,204,55243,2,0,P|90:229|86:254,1,50,10|10,2:2|2:2,0:0:0:0:
104,300,55559,2,0,P|151:312|197:294,1,99.9999999999999,2|10,1:2|2:2,0:0:0:0:
283,244,56190,6,0,P|273:194|265:145,1,99.9999999999999,2|10,1:2|2:2,0:0:0:0:
306,53,56822,2,0,P|331:57|356:61,1,50,2|2,1:2|1:2,0:0:0:0:
407,51,57138,1,10,2:2:0:0:
407,51,57296,1,2,2:2:0:0:
493,112,57612,1,10,2:2:0:0:
493,112,57769,2,0,P|489:137|485:162,1,50,10|10,1:2|2:2,0:0:0:0:
461,205,58085,2,0,P|415:222|367:210,1,99.9999999999999,10|8,1:2|1:2,0:0:0:0:
335,179,58559,1,8,2:2:0:0:
335,179,58717,5,6,1:2:0:0:
239,195,59033,1,14,2:2:0:0:
239,195,59190,2,0,P|221:149|233:101,1,99.9999999999999,2|2,2:2|1:2,0:2:0:0:
273,70,59664,1,10,2:2:0:0:
192,9,59980,2,0,P|142:18|93:26,1,99.9999999999999,2|10,1:2|2:2,0:0:0:0:
44,16,60454,2,0,P|26:61|38:109,1,99.9999999999999,2|0,2:2|1:1,0:0:0:0:
76,142,60927,1,10,2:2:0:0:
157,209,61243,5,2,1:2:0:0:
157,209,61401,2,0,P|206:200|255:191,1,99.9999999999999,2|10,2:2|2:2,0:0:0:0:
291,156,61875,1,2,1:2:0:0:
376,207,62190,2,0,P|372:232|368:257,1,50,10|2,2:2|2:2,0:0:0:0:
359,306,62506,2,0,P|313:323|265:311,1,99.9999999999999,2|8,1:2|2:2,0:0:0:0:
228,285,62980,1,0,1:1:0:0:
228,285,63138,2,0,P|203:289|178:293,1,50,6|0,2:2|1:1,0:0:0:0:
141,326,63453,1,12,2:2:0:0:
52,278,63769,6,0,P|34:232|46:184,1,99.9999999999999,6|10,1:2|2:2,0:0:0:0:
57,84,64401,2,0,P|106:93|155:101,1,99.9999999999999,2|10,1:2|2:2,0:0:0:0:
199,75,64875,1,2,2:2:0:0:
289,129,65190,1,2,1:2:0:0:
289,129,65348,2,0,P|285:154|281:179,1,50,10|10,2:2|2:2,0:0:0:0:
278,228,65664,2,0,P|323:245|371:233,1,99.9999999999999,2|10,1:2|2:2,0:0:0:0:
469,212,66296,6,0,P|486:257|474:305,1,99.9999999999999,2|10,1:2|2:2,0:0:0:0:
384,351,66927,2,0,P|359:347|334:343,1,50,2|2,1:2|1:2,0:0:0:0:
290,362,67243,1,10,2:2:0:0:
290,362,67401,1,2,1:2:0:0:
205,318,67717,1,2,2:2:0:0:
205,318,67875,2,0,P|201:293|197:268,1,50,10|10,1:2|2:2,0:0:0:0:
188,219,68190,2,0,P|237:210|286:201,1,99.9999999999999,10|8,1:2|1:2,0:0:0:0:
332,233,68664,1,8,2:2:0:0:
332,233,68822,5,4,1:2:0:0:
415,178,69138,2,0,P|432:132|420:84,2,99.9999999999999,10|2|10,2:2|1:2|2:2,0:0:0:0:
332,233,70085,2,0,P|282:223|233:215,1,99.9999999999999,2|10,1:2|2:2,0:0:0:0:
183,217,70559,2,0,P|165:171|177:123,1,99.9999999999999,2|0,2:2|0:0,0:0:0:0:
194,76,71033,1,10,2:2:0:0:
279,24,71348,6,0,P|328:33|377:41,1,99.9999999999999,6|10,1:2|2:2,0:0:0:0:
426,68,71822,1,2,2:2:0:0:
426,68,71980,2,0,P|443:113|431:161,1,99.9999999999999,6|10,1:2|2:2,0:0:0:0:
337,200,72612,2,0,P|287:190|238:182,1,99.9999999999999,6|10,1:2|2:2,0:0:0:0:
201,159,73085,1,2,2:2:0:0:
201,159,73243,1,2,1:2:0:0:
129,228,73559,1,10,2:2:0:0:
45,172,73875,5,4,1:2:0:0:
117,103,74190,2,0,P|129:55|111:9,2,99.9999999999999,10|2|10,2:2|1:2|2:2,0:0:0:0:
45,172,75138,2,0,P|54:221|62:270,1,99.9999999999999,2|10,1:2|2:2,0:0:0:0:
75,318,75612,2,0,P|120:335|168:323,1,99.9999999999999,2|0,2:2|0:0,0:0:0:0:
203,287,76085,1,10,2:2:0:0:
299,315,76401,6,0,P|307:265|316:216,1,99.9999999999999,6|10,1:2|2:2,0:0:0:0:
407,175,77033,2,0,P|397:125|389:76,1,99.9999999999999,6|10,1:2|2:2,0:0:0:0:
411,31,77506,1,2,2:2:0:0:
322,0,77822,1,2,1:2:0:0:
322,0,77980,2,0,P|297:4|272:8,1,50,10|2,2:2|1:2,0:0:0:0:
241,47,78296,1,10,2:2:0:0:
141,34,78612,2,0,P|145:59|149:84,1,50,4|4,2:3|2:3,0:0:0:0:
153,133,78927,6,0,P|198:150|246:138,1,99.9999999999999,6|12,1:2|2:2,0:0:0:0:
336,95,79555,2,0,P|361:99|386:103,1,50,2|0,1:2|1:1,0:0:0:0:
436,124,79869,1,10,2:2:0:0:
436,124,80026,2,0,P|453:169|441:217,1,99.9999999999999,0|0,1:1|1:1,0:0:0:0:
401,247,80498,1,10,2:2:0:0:
311,201,80814,2,0,P|261:210|212:218,1,99.9999999999999,2|10,1:2|2:2,0:0:0:0:
113,203,81446,6,0,P|100:250|118:296,1,99.9999999999999,4|10,1:2|2:2,0:0:0:0:
204,357,82071,1,2,1:2:0:0:
204,357,82227,2,0,P|229:353|254:349,1,50,0|10,1:1|2:2,0:0:0:0:
282,310,82538,2,0,P|331:319|380:327,1,99.9999999999999,4|0,1:2|1:1,0:0:0:0:
460,266,83175,1,8,0:2:0:0:
460,266,83335,2,0,P|456:241|452:216,1,50,2|0,1:2|1:1,0:0:0:0:
443,173,83654,1,10,2:2:0:0:
344,199,83973,6,0,P|294:189|245:181,1,99.9999999999999,4|10,1:2|2:2,0:0:0:0:
196,192,84446,2,0,P|178:146|190:98,1,99.9999999999999,0|0,0:0|1:1,0:0:0:0:
255,24,85081,1,0,0:0:0:0:
255,24,85242,2,0,P|280:28|305:32,1,50,8|8,1:2|2:2,0:0:0:0:
350,12,85557,1,8,1:2:0:0:
442,50,85873,2,0,P|438:75|434:100,1,50,8|8,1:2|2:2,0:0:0:0:
385,112,86189,2,0,P|389:137|393:162,1,50,8|8,1:2|2:2,0:0:0:0:
426,199,86505,5,6,1:2:0:0:
426,199,87758,5,10,2:2:0:0:
426,199,87915,2,0,P|376:207|327:216,1,99.9999999999999,6|2,1:2|2:2,0:0:0:0:
290,250,88398,1,10,1:2:0:0:
210,188,88714,1,10,1:2:0:0:
