osu file format v14

[General]
AudioFilename: audio.mp3
AudioLeadIn: 0
PreviewTime: 50153
Countdown: 1
SampleSet: None
StackLeniency: 0.7
Mode: 0
LetterboxInBreaks: 0
WidescreenStoryboard: 0

[Editor]
Bookmarks: 19142,40715,51333,78299
DistanceSpacing: 1.6
BeatDivisor: 4
GridSize: 8
TimelineZoom: 1

[Metadata]
Title:Union
TitleUnicode:Union
Artist:OxT
ArtistUnicode:OxT
Creator:Lumrin
Version:SSSS
Source:SSSS.GRIDMAN
Tags:Anime
BeatmapID:1899784
BeatmapSetID:910406

[Difficulty]
HPDrainRate:5.2
CircleSize:4.2
OverallDifficulty:8.5
ApproachRate:9.2
SliderMultiplier:1.8
SliderTickRate:1

[Events]
//Background and Video events
0,0,"daqQkmsrwwO3W8RV5hsmMaGU0bx.jpg",0,0
//Break Periods
//Storyboard Layer 0 (Background)
//Storyboard Layer 1 (Fail)
//Storyboard Layer 2 (Pass)
//Storyboard Layer 3 (Foreground)
//Storyboard Sound Samples

[TimingPoints]
266,337.078651685393,4,2,0,100,1,0
266,-76.9230769230769,4,2,0,100,0,0
771,-90.9090909090909,4,2,0,100,0,0
2962,-76.9230769230769,4,2,0,100,0,0
3468,-100,4,2,0,100,0,0
8861,-83.3333333333333,4,2,0,100,0,0
9535,-100,4,2,0,100,0,0
40041,-133.333333333333,4,2,0,100,0,0
46782,-133.333333333333,4,2,0,100,0,0
51333,-100,4,2,0,100,0,1
54704,-83.3333333333333,4,2,0,100,0,1
55378,-100,4,2,0,100,0,1
56726,-83.3333333333333,4,2,0,100,0,1
57063,-100,4,2,0,100,0,1
67513,-83.3333333333333,4,2,0,100,0,1
67850,-100,4,2,0,100,0,1
74423,-133.333333333333,4,2,0,100,0,0
75771,-100,4,2,0,100,0,0
76782,-133.333333333333,4,2,0,100,0,0
78299,-100,4,2,0,100,0,0

[HitObjects]
353,89,266,6,0,P|373:55|457:161,1,233.999989288331,4|0,0:0|0:0,0:0:0:0:
395,250,771,1,0,0:0:0:0:
264,284,940,2,0,L|246:388,2,99.0000030212403,2|0|8,0:0|0:0|0:0,0:0:0:0:
206,162,1445,1,0,0:0:0:0:
85,224,1614,6,0,L|7:134,2,99.0000030212403
175,324,2119,1,0,0:0:0:0:
292,215,2288,5,2,0:0:0:0:
361,331,2457,1,0,0:0:0:0:
403,138,2625,1,8,0:0:0:0:
471,254,2794,1,0,0:0:0:0:
471,254,2878,1,0,0:0:0:0:
471,254,2962,6,0,P|379:249|410:136,1,233.999989288331,4|0,0:0|0:0,0:0:0:0:
508,50,3468,1,0,0:0:0:0:
378,14,3636,2,0,L|281:81,1,90,2|0,0:0|0:0,0:0:0:0:
185,130,3973,2,0,L|173:173,1,45,8|0,0:0|0:0,0:0:0:0:
148,256,4142,5,0,0:0:0:0:
323,87,5490,6,0,P|421:120|431:213,1,180,12|0,0:0|0:0,0:0:0:0:
397,266,5996,1,0,0:0:0:0:
271,231,6164,1,0,0:0:0:0:
271,231,6249,1,0,0:0:0:0:
271,231,6333,2,0,L|186:317,1,90
81,245,6670,1,0,0:0:0:0:
125,57,6839,6,0,P|191:37|320:63,1,180
299,52,7344,1,0,0:0:0:0:
417,254,7513,2,0,P|385:336|273:334,1,180
100,213,8018,1,0,0:0:0:0:
299,52,8187,1,0,0:0:0:0:
299,52,8271,1,0,0:0:0:0:
299,52,8355,6,0,B|289:153|341:119|326:245,1,180,8|0,0:0|0:0,0:0:0:0:
95,63,8861,2,0,P|105:113|86:184,1,107.999996704102
212,315,9198,2,0,P|203:258|225:201,1,107.999996704102
322,47,9535,6,0,P|395:78|409:187,1,180,8|0,0:0|0:0,0:0:0:0:
416,169,10041,1,0,0:0:0:0:
340,280,10209,2,0,L|380:317,3,45
316,258,10546,1,0,0:0:0:0:
283,226,10630,1,0,0:0:0:0:
251,195,10714,1,0,0:0:0:0:
219,163,10798,1,0,0:0:0:0:
186,131,10883,6,0,L|100:310,1,180,8|0,0:0|0:0,0:0:0:0:
14,139,11389,1,0,0:0:0:0:
14,139,11558,1,0,0:0:0:0:
333,32,11726,6,0,L|371:116,1,90
429,235,12063,1,0,0:0:0:0:
330,342,12232,2,0,P|299:302|146:235,1,180,8|0,0:0|0:0,0:0:0:0:
77,316,12737,1,0,0:0:0:0:
32,188,12906,2,0,B|59:102|59:102|130:22,1,180
295,24,13412,1,0,0:0:0:0:
295,24,13496,1,0,0:0:0:0:
295,24,13580,2,0,P|345:103|454:147,1,180
458,297,14086,5,2,0:0:0:0:
215,179,14254,1,0,0:0:0:0:
419,171,14423,5,2,0:0:0:0:
160,247,14591,1,0,0:0:0:0:
369,251,14760,5,2,0:0:0:0:
121,145,14928,2,0,P|157:90|279:106,1,180
429,113,15434,5,2,0:0:0:0:
320,360,15603,1,0,0:0:0:0:
286,74,15771,5,2,0:0:0:0:
418,297,15940,1,0,0:0:0:0:
422,27,16108,5,2,0:0:0:0:
291,264,16277,2,0,P|250:292|126:254,1,180
154,111,16782,5,2,0:0:0:0:
404,214,16951,1,0,0:0:0:0:
99,204,17119,5,2,0:0:0:0:
363,144,17288,1,0,0:0:0:0:
47,127,17457,5,2,0:0:0:0:
305,201,17625,2,0,L|351:232,1,45
45,202,17962,6,0,L|-29:243,1,45
154,322,18299,1,0,0:0:0:0:
306,285,18468,5,0,0:0:0:0:
347,147,18636,1,0,0:0:0:0:
441,256,18805,1,0,0:0:0:0:
483,118,18973,1,0,0:0:0:0:
358,44,19142,6,0,P|286:32|155:55,1,180,8|0,0:0|0:0,0:0:0:0:
50,107,19648,1,0,0:0:0:0:
56,250,19816,6,0,P|156:253|161:163,1,180
50,107,20322,1,0,0:0:0:0:
343,55,20490,6,0,L|455:78,1,90
493,203,20827,1,0,0:0:0:0:
359,258,20996,1,0,0:0:0:0:
359,258,21164,2,0,L|351:355,2,90
280,125,21670,1,0,0:0:0:0:
280,125,21754,1,0,0:0:0:0:
280,125,21839,6,0,P|212:108|78:139,2,180
417,164,22681,1,0,0:0:0:0:
403,307,22850,2,0,L|296:352,1,90
201,259,23187,6,0,L|102:302,2,90
332,202,23692,1,0,0:0:0:0:
265,73,23861,2,0,L|162:113,1,90
55,154,24198,1,0,0:0:0:0:
211,267,24367,1,0,0:0:0:0:
211,267,24451,1,0,0:0:0:0:
211,267,24535,6,0,P|290:199|259:125,1,180,8|0,0:0|0:0,0:0:0:0:
178,39,25041,1,0,0:0:0:0:
178,39,25209,2,0,B|244:48|244:48|286:33|286:33|370:45,1,180
436,135,25883,6,0,L|430:253,1,90
326,325,26221,2,0,L|301:227,1,90
254,88,26558,2,0,P|184:32|146:29,2,90
134,167,27063,1,0,0:0:0:0:
134,167,27148,1,0,0:0:0:0:
134,167,27232,6,0,P|82:233|139:318,2,180
256,242,28074,1,0,0:0:0:0:
374,38,28243,6,0,P|439:59|453:109,1,90
426,207,28580,2,0,L|408:313,1,90
302,377,28917,1,0,0:0:0:0:
256,242,29086,1,0,0:0:0:0:
133,298,29254,2,0,L|48:336,2,90
268,254,29760,1,0,0:0:0:0:
268,254,29844,1,0,0:0:0:0:
268,254,29928,6,0,P|359:266|480:253,1,180,8|0,0:0|0:0,0:0:0:0:
494,129,30434,1,0,0:0:0:0:
401,30,30603,2,0,B|312:13|312:13|204:32,1,180
133,129,31108,1,0,0:0:0:0:
208,241,31277,6,0,P|249:198|253:161,1,90
376,112,31614,2,0,P|436:113|468:146,1,90
392,249,31951,2,0,P|401:300|434:335,2,90
281,170,32457,1,0,0:0:0:0:
164,236,32625,6,0,P|77:213|44:133,2,180
187,93,33468,1,0,0:0:0:0:
314,26,33636,2,0,L|420:49,1,90
422,190,33973,6,0,L|330:168,1,90
201,226,34310,1,0,0:0:0:0:
246,362,34479,1,0,0:0:0:0:
390,359,34648,2,0,P|412:365|469:304,1,90
422,190,34985,2,0,P|415:106|440:84,1,90
285,64,35322,6,0,B|234:66|196:33|196:33|161:78|108:76,1,180,8|0,0:0|0:0,0:0:0:0:
6,154,35827,1,0,0:0:0:0:
66,285,35996,6,0,P|124:261|144:233,1,90
275,191,36333,2,0,L|287:301,1,90
440,349,36670,6,0,B|480:235|434:271|455:160,1,180,8|0,0:0|0:0,0:0:0:0:
430,38,37176,1,0,0:0:0:0:
296,51,37344,6,0,L|234:131,1,90
214,254,37681,2,0,L|306:235,1,90
435,214,38018,5,8,0:0:0:0:
224,172,38187,1,0,0:0:0:0:
330,347,38355,1,0,0:0:0:0:
407,78,38524,1,0,0:0:0:0:
129,198,38692,5,8,0:0:0:0:
486,148,38861,1,0,0:0:0:0:
141,39,39030,1,0,0:0:0:0:
330,347,39198,1,0,0:0:0:0:
407,78,39367,5,8,0:0:0:0:
407,78,39535,2,0,L|426:2,5,45
319,197,40041,6,0,P|257:161|199:269,1,202.500007724762
120,371,40715,6,0,L|106:293,1,67.5000025749208,2|0,0:0|0:0,0:0:0:0:
191,249,41052,2,0,L|210:156,1,67.5000025749208,2|0,0:0|0:0,0:0:0:0:
109,146,41389,2,0,L|82:59,2,67.5000025749208,2|0|2,0:0|0:0|0:0,0:0:0:0:
109,146,41895,1,0,0:0:0:0:
200,102,42063,2,0,P|251:62|340:82,2,135.000005149842,2|2|2,0:0|0:0|0:0,0:0:0:0:
187,332,43074,6,0,L|175:254,1,67.5000025749208,2|0,0:0|0:0,0:0:0:0:
255,190,43412,2,0,L|268:275,1,67.5000025749208,2|0,0:0|0:0,0:0:0:0:
343,331,43749,2,0,L|359:243,1,67.5000025749208,2|0,0:0|0:0,0:0:0:0:
437,193,44086,2,0,L|445:286,2,67.5000025749208,2|0|2,0:0|0:0|0:0,0:0:0:0:
437,193,44591,1,0,0:0:0:0:
388,61,44760,6,0,L|300:25,1,67.5000025749208,2|0,0:0|0:0,0:0:0:0:
251,123,45097,2,0,L|160:145,1,67.5000025749208,2|0,0:0|0:0,0:0:0:0:
105,87,45434,1,2,0:0:0:0:
105,87,45603,1,0,0:0:0:0:
105,87,45771,2,0,L|24:87,1,67.5000025749208,2|0,0:0|0:0,0:0:0:0:
248,226,46108,6,0,L|261:312,1,67.5000025749208,2|0,0:0|0:0,0:0:0:0:
375,269,46445,2,0,L|350:355,1,67.5000025749208,2|0,0:0|0:0,0:0:0:0:
463,349,46782,2,0,L|441:398,3,33.7500012874604,2|0|0|0,0:0|0:0|0:0|0:0,0:0:0:0:
494,275,47119,2,0,P|501:228|497:185,1,67.5000025749208,2|0,0:0|0:0,0:0:0:0:
481,100,47457,6,0,L|495:55,3,33.7500012874604,2|0|0|0,0:0|0:0|0:0|0:0,0:0:0:0:
398,151,47794,2,0,L|345:154,3,33.7500012874604,2|0|0|0,0:0|0:0|0:0|0:0,0:0:0:0:
484,195,48131,2,0,L|506:245,3,33.7500012874604,2|0|0|0,0:0|0:0|0:0|0:0,0:0:0:0:
406,239,48468,5,2,0:0:0:0:
380,261,48552,1,0,0:0:0:0:
355,284,48636,1,0,0:0:0:0:
330,306,48720,1,0,0:0:0:0:
304,329,48805,6,0,L|261:369,3,33.7500012874604,2|0|0|0,0:0|0:0|0:0|0:0,0:0:0:0:
250,232,49142,2,0,L|295:192,3,33.7500012874604,2|0|0|0,0:0|0:0|0:0|0:0,0:0:0:0:
190,148,49479,5,2,0:0:0:0:
163,126,49563,1,0,0:0:0:0:
130,119,49647,1,0,0:0:0:0:
96,125,49731,1,0,0:0:0:0:
69,146,49816,1,2,0:0:0:0:
55,176,49900,1,0,0:0:0:0:
48,215,49984,1,0,0:0:0:0:
60,253,50068,1,0,0:0:0:0:
90,280,50153,1,6,0:0:0:0:
161,94,50490,5,0,0:0:0:0:
352,160,50659,1,0,0:0:0:0:
115,186,50827,5,0,0:0:0:0:
431,90,50996,1,0,0:0:0:0:
55,91,51164,5,0,0:0:0:0:
448,190,51333,2,0,P|461:248|384:332,1,180,12|0,0:0|0:0,0:0:0:0:
386,331,51839,1,0,0:0:0:0:
305,242,52007,1,0,0:0:0:0:
305,242,52091,1,0,0:0:0:0:
305,242,52176,2,0,L|292:131,1,90
200,36,52513,1,0,0:0:0:0:
145,168,52681,6,0,P|171:250|74:313,1,180
5,213,53187,1,0,0:0:0:0:
38,73,53355,2,0,P|64:21|201:26,1,180
340,73,53861,5,0,0:0:0:0:
244,208,54030,1,0,0:0:0:0:
244,208,54114,1,0,0:0:0:0:
244,208,54198,2,0,P|219:282|309:262,1,180
441,165,54704,2,0,P|465:142|447:64,1,107.999996704102
284,57,55041,2,0,P|267:32|183:27,1,107.999996704102
66,161,55378,6,0,P|40:224|31:335,1,180
30,334,55883,1,0,0:0:0:0:
153,276,56052,2,0,L|242:318,1,90
362,365,56389,1,0,0:0:0:0:
362,365,56473,1,0,0:0:0:0:
362,365,56558,1,0,0:0:0:0:
455,267,56726,6,0,P|470:173|454:47,1,215.999993408203,12|0,0:0|0:0,0:0:0:0:
270,132,57232,2,0,L|255:237,1,90
172,36,57569,5,0,0:0:0:0:
96,157,57737,2,0,L|16:104,2,90
144,293,58243,2,0,L|263:257,1,90
313,241,58580,1,0,0:0:0:0:
415,334,58749,2,0,P|441:310|442:141,1,180
340,41,59254,5,0,0:0:0:0:
269,178,59423,2,0,P|250:258|154:279,1,180,8|0,0:0|0:0,0:0:0:0:
123,120,59928,5,8,0:0:0:0:
394,289,60097,1,0,0:0:0:0:
100,229,60265,5,8,0:0:0:0:
461,174,60434,1,0,0:0:0:0:
147,16,60603,5,8,0:0:0:0:
251,325,60771,2,0,P|306:352|395:248,1,180,4|0,0:0|0:0,0:0:0:0:
397,39,61277,6,0,L|361:137,1,90
315,263,61614,1,0,0:0:0:0:
179,139,61782,1,0,0:0:0:0:
179,139,61867,1,0,0:0:0:0:
179,139,61951,1,0,0:0:0:0:
118,269,62119,6,0,P|53:238|28:128,1,180,12|0,0:0|0:0,0:0:0:0:
120,31,62625,1,0,0:0:0:0:
263,50,62794,1,0,0:0:0:0:
263,50,62878,1,0,0:0:0:0:
263,50,62962,2,0,L|293:144,1,90
341,288,63299,5,0,0:0:0:0:
341,288,63468,2,0,P|286:342|157:324,1,180
218,100,63973,5,0,0:0:0:0:
218,100,64142,2,0,P|246:35|382:32,1,180
477,158,64648,1,0,0:0:0:0:
433,294,64816,1,0,0:0:0:0:
433,294,64900,1,0,0:0:0:0:
433,294,64985,6,0,L|286:151,1,180
195,75,65490,5,0,0:0:0:0:
195,75,65574,1,0,0:0:0:0:
195,75,65659,1,0,0:0:0:0:
79,160,65827,5,0,0:0:0:0:
79,161,65912,1,0,0:0:0:0:
79,161,65996,1,0,0:0:0:0:
195,244,66164,6,0,P|203:326|88:345,1,180
63,282,66670,1,0,0:0:0:0:
79,160,66839,6,0,P|89:108|137:77,1,90
359,64,67176,5,0,0:0:0:0:
369,107,67260,1,0,0:0:0:0:
380,151,67344,1,0,0:0:0:0:
391,194,67428,1,0,0:0:0:0:
402,238,67513,2,0,P|341:316|234:281,1,215.999993408203,12|0,0:0|0:0,0:0:0:0:
244,155,68018,1,0,0:0:0:0:
104,118,68187,1,0,0:0:0:0:
79,259,68355,2,0,P|24:289|-23:275,2,90
104,118,68861,6,0,B|105:203|163:198|158:295,1,180
158,286,69367,1,0,0:0:0:0:
280,340,69535,6,0,B|303:318|346:322|346:322|361:207,1,180
377,51,70041,5,0,0:0:0:0:
191,58,70209,2,0,L|238:241,1,180
377,51,70715,5,8,0:0:0:0:
262,336,70883,1,0,0:0:0:0:
191,58,71052,5,8,0:0:0:0:
430,273,71221,1,0,0:0:0:0:
117,193,71389,5,8,0:0:0:0:
479,158,71558,2,0,P|509:219|409:263,1,180,12|0,0:0|0:0,0:0:0:0:
315,187,72063,2,0,L|232:243,1,90
123,304,72400,1,0,0:0:0:0:
85,173,72569,2,0,L|56:52,1,90
265,100,72906,2,0,L|302:293,1,180,12|0,0:0|0:0,0:0:0:0:
424,348,73412,2,0,P|470:302|478:271,1,90
398,158,73749,5,8,0:0:0:0:
355,142,73833,1,0,0:0:0:0:
311,141,73917,1,0,0:0:0:0:
268,156,74001,1,0,0:0:0:0:
233,183,74086,2,0,L|204:236,3,45,8|0|8|0,0:0|0:0|0:0|0:0,0:0:0:0:
299,255,74423,6,0,P|330:293|284:366,1,135.000005149842,2|0,0:0|0:0,0:0:0:0:
187,365,74928,1,0,0:0:0:0:
82,325,75097,2,0,L|59:243,1,67.5000025749208
33,156,75434,1,0,0:0:0:0:
130,109,75603,1,0,0:0:0:0:
130,109,75687,1,0,0:0:0:0:
130,109,75771,6,0,L|206:185,1,90
319,102,76108,1,0,0:0:0:0:
443,174,76277,2,0,L|519:89,1,90
398,304,76782,5,0,0:0:0:0:
398,304,76951,1,0,0:0:0:0:
398,304,77119,2,0,P|361:311|302:299,1,67.5000025749208
223,293,77457,1,0,0:0:0:0:
147,216,77625,2,0,P|96:178|20:191,1,135.000005149842
64,290,78131,1,0,0:0:0:0:
64,290,78299,6,0,L|131:111,1,180,8|0,0:0|0:0,0:0:0:0:
312,54,78805,2,0,L|397:118,1,90,2|0,0:0|0:0,0:0:0:0:
321,356,79142,1,0,0:0:0:0:
273,220,79310,1,0,0:0:0:0:
153,301,79479,6,0,P|95:306|56:294,2,90
111,162,79985,1,0,0:0:0:0:
111,162,80153,1,0,0:0:0:0:
294,114,80322,2,0,P|354:129|441:60,1,180
440,60,80827,1,0,0:0:0:0:
403,258,80996,6,0,P|322:334|375:390,1,180,8|0,0:0|0:0,0:0:0:0:
150,333,81501,1,2,0:0:0:0:
150,333,81670,1,0,0:0:0:0:
111,162,81839,2,0,L|65:83,2,90
370,128,82344,6,0,B|387:176|440:177|440:177|400:263,1,180,8|0,0:0|0:0,0:0:0:0:
346,376,82850,1,2,0:0:0:0:
150,333,83018,1,0,0:0:0:0:
111,162,83187,2,0,P|121:122|195:108,1,90
418,99,83524,1,0,0:0:0:0:
418,99,83608,1,0,0:0:0:0:
418,99,83692,6,0,P|422:189|498:234,1,180,8|0,0:0|0:0,0:0:0:0:
402,346,84198,1,2,0:0:0:0:
279,325,84367,6,0,P|244:242|145:231,1,180,8|0,0:0|0:0,0:0:0:0:
55,243,84872,1,0,0:0:0:0:
66,92,85041,6,0,L|154:44,1,90,8|0,0:0|0:0,0:0:0:0:
373,74,85378,1,0,0:0:0:0:
263,238,85546,1,0,0:0:0:0:
401,345,85715,6,0,L|427:273,1,45,8|0,0:0|0:0,0:0:0:0:
112,302,86052,6,0,L|148:371,1,45
212,100,86389,6,0,B|271:150|331:114|331:114|247:266,1,270,8|0,0:0|0:0,0:0:0:0:
263,238,86979,1,0,0:0:0:0:
263,238,87063,1,0,0:0:0:0:
