osu file format v14

[General]
AudioFilename: audio.mp3
AudioLeadIn: 0
PreviewTime: 50899
Countdown: 0
SampleSet: Soft
StackLeniency: 0.7
Mode: 3
LetterboxInBreaks: 0
SpecialStyle: 0
WidescreenStoryboard: 1

[Editor]
DistanceSpacing: 1.4
BeatDivisor: 4
GridSize: 4
TimelineZoom: 1.400001

[Metadata]
Title:UNION (TV Size)
TitleUnicode:UNION (TV Size)
Artist:OxT
ArtistUnicode:OxT
Creator:Roasted Chicken
Version:Hard
Source:SSSS.GRIDMAN
Tags:unluckycroco finesse4k anime japanese keppsado scotty op opening オーイシマサヨシ 大石昌 ooishi oishi masayoshi tom-h@ck Hack PCCG-70434 j-pop jpop pop Rikka Takarada Yuta Hibiki Akane Shinjo
BeatmapID:2547560
BeatmapSetID:1184861

[Difficulty]
HPDrainRate:7.8
CircleSize:4
OverallDifficulty:7.5
ApproachRate:5
SliderMultiplier:1.4
SliderTickRate:1

[Events]
//Background and Video events
Video,236,"UNION.mp4"
0,0,"rikkkka.jpg",0,0
//Break Periods
//Storyboard Layer 0 (Background)
//Storyboard Layer 1 (Fail)
//Storyboard Layer 2 (Pass)
//Storyboard Layer 3 (Foreground)
//Storyboard Layer 4 (Overlay)
//Storyboard Sound Samples
Sample,13653,0,"Tom3.wav",80
Sample,30169,0,"Tom3.wav",60

[TimingPoints]
845,337.078651685393,4,2,1,70,1,0
6027,337.078651685393,4,2,1,80,1,1
6069,337.078651685393,4,2,1,80,1,9
19552,337.078651685393,4,2,1,80,1,9
19720,337.078651685393,4,2,1,60,1,0
30506,-100,4,2,1,70,0,0
41293,-100,4,2,1,60,0,0
46686,-100,4,2,1,70,0,0
46770,-100,4,2,1,15,0,0
47023,-100,4,2,1,20,0,0
47360,-100,4,2,1,25,0,0
47697,-100,4,2,1,30,0,0
48034,-100,4,2,1,35,0,0
48371,-100,4,2,1,40,0,0
48708,-100,4,2,1,45,0,0
49045,-100,4,2,1,50,0,0
49382,-100,4,2,1,55,0,0
49719,-100,4,2,1,60,0,0
50056,-100,4,2,1,65,0,0
50394,-100,4,2,1,70,0,0
51889,337.078651685393,4,2,1,80,1,1
51911,337.078651685393,4,2,1,80,1,9
51911,-100,4,2,1,80,0,1
67711,337.078651685393,4,2,1,80,1,9
68069,337.078651685393,4,2,1,80,1,1
70112,337.078651685393,4,2,1,80,1,9
70786,337.078651685393,4,2,1,80,1,1
71144,337.078651685393,4,2,1,80,1,9
72155,337.078651685393,4,2,1,80,1,1
73482,337.078651685393,4,2,1,80,1,1
74830,337.078651685393,4,2,1,80,1,9
75000,337.078651685393,4,2,1,60,1,0
78876,337.078651685393,4,2,1,70,1,0

[HitObjects]
64,192,845,5,2,0:0:0:0:
320,192,845,1,4,0:0:0:0:
448,192,845,128,0,1013:0:0:0:0:
192,192,1013,1,2,0:0:0:0:
192,192,1350,1,2,0:0:0:0:
64,192,1519,128,8,1687:0:0:0:0:
448,192,1519,1,0,0:0:0:0:
192,192,1856,1,2,0:0:0:0:
448,192,1856,128,0,2024:0:0:0:0:
320,192,2024,1,2,0:0:0:0:
320,192,2361,1,2,0:0:0:0:
64,192,2530,128,0,2698:0:0:0:0:
448,192,2698,1,2,0:0:0:0:
64,192,2867,1,8,0:0:0:0:
192,192,2867,1,0,0:0:0:0:
448,192,3036,1,2,0:0:0:0:
192,192,3204,128,0,3373:0:0:0:0:
192,192,3541,1,2,0:0:0:0:
320,192,3541,1,4,0:0:0:0:
448,192,3541,128,0,3710:0:0:0:0:
64,192,3710,1,2,0:0:0:0:
320,192,3878,128,0,4047:0:0:0:0:
64,192,4047,1,2,0:0:0:0:
192,192,4215,1,8,0:0:0:0:
320,192,4215,1,0,0:0:0:0:
320,192,4384,1,0,0:0:0:70:Tom1.wav
448,192,4384,1,0,0:0:0:0:
192,192,4552,1,0,0:0:0:70:Tom2.wav
320,192,4637,1,0,0:0:0:0:
64,192,4721,1,4,0:0:0:0:
448,192,4721,1,8,0:0:0:0:
64,192,6027,128,4,6406:0:0:0:0:
192,192,6027,1,2,0:0:0:0:
448,192,6027,128,0,6406:0:0:0:0:
192,192,6406,1,2,0:0:0:0:
320,192,6406,1,0,0:0:0:0:
64,192,6574,1,8,0:0:0:0:
448,192,6574,1,0,0:0:0:0:
320,192,6743,1,0,0:0:0:0:
448,192,6827,1,8,0:0:0:0:
64,192,6911,128,2,7248:0:0:0:0:
192,192,6911,1,0,0:0:0:0:
320,192,7080,1,2,0:0:0:0:
192,192,7248,1,8,0:0:0:0:
448,192,7248,1,0,0:0:0:0:
64,192,7417,1,4,0:0:0:0:
320,192,7417,128,2,7754:0:0:0:0:
448,192,7417,128,0,7754:0:0:0:0:
64,192,7754,1,2,0:0:0:0:
192,192,7754,1,0,0:0:0:0:
320,192,7922,1,8,0:0:0:0:
448,192,7922,1,0,0:0:0:0:
64,192,8091,128,2,8428:0:0:0:0:
192,192,8091,1,4,0:0:0:0:
448,192,8091,128,0,8428:0:0:0:0:
192,192,8428,128,2,8765:0:0:0:0:
320,192,8428,1,0,0:0:0:0:
64,192,8597,1,8,0:0:0:0:
320,192,8765,1,0,0:0:0:0:
64,192,8934,128,4,9271:0:0:0:0:
192,192,8934,1,2,0:0:0:0:
448,192,8934,128,0,9271:0:0:0:0:
192,192,9271,1,8,0:0:0:0:
320,192,9271,1,0,0:0:0:0:
64,192,9439,128,4,9776:0:0:0:0:
192,192,9439,128,2,9776:0:0:0:0:
448,192,9439,1,0,0:0:0:0:
320,192,9776,1,2,0:0:0:0:
448,192,9776,128,0,9945:0:0:0:0:
64,192,9945,1,8,0:0:0:0:
192,192,9945,1,0,0:0:0:0:
64,192,10113,128,4,10451:0:0:0:0:
320,192,10113,128,2,10451:0:0:0:0:
448,192,10113,1,0,0:0:0:0:
192,192,10451,128,2,10619:0:0:0:0:
448,192,10451,1,0,0:0:0:0:
64,192,10619,1,8,0:0:0:0:
320,192,10619,1,0,0:0:0:0:
64,192,10788,1,4,0:0:0:0:
448,192,10788,128,2,10956:0:0:0:0:
320,192,10956,1,8,0:0:0:0:
192,192,11040,1,8,0:0:0:0:
64,192,11125,1,8,0:0:0:0:
320,192,11209,1,8,0:0:0:0:
448,192,11293,1,8,0:0:0:0:
192,192,11377,1,8,0:0:0:0:
64,192,11462,128,4,11967:0:0:0:0:
320,192,11462,128,2,11799:0:0:0:0:
192,192,11799,128,2,11967:0:0:0:0:
320,192,11967,1,8,0:0:0:0:
448,192,11967,1,0,0:0:0:0:
192,192,12136,1,0,0:0:0:0:
64,192,12220,1,8,0:0:0:0:
320,192,12304,1,2,0:0:0:0:
192,192,12389,1,0,0:0:0:0:
448,192,12473,1,2,0:0:0:0:
64,192,12642,1,8,0:0:0:0:
192,192,12642,1,0,0:0:0:0:
64,192,12810,1,4,0:0:0:0:
320,192,12810,1,2,0:0:0:0:
448,192,12810,128,0,13147:0:0:0:0:
192,192,13147,1,2,0:0:0:0:
320,192,13316,1,8,0:0:0:0:
448,192,13316,1,0,0:0:0:0:
64,192,13484,128,2,13821:0:0:0:0:
192,192,13484,1,0,0:0:0:0:
320,192,13653,1,2,0:0:0:0:
192,192,13821,1,8,0:0:0:0:
448,192,13906,1,8,0:0:0:0:
320,192,13990,1,8,0:0:0:0:
64,192,14158,1,2,0:0:0:0:
192,192,14158,1,4,0:0:0:0:
448,192,14158,128,0,14495:0:0:0:0:
320,192,14495,1,2,0:0:0:0:
192,192,14664,1,8,0:0:0:0:
448,192,14664,1,0,0:0:0:0:
64,192,14833,1,2,0:0:0:0:
320,192,15001,1,8,0:0:0:0:
448,192,15001,1,0,0:0:0:0:
192,192,15170,1,2,0:0:0:0:
64,192,15338,1,8,0:0:0:0:
448,192,15338,1,0,0:0:0:0:
64,192,15507,128,4,15844:0:0:0:0:
192,192,15507,1,2,0:0:0:0:
320,192,15507,1,0,0:0:0:0:
320,192,15844,1,2,0:0:0:0:
64,192,16012,1,8,0:0:0:0:
192,192,16012,1,0,0:0:0:0:
448,192,16181,1,2,0:0:0:0:
64,192,16349,1,8,0:0:0:0:
320,192,16349,1,0,0:0:0:0:
192,192,16518,1,2,0:0:0:0:
64,192,16686,1,8,0:0:0:0:
448,192,16686,1,0,0:0:0:0:
192,192,16855,1,4,0:0:0:0:
320,192,16855,1,2,0:0:0:0:
448,192,16855,128,0,17192:0:0:0:0:
64,192,17192,1,2,0:0:0:0:
320,192,17361,1,8,0:0:0:0:
448,192,17361,1,0,0:0:0:0:
64,192,17529,1,2,0:0:0:0:
192,192,17613,1,2,0:0:0:0:
320,192,17698,1,8,0:0:0:80:Tom1.wav
448,192,17698,1,0,0:0:0:0:
64,192,17866,1,8,0:0:0:80:Tom2.wav
320,192,17866,1,0,0:0:0:0:
192,192,18035,1,8,0:0:0:0:
320,192,18119,1,0,0:0:0:0:
64,192,18203,128,2,18372:0:0:0:0:
448,192,18203,1,4,0:0:0:80:shortcymbal.wav
64,192,18540,128,2,18709:0:0:0:0:
448,192,18540,1,4,0:0:0:80:shortcymbal.wav
64,192,18877,128,2,19046:0:0:0:0:
448,192,18877,1,4,0:0:0:80:shortcymbal.wav
64,192,19720,1,4,0:0:0:0:
192,192,19720,1,2,0:0:0:0:
448,192,19720,128,0,20057:0:0:0:0:
64,192,20057,1,2,0:0:0:0:
320,192,20057,1,0,0:0:0:60:Tom1.wav
192,192,20225,1,0,0:0:0:0:
320,192,20394,128,2,20731:0:0:0:0:
448,192,20394,1,0,0:0:0:0:
64,192,20562,1,0,0:0:0:60:Tom2.wav
192,192,20731,1,2,0:0:0:0:
448,192,20731,1,0,0:0:0:0:
320,192,20899,1,0,0:0:0:0:
64,192,21068,1,2,0:0:0:0:
192,192,21068,128,0,21405:0:0:0:0:
448,192,21236,1,0,0:0:0:0:
64,192,21405,1,2,0:0:0:0:
320,192,21405,1,0,0:0:0:0:
448,192,21573,1,0,0:0:0:60:Tom2.wav
192,192,21742,1,2,0:0:0:0:
320,192,21742,128,0,21911:0:0:0:0:
64,192,21911,1,0,0:0:0:0:
320,192,22079,128,8,22248:0:0:0:0:
448,192,22079,1,2,0:0:0:0:
64,192,22248,1,0,0:0:0:0:
192,192,22416,128,2,22585:0:0:0:0:
448,192,22416,1,0,0:0:0:0:
320,192,22585,1,0,0:0:0:0:
64,192,22753,1,2,0:0:0:0:
448,192,22753,128,0,22922:0:0:0:60:Tom1.wav
192,192,22922,1,0,0:0:0:0:
64,192,23090,128,2,23259:0:0:0:0:
320,192,23090,1,0,0:0:0:0:
448,192,23259,1,0,0:0:0:60:Tom2.wav
192,192,23427,1,2,0:0:0:0:
320,192,23427,128,0,23764:0:0:0:0:
448,192,23596,1,0,0:0:0:0:
64,192,23764,1,2,0:0:0:0:
192,192,23764,1,0,0:0:0:0:
320,192,23933,1,0,0:0:0:0:
192,192,24102,1,2,0:0:0:0:
448,192,24102,1,0,0:0:0:0:
64,192,24270,1,0,0:0:0:60:Tom2.wav
192,192,24439,1,2,0:0:0:0:
320,192,24439,1,0,0:0:0:0:
448,192,24607,1,0,0:0:0:0:
64,192,24776,1,2,0:0:0:0:
192,192,24776,1,8,0:0:0:0:
320,192,24944,1,0,0:0:0:0:
64,192,25113,1,4,0:0:0:0:
192,192,25113,1,2,0:0:0:0:
448,192,25113,128,0,25450:0:0:0:0:
192,192,25450,1,2,0:0:0:0:
320,192,25450,1,0,0:0:0:60:Tom1.wav
64,192,25618,1,0,0:0:0:0:
320,192,25787,128,2,26124:0:0:0:0:
448,192,25787,1,0,0:0:0:0:
192,192,25955,1,0,0:0:0:60:Tom2.wav
64,192,26124,1,2,0:0:0:0:
448,192,26124,1,0,0:0:0:0:
320,192,26293,1,0,0:0:0:0:
64,192,26461,128,2,26798:0:0:0:0:
192,192,26461,1,0,0:0:0:0:
320,192,26630,1,0,0:0:0:0:
192,192,26798,1,2,0:0:0:0:
448,192,26798,1,0,0:0:0:0:
64,192,26967,1,0,0:0:0:60:Tom1.wav
320,192,27135,1,2,0:0:0:0:
448,192,27135,128,0,27304:0:0:0:0:
64,192,27304,1,0,0:0:0:0:
192,192,27472,128,2,27641:0:0:0:0:
320,192,27472,1,8,0:0:0:0:
448,192,27641,1,0,0:0:0:0:
64,192,27725,1,0,0:0:0:60:Tom2.wav
192,192,27809,1,2,0:0:0:0:
320,192,27809,128,0,27978:0:0:0:0:
448,192,27978,1,0,0:0:0:0:
64,192,28146,128,2,28315:0:0:0:0:
192,192,28146,1,0,0:0:0:60:Tom1.wav
320,192,28315,1,0,0:0:0:0:
192,192,28484,128,2,28652:0:0:0:0:
448,192,28484,1,0,0:0:0:0:
64,192,28652,1,0,0:0:0:60:Tom2.wav
320,192,28821,1,2,0:0:0:0:
448,192,28821,128,0,29158:0:0:0:0:
192,192,28989,1,0,0:0:0:0:
64,192,29158,1,2,0:0:0:0:
320,192,29158,1,0,0:0:0:0:
192,192,29326,1,0,0:0:0:0:
64,192,29495,1,2,0:0:0:0:
448,192,29495,1,0,0:0:0:0:
320,192,29663,1,0,0:0:0:60:Tom2.wav
64,192,29832,1,2,0:0:0:0:
192,192,29832,1,0,0:0:0:0:
448,192,30000,1,8,0:0:0:0:
320,192,30169,1,2,0:0:0:0:
192,192,30169,1,0,0:0:0:0:
320,192,30337,1,0,0:0:0:0:
64,192,30506,1,4,0:0:0:0:
192,192,30506,1,2,0:0:0:0:
448,192,30506,128,0,30843:0:0:0:0:
192,192,30843,1,2,0:0:0:0:
320,192,30843,1,0,0:0:0:70:Tom1.wav
64,192,31012,1,0,0:0:0:0:
320,192,31180,128,2,31517:0:0:0:0:
448,192,31180,1,0,0:0:0:0:
192,192,31349,1,0,0:0:0:70:Tom2.wav
64,192,31517,1,2,0:0:0:0:
448,192,31517,1,0,0:0:0:0:
320,192,31686,1,0,0:0:0:0:
192,192,31770,1,0,0:0:0:0:
64,192,31854,128,2,32191:0:0:0:0:
448,192,31854,1,0,0:0:0:0:
320,192,32023,1,0,0:0:0:0:
192,192,32191,1,2,0:0:0:0:
448,192,32191,1,0,0:0:0:0:
64,192,32360,1,0,0:0:0:70:Tom2.wav
320,192,32528,128,2,32697:0:0:0:0:
448,192,32528,1,0,0:0:0:0:
192,192,32697,1,0,0:0:0:0:
64,192,32866,1,8,0:0:0:0:
320,192,32866,128,2,33034:0:0:0:0:
448,192,33034,1,0,0:0:0:0:
64,192,33203,128,2,33371:0:0:0:0:
192,192,33203,1,0,0:0:0:0:
320,192,33371,1,0,0:0:0:0:
192,192,33540,1,2,0:0:0:0:
448,192,33540,128,0,33708:0:0:0:70:Tom1.wav
64,192,33708,1,0,0:0:0:0:
192,192,33877,128,2,34045:0:0:0:0:
320,192,33877,1,0,0:0:0:0:
448,192,34045,1,0,0:0:0:70:Tom2.wav
64,192,34214,1,2,0:0:0:0:
320,192,34214,128,0,34551:0:0:0:0:
192,192,34382,1,0,0:0:0:0:
64,192,34551,1,2,0:0:0:0:
448,192,34551,1,0,0:0:0:0:
320,192,34719,1,0,0:0:0:0:
64,192,34888,1,2,0:0:0:0:
192,192,34888,1,0,0:0:0:0:
448,192,35057,1,0,0:0:0:70:Tom2.wav
192,192,35225,1,2,0:0:0:0:
320,192,35225,1,0,0:0:0:0:
192,192,35394,1,0,0:0:0:70:Tom3.wav
64,192,35562,1,8,0:0:0:0:
320,192,35562,1,2,0:0:0:0:
320,192,35731,1,0,0:0:0:0:
64,192,35899,128,4,36236:0:0:0:0:
448,192,35899,1,0,0:0:0:0:
192,192,35899,1,2,0:0:0:0:
320,192,36068,1,0,0:0:0:0:
192,192,36236,1,2,0:0:0:0:
64,192,36405,1,2,0:0:0:0:
448,192,36405,1,0,0:0:0:0:
192,192,36573,1,4,0:0:0:0:
320,192,36573,1,8,0:0:0:0:
192,192,36742,1,0,0:0:0:0:
320,192,36911,1,0,0:0:0:0:
320,192,37079,1,0,0:0:0:0:
64,192,37248,1,2,0:0:0:0:
448,192,37248,128,0,37585:0:0:0:0:
192,192,37416,1,0,0:0:0:0:
320,192,37585,1,2,0:0:0:0:
64,192,37753,1,2,0:0:0:0:
448,192,37753,1,0,0:0:0:0:
192,192,37922,1,4,0:0:0:0:
320,192,37922,1,8,0:0:0:0:
192,192,38090,1,0,0:0:0:0:
64,192,38175,1,0,0:0:0:70:Tom1.wav
320,192,38259,1,0,0:0:0:70:Tom1.wav
320,192,38427,1,0,0:0:0:70:Tom1.wav
64,192,38596,128,4,38933:0:0:0:0:
448,192,38596,1,0,0:0:0:0:
192,192,38596,1,2,0:0:0:0:
320,192,38764,1,0,0:0:0:0:
192,192,38933,1,2,0:0:0:0:
64,192,39102,1,0,0:0:0:0:
320,192,39270,1,0,0:0:0:70:Tom1.wav
448,192,39270,128,0,39607:0:0:0:0:
192,192,39439,1,0,0:0:0:70:Tom1.wav
320,192,39607,1,0,0:0:0:70:Tom2.wav
192,192,39776,1,0,0:0:0:70:Tom2.wav
64,192,39944,128,4,40281:0:0:0:0:
448,192,39944,1,2,0:0:0:0:
320,192,39944,1,0,0:0:0:0:
192,192,40113,1,8,0:0:0:0:
320,192,40197,1,8,0:0:0:0:
448,192,40281,1,8,0:0:0:0:
192,192,40450,1,0,0:0:0:70:Tom1.wav
320,192,40618,1,0,0:0:0:70:Tom1.wav
448,192,40618,128,0,40955:0:0:0:0:
64,192,40787,1,0,0:0:0:70:Tom2.wav
192,192,40955,128,0,41293:0:0:0:70:Tom2.wav
64,192,41293,1,4,0:0:0:0:
320,192,41293,1,2,0:0:0:0:
448,192,41293,1,0,0:0:0:0:
192,192,41461,1,0,0:0:0:0:
448,192,41630,1,0,0:0:0:0:
320,192,41798,1,0,0:0:0:0:
64,192,41967,1,0,0:0:0:0:
192,192,42135,1,0,0:0:0:0:
448,192,42304,1,0,0:0:0:0:
64,192,42472,1,0,0:0:0:0:
320,192,42641,1,0,0:0:0:0:
448,192,42641,1,0,0:0:0:0:
64,192,42978,1,0,0:0:0:0:
64,192,43315,1,0,0:0:0:0:
320,192,43652,1,0,0:0:0:0:
192,192,43821,1,0,0:0:0:0:
64,192,43989,1,0,0:0:0:0:
320,192,43989,1,0,0:0:0:0:
448,192,44158,1,0,0:0:0:0:
192,192,44326,1,0,0:0:0:0:
64,192,44495,1,0,0:0:0:0:
320,192,44663,1,0,0:0:0:0:
448,192,44832,1,0,0:0:0:0:
192,192,45000,1,0,0:0:0:0:
448,192,45169,1,0,0:0:0:0:
64,192,45337,1,0,0:0:0:0:
320,192,45337,1,0,0:0:0:0:
192,192,45506,1,0,0:0:0:0:
64,192,45675,1,0,0:0:0:0:
64,192,46012,1,8,0:0:0:0:
192,192,46012,1,0,0:0:0:0:
320,192,46180,1,2,0:0:0:0:
448,192,46180,1,0,0:0:0:0:
64,192,46349,1,0,0:0:0:70:Tom1.wav
192,192,46349,128,0,46686:0:0:0:0:
64,192,46686,1,4,0:0:0:0:
448,192,46686,1,2,0:0:0:0:
320,192,46770,1,8,0:0:0:0:
192,192,46854,1,8,0:0:0:0:
64,192,46939,1,8,0:0:0:0:
320,192,47023,1,10,0:0:0:0:
192,192,47107,1,8,0:0:0:0:
448,192,47191,1,8,0:0:0:0:
320,192,47276,1,8,0:0:0:0:
64,192,47360,1,10,0:0:0:0:
192,192,47444,1,8,0:0:0:0:
320,192,47528,1,8,0:0:0:0:
448,192,47613,1,8,0:0:0:0:
192,192,47697,1,10,0:0:0:0:
320,192,47781,1,8,0:0:0:0:
64,192,47866,1,8,0:0:0:0:
192,192,47950,1,8,0:0:0:0:
448,192,48034,1,10,0:0:0:0:
320,192,48118,1,8,0:0:0:0:
64,192,48203,1,8,0:0:0:0:
448,192,48287,1,8,0:0:0:0:
192,192,48371,1,10,0:0:0:0:
64,192,48455,1,8,0:0:0:0:
448,192,48540,1,8,0:0:0:0:
320,192,48624,1,8,0:0:0:0:
64,192,48708,1,10,0:0:0:0:
192,192,48793,1,8,0:0:0:0:
448,192,48877,1,8,0:0:0:0:
64,192,48961,1,8,0:0:0:0:
320,192,49045,1,10,0:0:0:0:
448,192,49130,1,8,0:0:0:0:
64,192,49214,1,8,0:0:0:0:
192,192,49298,1,8,0:0:0:0:
320,192,49382,1,8,0:0:0:0:
448,192,49382,1,2,0:0:0:0:
192,192,49551,1,8,0:0:0:0:
320,192,49635,1,8,0:0:0:0:
64,192,49719,1,8,0:0:0:0:
448,192,49719,1,2,0:0:0:0:
320,192,49888,1,8,0:0:0:0:
192,192,49972,1,8,0:0:0:0:
64,192,50057,1,8,0:0:0:0:
448,192,50057,1,2,0:0:0:0:
192,192,50225,1,8,0:0:0:0:
320,192,50309,1,8,0:0:0:0:
64,192,50394,1,2,0:0:0:0:
448,192,50394,1,8,0:0:0:0:
192,192,50478,1,8,0:0:0:0:
320,192,50562,1,8,0:0:0:0:
448,192,50646,1,8,0:0:0:0:
64,192,50731,1,8,0:0:0:0:
192,192,50731,1,2,0:0:0:0:
64,192,51889,128,2,52248:0:0:0:0:
192,192,51889,1,4,0:0:0:0:
448,192,51889,128,0,52248:0:0:0:0:
192,192,52248,1,2,0:0:0:0:
320,192,52248,1,0,0:0:0:0:
64,192,52416,1,8,0:0:0:0:
448,192,52416,1,0,0:0:0:0:
320,192,52585,1,0,0:0:0:0:
448,192,52669,1,8,0:0:0:0:
64,192,52753,128,2,53090:0:0:0:0:
192,192,52753,1,0,0:0:0:0:
320,192,52922,1,2,0:0:0:0:
192,192,53090,1,8,0:0:0:0:
448,192,53090,1,0,0:0:0:0:
64,192,53259,1,4,0:0:0:0:
320,192,53259,128,2,53596:0:0:0:0:
448,192,53259,128,0,53596:0:0:0:0:
64,192,53596,1,2,0:0:0:0:
192,192,53596,1,0,0:0:0:0:
320,192,53764,1,8,0:0:0:0:
448,192,53764,1,0,0:0:0:0:
64,192,53933,128,4,54270:0:0:0:0:
192,192,53933,1,2,0:0:0:0:
448,192,53933,128,0,54270:0:0:0:0:
192,192,54270,128,2,54607:0:0:0:0:
320,192,54270,1,0,0:0:0:0:
448,192,54439,1,8,0:0:0:0:
64,192,54607,1,0,0:0:0:0:
192,192,54776,1,4,0:0:0:0:
320,192,54776,128,2,55113:0:0:0:0:
448,192,54776,128,0,55113:0:0:0:0:
64,192,55113,1,8,0:0:0:0:
192,192,55113,1,0,0:0:0:0:
64,192,55281,128,4,55618:0:0:0:0:
320,192,55281,128,2,55618:0:0:0:0:
448,192,55281,1,0,0:0:0:0:
192,192,55618,128,2,55787:0:0:0:0:
448,192,55618,1,0,0:0:0:0:
64,192,55787,1,8,0:0:0:0:
320,192,55787,1,0,0:0:0:0:
64,192,55955,128,4,56293:0:0:0:0:
192,192,55955,1,2,0:0:0:0:
448,192,55955,128,0,56293:0:0:0:0:
192,192,56293,128,2,56461:0:0:0:0:
320,192,56293,1,0,0:0:0:0:
64,192,56461,1,8,0:0:0:0:
448,192,56461,1,0,0:0:0:0:
192,192,56630,128,4,56967:0:0:0:0:
320,192,56630,1,2,0:0:0:0:
448,192,56630,128,0,56967:0:0:0:0:
64,192,56967,128,8,57135:0:0:0:0:
320,192,56967,1,0,0:0:0:0:
192,192,57135,1,8,0:0:0:0:
448,192,57135,1,0,0:0:0:0:
64,192,57304,1,4,0:0:0:0:
320,192,57304,128,2,57641:0:0:0:0:
448,192,57304,128,0,57809:0:0:0:0:
64,192,57641,128,2,57809:0:0:0:0:
192,192,57809,1,8,0:0:0:0:
320,192,57809,1,0,0:0:0:0:
448,192,57978,1,0,0:0:0:0:
320,192,58062,1,8,0:0:0:0:
192,192,58146,1,2,0:0:0:0:
64,192,58315,1,2,0:0:0:0:
448,192,58315,1,0,0:0:0:0:
192,192,58484,1,8,0:0:0:0:
320,192,58484,1,0,0:0:0:0:
64,192,58652,1,4,0:0:0:0:
192,192,58652,1,2,0:0:0:0:
448,192,58652,1,0,0:0:0:0:
320,192,58821,128,0,59158:0:0:0:0:
192,192,58989,1,2,0:0:0:0:
64,192,59158,1,8,0:0:0:0:
448,192,59158,1,0,0:0:0:0:
64,192,59326,128,4,59663:0:0:0:0:
192,192,59326,128,2,59663:0:0:0:0:
320,192,59326,1,0,0:0:0:0:
320,192,59663,1,2,0:0:0:0:
448,192,59663,1,0,0:0:0:0:
64,192,59832,1,8,0:0:0:0:
192,192,59832,1,0,0:0:0:0:
64,192,60000,128,2,60337:0:0:0:0:
320,192,60000,1,4,0:0:0:0:
448,192,60000,128,0,60337:0:0:0:0:
192,192,60337,1,2,0:0:0:0:
320,192,60337,1,0,0:0:0:0:
64,192,60506,1,8,0:0:0:0:
448,192,60506,1,0,0:0:0:0:
192,192,60675,1,0,0:0:0:0:
320,192,60759,1,8,0:0:0:0:
64,192,60843,1,2,0:0:0:0:
448,192,60843,1,0,0:0:0:0:
320,192,61012,1,2,0:0:0:0:
64,192,61180,1,8,0:0:0:0:
192,192,61180,1,0,0:0:0:0:
64,192,61349,128,4,61686:0:0:0:0:
320,192,61349,1,2,0:0:0:0:
448,192,61349,128,0,61686:0:0:0:0:
320,192,61686,1,2,0:0:0:0:
64,192,61854,1,8,0:0:0:0:
192,192,61854,128,0,62191:0:0:0:0:
448,192,62023,1,2,0:0:0:0:
320,192,62191,1,0,0:0:0:0:
64,192,62360,1,8,0:0:0:0:
448,192,62360,1,0,0:0:0:0:
192,192,62444,1,8,0:0:0:0:
320,192,62528,1,8,0:0:0:0:
448,192,62613,1,8,0:0:0:0:
64,192,62697,128,2,63034:0:0:0:0:
192,192,62697,128,4,63034:0:0:0:0:
320,192,63034,1,2,0:0:0:0:
448,192,63034,1,0,0:0:0:0:
64,192,63203,1,8,0:0:0:0:
192,192,63203,1,0,0:0:0:0:
320,192,63371,1,0,0:0:0:0:
192,192,63455,1,8,0:0:0:0:
64,192,63540,1,2,0:0:0:0:
448,192,63540,1,0,0:0:0:0:
192,192,63708,1,2,0:0:0:0:
320,192,63708,1,0,0:0:0:0:
64,192,63877,1,8,0:0:0:0:
320,192,63877,1,0,0:0:0:0:
64,192,64045,1,4,0:0:0:0:
192,192,64045,128,2,64382:0:0:0:0:
448,192,64045,128,0,64382:0:0:0:0:
64,192,64382,1,2,0:0:0:0:
320,192,64382,1,0,0:0:0:0:
192,192,64551,1,8,0:0:0:0:
448,192,64551,1,0,0:0:0:0:
64,192,64719,128,4,65057:0:0:0:0:
320,192,64719,1,2,0:0:0:0:
448,192,64719,128,0,65057:0:0:0:0:
192,192,65057,1,2,0:0:0:0:
320,192,65225,1,8,0:0:0:0:
448,192,65225,1,0,0:0:0:0:
64,192,65394,1,2,0:0:0:0:
192,192,65394,1,0,0:0:0:0:
64,192,65562,1,2,0:0:0:0:
448,192,65562,128,0,65899:0:0:0:0:
320,192,65731,1,8,0:0:0:0:
64,192,65899,1,8,0:0:0:0:
192,192,65899,1,0,0:0:0:0:
320,192,65984,1,0,0:0:0:30:soft-hitclap.wav
448,192,66068,1,0,0:0:0:45:soft-hitclap.wav
192,192,66152,1,8,0:0:0:60:soft-hitclap.wav
64,192,66236,1,8,0:0:0:0:
192,192,66405,1,0,0:0:0:80:Tom1.wav
320,192,66405,128,0,66573:0:0:0:0:
64,192,66573,1,0,0:0:0:80:Tom2.wav
448,192,66573,1,0,0:0:0:0:
64,192,66742,128,4,66910:0:0:0:0:
192,192,66742,128,2,66910:0:0:0:0:
320,192,66742,1,0,0:0:0:0:
192,192,67079,128,2,67248:0:0:0:0:
320,192,67079,128,0,67248:0:0:0:0:
64,192,67416,1,4,0:0:0:0:
320,192,67416,128,2,67585:0:0:0:0:
448,192,67416,128,0,67585:0:0:0:0:
192,192,67711,1,8,0:0:0:0:
448,192,67711,1,0,0:0:0:0:
64,192,67795,1,8,0:0:0:0:
320,192,67879,1,8,0:0:0:0:
192,192,67963,1,8,0:0:0:0:
64,192,68069,128,2,68406:0:0:0:0:
448,192,68069,128,4,68574:0:0:0:0:
320,192,68406,128,2,68574:0:0:0:0:
64,192,68574,1,8,0:0:0:0:
192,192,68574,1,0,0:0:0:0:
320,192,68827,1,8,0:0:0:0:
448,192,68827,1,0,0:0:0:0:
192,192,68911,1,2,0:0:0:0:
64,192,69080,1,2,0:0:0:0:
320,192,69080,1,0,0:0:0:0:
192,192,69248,1,8,0:0:0:0:
448,192,69248,1,0,0:0:0:0:
64,192,69417,128,4,69754:0:0:0:0:
320,192,69417,1,2,0:0:0:0:
448,192,69417,128,0,69754:0:0:0:0:
192,192,69754,1,2,0:0:0:0:
320,192,69754,1,0,0:0:0:0:
64,192,69922,1,8,0:0:0:0:
448,192,69922,1,0,0:0:0:0:
64,192,70112,128,4,70449:0:0:0:0:
192,192,70112,128,2,70449:0:0:0:0:
320,192,70112,1,0,0:0:0:0:
320,192,70449,1,2,0:0:0:0:
448,192,70449,1,0,0:0:0:0:
64,192,70617,1,8,0:0:0:0:
192,192,70617,1,0,0:0:0:0:
64,192,70786,1,4,0:0:0:0:
320,192,70786,128,2,71144:0:0:0:0:
448,192,70786,128,0,71649:0:0:0:0:
192,192,71144,1,0,0:0:0:30:soft-hitwhistle.wav
64,192,71312,1,0,0:0:0:40:soft-hitwhistle.wav
320,192,71481,1,0,0:0:0:50:soft-hitwhistle.wav
64,192,71649,1,0,0:0:0:60:soft-hitwhistle.wav
192,192,71649,1,0,0:0:0:0:
320,192,71818,1,0,0:0:0:70:soft-hitwhistle.wav
448,192,71818,1,0,0:0:0:0:
192,192,71986,1,2,0:0:0:0:
320,192,71986,1,0,0:0:0:0:
64,192,72155,128,4,72492:0:0:0:0:
192,192,72155,1,2,0:0:0:0:
448,192,72155,128,0,72492:0:0:0:0:
192,192,72492,1,2,0:0:0:0:
320,192,72492,1,0,0:0:0:0:
64,192,72660,1,8,0:0:0:0:
448,192,72660,1,0,0:0:0:0:
192,192,72829,1,2,0:0:0:0:
320,192,72829,1,0,0:0:0:0:
320,192,72997,1,8,0:0:0:0:
448,192,72997,1,0,0:0:0:0:
192,192,73166,1,2,0:0:0:0:
448,192,73166,1,0,0:0:0:0:
64,192,73334,1,8,0:0:0:0:
192,192,73334,1,0,0:0:0:0:
64,192,73482,128,2,73819:0:0:0:0:
320,192,73482,1,4,0:0:0:0:
448,192,73482,128,0,73819:0:0:0:0:
192,192,73819,1,2,0:0:0:0:
320,192,73819,1,0,0:0:0:0:
64,192,73987,1,8,0:0:0:0:
448,192,73987,1,0,0:0:0:0:
320,192,74156,1,2,0:0:0:0:
448,192,74156,1,0,0:0:0:0:
64,192,74324,1,2,0:0:0:0:
192,192,74324,1,0,0:0:0:80:Tom1.wav
320,192,74493,1,8,0:0:0:0:
448,192,74493,1,0,0:0:0:0:
192,192,74568,1,8,0:0:0:0:
64,192,74643,1,10,0:0:0:0:
448,192,74717,1,8,0:0:0:0:
320,192,74792,1,8,0:0:0:0:
192,192,74867,1,8,0:0:0:0:
64,192,75000,128,4,75337:0:0:0:0:
448,192,75000,1,2,0:0:0:0:
320,192,75000,1,0,0:0:0:0:
320,192,75337,1,0,0:0:0:0:
448,192,75505,1,0,0:0:0:0:
192,192,75674,128,0,76011:0:0:0:0:
64,192,76011,1,0,0:0:0:0:
448,192,76179,128,0,76348:0:0:0:0:
320,192,76348,1,0,0:0:0:0:
192,192,76516,1,0,0:0:0:0:
448,192,76685,1,0,0:0:0:0:
64,192,76853,1,0,0:0:0:0:
64,192,77022,128,0,77359:0:0:0:0:
320,192,77359,1,0,0:0:0:0:
64,192,77696,1,8,0:0:0:0:
448,192,77696,1,2,0:0:0:0:
64,192,78539,1,2,0:0:0:0:
192,192,78623,1,2,0:0:0:0:
320,192,78707,1,0,0:0:0:70:Tom1.wav
64,192,78876,1,4,0:0:0:0:
192,192,78876,1,2,0:0:0:0:
448,192,78876,128,0,79213:0:0:0:0:
320,192,79213,1,2,0:0:0:0:
320,192,79550,1,2,0:0:0:0:
64,192,79718,1,8,0:0:0:0:
448,192,79718,1,0,0:0:0:0:
64,192,80055,1,8,0:0:0:0:
448,192,80055,1,0,0:0:0:0:
320,192,80224,1,2,0:0:0:0:
64,192,80561,1,8,0:0:0:0:
192,192,80561,1,0,0:0:0:0:
320,192,80898,1,2,0:0:0:0:
64,192,81067,1,8,0:0:0:0:
192,192,81067,1,0,0:0:0:0:
448,192,81235,1,2,0:0:0:0:
192,192,81404,1,8,0:0:0:0:
320,192,81404,128,0,81572:0:0:0:0:
64,192,81572,1,4,0:0:0:0:
192,192,81572,128,2,81909:0:0:0:0:
448,192,81572,1,0,0:0:0:0:
64,192,81909,1,2,0:0:0:0:
64,192,82246,1,2,0:0:0:0:
192,192,82415,1,8,0:0:0:0:
320,192,82415,1,0,0:0:0:0:
64,192,82583,1,2,0:0:0:0:
320,192,82752,1,8,0:0:0:0:
448,192,82752,1,0,0:0:0:0:
64,192,82920,1,4,0:0:0:0:
192,192,82920,1,2,0:0:0:0:
448,192,82920,1,0,0:0:0:0:
192,192,83258,1,8,0:0:0:0:
320,192,83258,1,0,0:0:0:0:
448,192,83426,1,2,0:0:0:0:
64,192,83595,1,0,0:0:0:0:
192,192,83679,1,8,0:0:0:0:
320,192,83763,1,8,0:0:0:0:
192,192,83932,1,8,0:0:0:0:
448,192,83932,1,0,0:0:0:0:
64,192,84100,1,8,0:0:0:0:
320,192,84100,128,0,84269:0:0:0:0:
64,192,84269,1,4,0:0:0:0:
192,192,84269,128,2,84606:0:0:0:0:
448,192,84269,1,0,0:0:0:0:
64,192,84606,1,2,0:0:0:0:
320,192,84774,1,8,0:0:0:0:
448,192,84774,1,0,0:0:0:0:
64,192,84943,1,2,0:0:0:0:
192,192,84943,1,4,0:0:0:0:
448,192,84943,1,0,0:0:0:0:
320,192,85280,1,0,0:0:0:70:Tom1.wav
192,192,85449,1,0,0:0:0:70:Tom2.wav
64,192,85617,1,4,0:0:0:0:
448,192,85617,1,2,0:0:0:0:
320,192,85617,1,0,0:0:0:0:
192,192,85786,1,8,0:0:0:0:
320,192,85842,1,8,0:0:0:0:
64,192,85954,1,2,0:0:0:0:
448,192,85954,1,0,0:0:0:0:
192,192,86123,1,8,0:0:0:0:
320,192,86123,1,0,0:0:0:0:
64,192,86291,1,2,0:0:0:0:
320,192,86291,128,4,86460:0:0:0:70:shortcymbal.wav
448,192,86291,128,0,86460:0:0:0:0:
64,192,86628,128,2,86797:0:0:0:0:
192,192,86628,128,4,86797:0:0:0:70:shortcymbal.wav
448,192,86628,1,0,0:0:0:0:
64,192,86965,128,4,87977:0:0:0:0:
320,192,86965,128,2,87640:0:0:0:0:
448,192,86965,128,0,87471:0:0:0:0:
