osu file format v14

[General]
AudioFilename: audio.mp3
AudioLeadIn: 0
PreviewTime: 54205
Countdown: 0
SampleSet: Soft
StackLeniency: 0.7
Mode: 0
LetterboxInBreaks: 0
WidescreenStoryboard: 0

[Editor]
Bookmarks: 9206,17932,26659,44114,55023,72484,81212,98660,109569,127024,135751,144478,153206,164115,172842,181569,199024
DistanceSpacing: 1.1
BeatDivisor: 4
GridSize: 8
TimelineZoom: 1.3

[Metadata]
Title:Silent Solitude
TitleUnicode:Silent Solitude
Artist:OxT
ArtistUnicode:OxT
Creator:Seto Kousuke
Version:Normal
Source:OVERLORD III
Tags:オーバーロード Season 3 iii Ending Ed Anime Japanese rock jrock NewIpas Ipas Asuka_- srskyplayer senhor
BeatmapID:2084318
BeatmapSetID:996444

[Difficulty]
HPDrainRate:3
CircleSize:3.5
OverallDifficulty:4
ApproachRate:5
SliderMultiplier:1.3
SliderTickRate:1

[Events]
//Background and Video events
0,0,"i78n6WW.jpg",0,0
//Break Periods
2,127264,134592
2,144719,152047
//Storyboard Layer 0 (Background)
//Storyboard Layer 1 (Fail)
//Storyboard Layer 2 (Pass)
//Storyboard Layer 3 (Foreground)
//Storyboard Layer 4 (Overlay)
//Storyboard Sound Samples

[TimingPoints]
520,545.454545454546,4,2,1,45,1,0
9247,-100,4,2,1,70,0,1
26701,-100,4,2,1,45,0,0
41974,-100,4,2,1,50,0,0
44156,-100,4,2,1,60,0,0
52883,-100,4,2,1,45,0,0
55065,-100,4,2,1,70,0,1
72383,-100,4,2,1,70,0,0
72520,-100,4,2,1,70,0,1
81247,-100,4,2,1,55,0,0
84520,-100,4,2,1,65,0,0
85610,-100,4,2,1,55,0,0
93247,-100,4,2,1,65,0,0
94338,-100,4,2,1,55,0,0
96520,-100,4,2,1,65,0,0
107429,-100,4,2,1,55,0,0
108520,-100,4,2,1,70,0,0
109610,-100,4,2,1,70,0,1
127065,-100,4,2,1,60,0,0
144520,-100,4,2,1,45,0,0
152292,-100,4,2,1,60,0,0
159792,-100,4,2,1,70,0,0
161974,-100,4,2,1,50,0,0
163065,-100,4,2,1,70,0,0
164156,-100,4,2,1,60,0,0
172883,-100,4,2,1,80,0,1
194701,-100,4,2,1,50,0,0
195792,-100,4,2,1,30,0,0
196065,-100,4,2,1,40,0,0
196338,-100,4,2,1,50,0,0
196610,-100,4,2,1,60,0,0
197974,-100,4,2,1,50,0,0
198247,-100,4,2,1,65,0,0
198520,-100,4,2,1,75,0,0
198792,-100,4,2,1,85,0,0
199065,-100,4,2,1,60,0,0

[Colours]
Combo1 : 115,114,129
Combo2 : 100,85,121

[HitObjects]
114,302,9247,6,0,P|176:317|227:278,1,130,12|0,0:2|3:0,0:0:0:0:
251,206,10065,2,0,L|248:61,1,130,12|2,0:2|3:2,0:0:0:0:
181,34,10883,2,0,L|106:34,1,65,12|2,0:2|3:2,0:0:0:0:
56,87,11429,6,0,B|25:122|25:122|30:227,1,130,12|0,0:2|3:0,0:0:0:0:
67,273,12247,2,0,P|142:296|198:249,1,130,12|2,0:2|3:2,0:0:0:0:
227,207,13065,1,12,0:2:0:0:
314,336,13610,6,0,B|346:369|377:366|377:366|404:346|411:264,1,130,12|8,0:2|0:2,0:0:0:0:
388,238,14429,2,0,P|391:157|450:122,1,130,4|8,3:2|0:2,0:0:0:0:
497,98,15247,1,0,3:2:0:0:
361,21,15792,2,0,L|202:31,1,130,4|0,3:2|3:2,0:0:0:0:
174,83,16610,2,0,P|159:160|181:236,1,130,12|0,0:2|3:2,0:0:0:0:
237,246,17429,2,0,L|237:326,1,65,4|0,3:3|3:2,0:0:0:0:
194,376,17974,6,0,B|138:368|89:331|89:331|48:328|7:375,2,195,12|14|12,0:2|0:2|0:2,0:0:0:0:
250,321,19883,1,0,3:0:0:0:
322,286,20156,2,0,B|378:294|427:331|427:331|468:334|509:287,2,195,12|14|12,0:2|0:2|0:2,0:0:0:0:
212,175,22338,6,0,P|190:97|225:55,1,130,12|0,0:2|3:0,0:0:0:0:
289,36,23156,2,0,L|430:53,1,130,14|2,0:2|3:2,0:0:0:0:
477,101,23974,1,12,0:2:0:0:
409,241,24520,2,0,L|221:262,1,130,8|0,0:2|0:0,0:0:0:0:
207,226,25338,1,12,0:2:0:0:
191,149,25610,2,0,P|215:85|273:60,1,130,8|0,0:2|3:2,0:0:0:0:
408,130,26701,5,2,0:0:0:0:
209,6,27520,2,0,P|182:21|127:42,2,65,2|0|2,0:0|0:0|0:0,0:0:0:0:
342,86,28610,2,0,P|329:118|332:180,2,65,2|0|2,0:0|0:0|0:0,0:0:0:0:
193,132,29701,2,0,P|176:161|133:196,2,65,2|0|2,0:0|0:0|0:0,0:0:0:0:
173,56,30520,2,0,P|139:44|79:54,1,65,2|2,0:0|0:0,0:0:0:0:
78,275,31610,6,0,P|109:305|152:314,1,65,2|0,0:0|0:0,0:0:0:0:
205,337,32156,2,0,B|260:337|260:337|283:325|283:325|357:322,1,130,2|2,0:0|0:0,0:0:0:0:
481,278,33247,2,0,P|436:207|460:140,1,130,2|2,0:0|0:0,0:0:0:0:
421,10,34338,2,0,P|354:65|160:32,1,260,2|2,0:0|0:0,0:0:0:0:
26,160,36247,6,0,L|4:233,2,65,2|0|2,0:0|0:0|0:0,0:0:0:0:
181,167,37338,2,0,L|203:240,2,65,2|0|2,0:2|0:0|0:2,0:0:0:0:
334,166,38429,2,0,L|312:239,2,65,2|0|2,0:0|0:0|0:0,0:0:0:0:
392,114,39247,2,0,L|464:119,1,65,2|2,0:0|0:0,0:0:0:0:
458,352,40338,6,0,B|342:303|333:382|200:347,1,260,2|0,0:0|0:0,0:0:0:0:
51,310,41974,6,0,B|56:282|69:265|69:265|66:251|63:229|63:229|77:218|88:188|88:188|78:168|75:143|75:143|93:129|100:116|100:116|111:92|109:52|109:52|142:71|144:93|144:93|178:106|178:106|184:140,1,390,2|0,0:0|0:0,0:0:0:0:
273,246,44156,6,0,P|317:196|311:143,2,97.5,0|0|0,3:0|3:0|3:0,0:0:0:0:
162,355,45520,2,0,L|82:342,1,65,0|0,3:0|3:0,0:0:0:0:
30,305,46065,1,0,3:0:0:0:
12,228,46338,2,0,L|27:113,2,97.5,0|0|0,3:0|3:0|3:0,0:0:0:0:
161,272,47701,6,0,L|225:229,1,65,0|0,3:0|3:0,0:0:0:0:
283,197,48247,1,0,3:0:0:0:
345,244,48520,2,0,B|367:280|367:280|358:356,2,97.5,0|0|0,3:0|3:0|3:0,0:0:0:0:
247,122,49883,2,0,B|220:107|220:107|155:110,1,65,0|0,3:0|3:0,0:0:0:0:
108,119,50429,1,0,3:0:0:0:
63,182,50701,2,0,L|73:309,2,97.5,0|0|0,3:0|3:0|3:0,0:0:0:0:
121,37,52065,6,0,L|215:51,1,65,0|0,3:0|3:0,0:0:0:0:
261,28,52610,2,0,L|314:91,1,65,0|0,3:0|3:0,0:0:0:0:
80,352,55065,6,0,P|128:328|144:234,1,130,12|0,0:2|3:0,0:0:0:0:
103,197,55883,2,0,P|79:139|109:55,1,130,12|2,0:2|3:2,0:0:0:0:
163,41,56701,2,0,L|238:48,1,65,12|2,0:2|3:2,0:0:0:0:
304,60,57247,6,0,B|333:98|333:98|331:193,1,130,12|0,0:2|3:0,0:0:0:0:
285,243,58065,2,0,B|248:254|227:273|227:273|207:251|165:244,1,130,12|2,0:2|3:2,0:0:0:0:
92,237,58883,1,12,0:2:0:0:
218,144,59429,6,0,L|377:156,1,130,12|0,0:2|3:0,0:0:0:0:
421,178,60247,2,0,P|463:225|414:282,1,130,12|2,0:2|3:2,0:0:0:0:
376,328,61065,2,0,L|300:315,1,65,12|2,0:2|3:2,0:0:0:0:
243,279,61610,1,8,0:2:0:0:
181,327,61883,2,0,P|100:335|69:289,1,130,12|8,0:2|0:2,0:0:0:0:
19,246,62701,2,0,L|47:104,1,130,12|8,0:2|0:2,0:0:0:0:
177,37,63792,6,0,P|224:45|313:26,1,130,12|0,0:2|3:0,0:0:0:0:
378,54,64610,2,0,P|390:94|360:184,1,130,12|2,0:2|3:2,0:0:0:0:
294,206,65429,2,0,P|258:204|223:184,1,65,12|2,0:2|3:2,0:0:0:0:
177,135,65974,2,0,P|147:125|93:134,1,65,12|0,0:2|3:0,0:0:0:0:
43,161,66520,1,0,3:0:0:0:
8,230,66792,2,0,P|8:277|73:354,1,130,12|8,0:2|0:2,0:0:0:0:
130,359,67610,1,12,0:2:0:0:
273,298,68156,6,0,B|307:264|307:264|305:166,1,130,12|0,0:2|3:0,0:0:0:0:
305,104,68974,2,0,P|345:72|422:105,1,130,12|0,0:2|3:2,0:0:0:0:
478,139,69792,2,0,L|479:224,1,65,12|2,0:2|3:2,0:0:0:0:
492,281,70338,2,0,P|460:325|381:293,1,130,8|0,0:2|3:2,0:0:0:0:
358,241,71156,2,0,P|313:228|249:283,1,130,8|4,0:2|3:3,0:0:0:0:
246,352,71974,1,8,0:2:0:0:
168,216,72520,6,0,B|119:153|132:98|132:98|172:71|178:24,2,195,12|14|12,0:2|0:2|0:2,0:0:0:0:
245,226,74429,1,0,3:2:0:0:
323,215,74701,2,0,B|372:152|358:97|358:97|319:70|313:23,2,195,12|14|12,0:2|0:2|0:2,0:0:0:0:
198,309,76883,2,0,B|148:320|115:371|115:371|102:331|58:305,2,195,12|14|12,0:2|0:2|0:2,0:0:0:0:
343,364,79065,1,8,0:2:0:0:
469,273,79610,1,0,3:0:0:0:
414,214,79883,2,0,L|364:85,1,130,12|4,0:2|3:3,0:0:0:0:
303,47,80701,2,0,L|216:49,1,65,8|0,0:2|3:2,0:0:0:0:
159,52,81247,5,4,0:2:0:0:
38,252,82065,2,0,P|36:289|53:332,2,65,2|0|2,0:0|0:0|0:0,0:0:0:0:
175,177,83156,2,0,P|177:140|160:97,2,65,2|0|2,0:0|0:0|0:0,0:0:0:0:
303,266,84247,2,0,P|305:303|288:346,2,65,0|0|0,0:0|3:0|0:0,0:0:0:0:
269,195,85065,2,0,L|296:129,1,65,0|0,0:0|3:0,0:0:0:0:
336,69,85610,1,2,0:0:0:0:
463,158,86156,6,0,L|473:244,1,65,2|0,0:0|0:0,0:0:0:0:
456,299,86701,2,0,P|411:327|332:298,1,130,0|2,0:0|0:0,0:0:0:0:
217,211,87792,2,0,B|173:228|173:228|123:326,2,130,2|0|2,0:0|0:0|0:0,0:0:0:0:
286,174,89156,1,0,0:0:0:0:
357,205,89429,2,0,L|436:210,2,65,0|2|0,0:0|0:0|0:0,0:0:0:0:
181,50,90792,6,0,L|98:40,2,65,2|0|2,0:0|0:0|0:0,0:0:0:0:
252,188,91883,2,0,L|335:178,2,65,2|0|2,0:0|0:0|0:0,0:0:0:0:
156,311,92974,2,0,L|73:301,2,65,0|0|0,0:0|3:0|0:0,0:0:0:0:
217,358,93792,2,0,L|297:356,1,65,0|0,0:0|3:0,0:0:0:0:
338,302,94338,1,2,0:0:0:0:
251,172,94883,6,0,B|221:178|190:162|190:162|143:188|143:188|90:165|55:194|55:194|60:216|102:222,1,260,2|0,0:0|0:0,0:0:0:0:
194,340,96520,6,0,B|238:342|256:366|256:366|293:362|307:339|307:339|336:341|360:373|360:373|376:344|403:327|403:327|389:312|392:291|392:291|383:270|383:270|407:249|407:249|413:198,1,390,2|0,0:0|0:0,0:0:0:0:
379,58,98701,6,0,B|353:47|353:47|270:57,2,97.5,0|0|0,3:0|3:0|3:0,0:0:0:0:
290,186,100065,2,0,L|213:185,1,65,0|0,3:0|3:0,0:0:0:0:
146,181,100610,1,0,3:0:0:0:
87,233,100883,6,0,B|74:269|74:269|89:346,2,97.5,0|0|0,3:0|3:0|3:0,0:0:0:0:
207,332,102247,2,0,L|276:338,1,65,0|0,3:0|3:0,0:0:0:0:
348,349,102792,1,0,3:0:0:0:
412,304,103065,6,0,B|431:272|431:272|422:212,2,97.5,0|0|0,3:0|3:0|3:0,0:0:0:0:
282,217,104429,2,0,L|280:132,1,65,0|0,3:0|3:0,0:0:0:0:
273,74,104974,1,0,3:0:0:0:
200,43,105247,2,0,B|169:34|169:34|98:44,2,97.5,0|0|0,3:0|3:0|3:0,0:0:0:0:
355,40,106610,6,0,L|430:93,1,65,0|0,3:0|3:0,0:0:0:0:
469,126,107156,2,0,L|466:202,1,65,0|2,3:0|0:0,0:0:0:0:
381,340,108520,6,0,P|353:313|306:300,1,65,0|8,3:0|0:2,0:0:0:0:
259,268,109065,2,0,P|223:271|188:297,1,65,8|8,0:2|0:2,0:0:0:0:
148,345,109610,6,0,P|108:360|48:284,1,130,12|0,0:2|3:0,0:0:0:0:
35,231,110429,2,0,L|131:136,1,130,12|2,0:2|3:2,0:0:0:0:
200,112,111247,1,12,0:2:0:0:
267,155,111520,1,2,3:2:0:0:
337,122,111792,2,0,P|396:127|411:199,1,130,12|0,0:2|3:0,0:0:0:0:
376,254,112610,2,0,L|236:278,1,130,12|2,0:2|3:2,0:0:0:0:
171,295,113429,1,12,0:2:0:0:
70,175,113974,6,0,P|88:115|164:107,1,130,12|0,0:2|3:2,0:0:0:0:
211,145,114792,2,0,P|269:160|346:116,1,130,12|0,0:2|3:2,0:0:0:0:
406,111,115610,2,0,L|481:137,1,65,12|0,0:2|3:2,0:0:0:0:
489,207,116156,2,0,P|484:287|403:336,1,130,12|0,0:2|3:2,0:0:0:0:
374,324,116974,2,0,L|234:307,1,130,12|0,0:2|3:2,0:0:0:0:
187,255,117792,1,12,0:2:0:0:
48,327,118338,6,0,B|31:291|31:291|38:161,1,130,12|0,0:2|3:0,0:0:0:0:
76,134,119156,2,0,B|103:115|121:88|121:88|138:116|184:136,1,130,12|2,0:2|3:2,0:0:0:0:
234,174,119974,1,12,0:2:0:0:
312,174,120247,1,2,3:2:0:0:
369,117,120520,2,0,P|380:83|368:39,1,65,12|0,0:2|3:0,0:0:0:0:
310,11,121065,1,0,3:0:0:0:
238,41,121338,2,0,L|99:58,1,130,12|2,0:2|3:2,0:0:0:0:
44,100,122156,1,12,0:2:0:0:
9,251,122701,6,0,P|46:327|124:311,1,130,12|0,0:2|3:2,0:0:0:0:
155,363,123520,2,0,L|296:341,1,130,12|4,0:2|3:3,0:0:0:0:
350,303,124338,2,0,L|346:208,1,65,12|8,0:2|0:2,0:0:0:0:
342,160,124883,2,0,P|266:109|213:155,1,130,0|8,3:2|0:2,0:0:0:0:
186,177,125701,1,8,0:2:0:0:
130,232,125974,2,0,L|125:298,2,65,0|4|0,3:2|3:3|3:2,0:0:0:0:
109,156,126792,2,0,L|120:83,1,65,4|12,3:3|0:2,0:0:0:0:
215,52,135792,6,0,P|168:55|113:85,1,97.5,4|0,3:2|3:0,0:0:0:0:
190,172,136610,2,0,P|158:207|141:267,1,97.5,0|0,3:0|3:0,0:0:0:0:
226,334,137429,1,0,3:0:0:0:
303,336,137701,1,0,3:0:0:0:
373,306,137974,6,0,P|394:262|397:214,1,97.5,4|0,3:2|3:0,0:0:0:0:
512,195,138792,2,0,P|496:149|464:112,1,97.5,8|0,0:2|3:0,0:0:0:0:
376,35,139610,1,0,3:0:0:0:
299,35,139882,1,0,3:0:0:0:
221,35,140156,6,0,P|174:39|138:93,1,97.5,4|0,3:2|3:0,0:0:0:0:
25,60,140974,2,0,P|2:130|23:158,1,97.5,8|0,0:0|3:0,0:0:0:0:
23,262,141792,2,0,L|109:282,1,65,0|0,3:0|3:0,0:0:0:0:
164,277,142338,6,0,L|233:193,1,97.5,0|0,3:0|3:0,0:0:0:0:
342,204,143156,2,0,L|403:279,1,97.5,0|0,3:0|3:0,0:0:0:0:
325,366,143974,2,0,L|232:364,2,65,4|0|2,3:0|3:0|0:0,0:0:0:0:
411,69,153247,6,0,P|428:135|393:193,1,130,4|4,3:2|0:3,0:0:0:0:
329,220,154065,1,8,0:2:0:0:
214,114,154610,1,4,0:3:0:0:
137,99,154883,2,0,L|58:107,1,65,0|4,3:0|0:3,0:0:0:0:
27,169,155429,6,0,P|3:228|32:300,1,130,0|4,3:2|0:3,0:0:0:0:
88,330,156247,1,8,0:2:0:0:
243,322,156792,1,4,0:3:0:0:
299,268,157065,2,0,L|317:191,1,65,0|4,3:0|0:3,0:0:0:0:
369,150,157610,6,0,P|415:136|471:207,1,130,4|4,3:2|0:3,0:0:0:0:
479,264,158429,1,8,0:2:0:0:
357,361,158974,1,4,0:3:0:0:
279,353,159247,2,0,L|206:354,1,65,0|4,3:0|0:3,0:0:0:0:
141,324,159792,6,0,P|119:285|138:215,2,97.5,12|12|12,0:2|0:2|0:2,0:0:0:0:
276,245,161156,1,0,0:0:0:0:
265,167,161429,2,0,L|265:102,2,65,12|12|2,0:2|0:2|0:0,0:0:0:0:
92,49,163065,5,8,0:2:0:0:
145,105,163338,2,0,L|148:182,1,65,8|0,0:2|3:0,0:0:0:0:
144,247,163883,1,4,3:0:0:0:
80,291,164156,6,0,B|45:296|45:296|14:285|5:281,2,65,4|2|2,3:2|0:0|0:0,0:0:0:0:
141,339,164974,2,0,L|217:337,1,65,2|0,0:0|0:0,0:0:0:0:
432,291,166338,6,0,B|466:296|466:296|497:285|506:281,2,65,4|2|2,3:2|0:0|0:0,0:0:0:0:
371,339,167156,2,0,L|295:337,1,65,2|0,0:0|0:0,0:0:0:0:
80,91,168520,6,0,B|45:85|45:85|14:96|5:100,2,65,4|2|2,3:2|0:0|0:0,0:0:0:0:
141,43,169338,2,0,L|217:45,1,65,2|0,0:0|0:0,0:0:0:0:
432,91,170701,6,0,B|466:85|466:85|497:96|506:100,2,65,4|2|2,3:2|0:0|0:0,0:0:0:0:
371,43,171519,2,0,L|295:45,1,65,2|0,0:0|0:0,0:0:0:0:
250,190,172338,5,12,0:2:0:0:
348,311,172883,6,0,P|393:313|429:298,1,65,12|0,0:2|3:0,0:0:0:0:
460,245,173429,1,0,3:0:0:0:
443,168,173701,2,0,L|317:111,1,130,12|2,0:2|3:2,0:0:0:0:
251,86,174520,1,12,0:2:0:0:
173,95,174793,1,2,3:2:0:0:
119,150,175065,6,0,P|101:194|116:236,1,65,12|0,0:2|3:0,0:0:0:0:
132,282,175610,1,0,3:0:0:0:
210,283,175883,2,0,L|347:237,1,130,12|2,0:2|3:2,0:0:0:0:
401,204,176701,1,12,0:2:0:0:
326,66,177247,6,0,P|281:49|242:49,1,65,12|0,0:2|3:2,0:0:0:0:
186,51,177792,1,0,3:2:0:0:
135,110,178065,2,0,L|157:244,1,130,12|0,0:2|3:2,0:0:0:0:
109,301,178883,2,0,P|75:309|28:296,1,65,12|0,0:2|3:2,0:0:0:0:
3,238,179429,2,0,L|24:109,1,130,12|0,0:2|3:2,0:0:0:0:
76,51,180247,1,8,0:2:0:0:
134,102,180520,2,0,P|167:108|221:97,1,65,0|4,3:2|3:3,0:0:0:0:
253,50,181065,1,0,3:2:0:0:
384,132,181610,6,0,L|416:220,1,65,12|0,0:2|3:0,0:0:0:0:
410,271,182156,1,0,3:0:0:0:
345,314,182429,2,0,P|276:322|194:298,1,130,12|2,0:2|3:2,0:0:0:0:
164,251,183247,1,12,0:2:0:0:
190,177,183520,1,2,3:2:0:0:
153,110,183792,2,0,P|113:84|86:95,1,65,12|0,0:2|3:0,0:0:0:0:
28,120,184338,1,0,3:0:0:0:
11,195,184610,2,0,L|20:331,1,130,12|2,0:2|3:2,0:0:0:0:
84,369,185429,1,12,0:2:0:0:
239,360,185974,6,0,L|262:278,1,65,12|0,0:2|3:2,0:0:0:0:
303,234,186520,1,0,3:2:0:0:
380,243,186792,2,0,P|428:236|454:163,1,130,12|0,0:2|3:2,0:0:0:0:
445,88,187610,2,0,L|389:40,1,65,12|0,0:2|3:2,0:0:0:0:
319,27,188156,2,0,P|254:15|182:55,1,130,8|4,0:2|3:3,0:0:0:0:
144,97,188974,2,0,L|153:238,1,130,8|4,0:2|3:3,0:0:0:0:
168,303,189792,1,8,0:2:0:0:
315,353,190338,6,0,P|379:347|396:332,1,65,12|0,0:2|3:0,0:0:0:0:
430,290,190883,1,0,3:0:0:0:
415,213,191156,2,0,L|367:80,1,130,12|2,0:2|3:2,0:0:0:0:
313,37,191974,1,12,0:2:0:0:
237,57,192247,1,2,3:2:0:0:
160,37,192520,2,0,P|117:38|86:66,1,65,12|0,0:2|3:0,0:0:0:0:
51,110,193065,1,0,3:0:0:0:
57,187,193338,2,0,L|116:318,1,130,12|2,0:2|3:2,0:0:0:0:
179,342,194156,2,0,L|253:344,1,65,12|2,0:2|3:2,0:0:0:0:
301,291,194701,6,0,L|303:210,2,65,0|0|0,3:0|3:0|3:0,0:0:0:0:
349,352,195520,2,0,L|424:359,1,65,0|8,3:0|0:2,0:0:0:0:
490,222,196338,1,8,0:2:0:0:
374,117,196883,2,0,L|382:38,2,65,4|4|4,3:2|3:2|3:2,0:0:0:0:
312,165,197701,2,0,L|235:171,1,65,4|8,3:2|0:2,0:0:0:0:
90,169,198520,1,8,0:2:0:0:
53,320,199065,6,0,L|9:387,2,65,2|0|0,0:0|0:0|0:0,0:0:0:0:
124,289,199883,1,2,0:0:0:0:
48,152,201247,6,0,L|4:219,2,65,2|0|0,0:0|0:0|0:0,0:0:0:0:
119,121,202065,1,2,0:0:0:0:
53,320,203429,6,0,L|9:387,2,65,2|0|0,0:0|0:0|0:0,0:0:0:0:
124,289,204247,1,2,0:0:0:0:
48,152,205610,6,0,L|4:219,2,65,2|0|0,0:0|0:0|0:0,0:0:0:0:
120,121,206429,2,0,B|143:110|143:110|160:128|160:128|179:111|179:111|206:126|206:126|234:106|234:106|259:129|259:129|279:108|279:108|305:129|305:129|332:106|332:106|357:128|357:128|388:100,1,325,2|0,0:0|0:0,0:0:0:0:
