osu file format v14

[General]
AudioFilename: audio.mp3
AudioLeadIn: 0
PreviewTime: 54205
Countdown: 0
SampleSet: Soft
StackLeniency: 0.7
Mode: 0
LetterboxInBreaks: 0
WidescreenStoryboard: 1

[Editor]
Bookmarks: 9206,17932,26659,44114,55023,72484,81212,98660,109569,127024,135751,144478,153206,164115,172842,181569,199024
DistanceSpacing: 3.5
BeatDivisor: 12
GridSize: 8
TimelineZoom: 1.3

[Metadata]
Title:Silent Solitude
TitleUnicode:Silent Solitude
Artist:OxT
ArtistUnicode:OxT
Creator:Seto Kousuke
Version:Asuka_-'s Hard
Source:OVERLORD III
Tags:オーバーロード Season 3 iii Ending Ed Anime Japanese rock jrock NewIpas Ipas Asuka_- srskyplayer senhor
BeatmapID:2084315
BeatmapSetID:996444

[Difficulty]
HPDrainRate:5
CircleSize:3.8
OverallDifficulty:6
ApproachRate:7.5
SliderMultiplier:1.7
SliderTickRate:1

[Events]
//Background and Video events
0,0,"i78n6WW.jpg",0,0
//Break Periods
2,127024,133649
2,144720,151058
//Storyboard Layer 0 (Background)
//Storyboard Layer 1 (Fail)
//Storyboard Layer 2 (Pass)
//Storyboard Layer 3 (Foreground)
//Storyboard Layer 4 (Overlay)
//Storyboard Sound Samples

[TimingPoints]
520,545.454545454546,4,2,1,45,1,0
9247,-100,4,2,1,70,0,0
26701,-142.857142857143,4,2,1,45,0,0
41974,-142.857142857143,4,2,1,50,0,0
44156,-142.857142857143,4,2,1,60,0,0
52883,-142.857142857143,4,2,1,45,0,0
55065,-76.9230769230769,4,2,1,70,0,1
72383,-100,4,2,1,70,0,0
72520,-100,4,2,1,70,0,1
81247,-142.857142857143,4,2,1,55,0,0
84520,-142.857142857143,4,2,1,65,0,0
85610,-142.857142857143,4,2,1,55,0,0
93247,-142.857142857143,4,2,1,65,0,0
94338,-142.857142857143,4,2,1,55,0,0
96520,-142.857142857143,4,2,1,65,0,0
107429,-142.857142857143,4,2,1,55,0,0
108520,-142.857142857143,4,2,1,70,0,0
109610,-76.9230769230769,4,2,1,70,0,1
126247,-100,4,2,1,70,0,1
127065,-100,4,2,1,60,0,0
144520,-100,4,2,1,45,0,0
151883,-125,4,2,1,45,0,0
152292,-125,4,2,1,60,0,0
153247,-111.111111111111,4,2,1,60,0,0
159792,-111.111111111111,4,2,1,70,0,0
161974,-166.666666666667,4,2,1,50,0,0
163065,-166.666666666667,4,2,1,70,0,0
164156,-333.333333333333,4,2,1,60,0,0
172883,-166.666666666667,4,2,1,80,0,0
177247,-125,4,2,1,80,0,0
180792,-100,4,2,1,80,0,0
181610,-76.9230769230769,4,2,1,80,0,1
194701,-111.111111111111,4,2,1,50,0,0
195792,-111.111111111111,4,2,1,30,0,0
196065,-111.111111111111,4,2,1,40,0,0
196338,-111.111111111111,4,2,1,50,0,0
196610,-111.111111111111,4,2,1,60,0,0
197974,-111.111111111111,4,2,1,50,0,0
198247,-111.111111111111,4,2,1,65,0,0
198520,-111.111111111111,4,2,1,75,0,0
198792,-111.111111111111,4,2,1,85,0,0
199065,-166.666666666667,4,2,1,60,0,0

[Colours]
Combo1 : 115,114,129
Combo2 : 100,85,121

[HitObjects]
75,247,9247,6,0,L|89:183,1,42.5,12|0,0:2|0:0,0:0:0:0:
105,149,9520,2,0,L|98:97,1,42.5,0|0,3:0|0:0,0:0:0:0:
70,54,9792,2,0,P|116:20|214:81,1,170,0|0,3:0|0:0,0:0:0:0:
278,160,10610,2,0,L|382:143,2,85,2|12|2,3:2|0:2|3:2,0:0:0:0:
250,276,11429,6,0,L|316:290,1,42.5,12|0,0:2|0:0,0:0:0:0:
343,255,11701,2,0,L|400:246,1,42.5,0|0,3:0|0:0,0:0:0:0:
437,277,11974,2,0,P|486:232|452:133,1,170,0|0,3:0|0:0,0:0:0:0:
355,88,12792,2,0,L|374:-21,2,85,2|12|2,3:2|0:2|3:2,0:0:0:0:
243,130,13610,6,0,L|259:31,1,85,12|0,0:2|3:2,0:0:0:0:
138,27,14156,2,0,L|87:33,2,42.5,8|8|4,0:2|0:2|3:2,0:0:0:0:
118,144,14701,6,0,L|47:154,4,42.5,0|0|8|8|0,3:2|3:2|0:2|0:2|3:2,0:0:0:0:
85,258,15520,1,8,0:2:0:0:
85,258,15792,5,4,3:2:0:0:
203,267,16065,2,0,L|195:327,2,42.5,8|8|0,0:2|0:2|3:2,0:0:0:0:
322,263,16610,1,12,0:2:0:0:
439,282,16883,2,0,L|452:229,3,42.5,8|8|0|0,0:2|0:2|3:2|3:2,0:0:0:0:
427,184,17429,2,0,L|417:133,3,42.5,4|4|0|4,3:3|3:3|3:2|3:3,0:0:0:0:
449,91,17974,5,12,0:2:0:0:
341,40,18246,1,0,3:0:0:0:
279,141,18519,1,0,3:0:0:0:
341,40,18792,6,0,P|265:13|187:70,2,170,14|2|2,0:2|3:2|3:2,0:0:0:0:
279,141,20156,5,12,0:2:0:0:
359,228,20428,1,0,3:0:0:0:
287,323,20701,1,0,3:0:0:0:
359,228,20974,6,0,P|437:208|503:278,2,170,14|2|2,0:2|3:2|3:2,0:0:0:0:
283,320,22337,5,12,0:2:0:0:
183,253,22610,1,0,3:0:0:0:
114,350,22883,1,0,3:0:0:0:
183,253,23156,6,0,P|223:194|163:100,2,170,14|2|2,0:2|3:2|3:2,0:0:0:0:
113,350,24520,5,8,0:2:0:0:
36,260,24792,1,0,3:2:0:0:
127,182,25065,2,0,L|42:164,1,85,0|12,0:0|0:2,0:0:0:0:
117,70,25610,2,0,L|105:15,2,42.5,8|8|0,0:2|0:2|3:2,0:0:0:0:
234,91,26156,2,0,L|226:147,2,42.5,0|0|0,3:2|3:2|3:2,0:0:0:0:
344,61,26701,5,2,0:0:0:0:
495,259,27519,2,0,L|486:325,2,59.4999981842042,2|0|2,0:0|0:0|0:0,0:0:0:0:
330,231,28610,2,0,L|317:163,2,59.4999981842042,2|0|2,0:0|0:0|0:0,0:0:0:0:
188,319,29701,1,2,0:0:0:0:
188,319,29974,2,0,L|196:247,1,59.4999981842042,0|2,0:0|0:0,0:0:0:0:
114,236,30519,2,0,L|105:316,1,59.4999981842042,2|2,0:0|0:0,0:0:0:0:
133,374,31064,5,0,0:0:0:0:
290,318,31610,2,0,P|346:307|401:351,2,118.999996368408,2|2|2,0:0|0:0|0:0,0:0:0:0:
222,367,32974,1,0,0:0:0:0:
222,367,33246,2,0,L|204:232,1,118.999996368408,2|2,0:0|0:0,0:0:0:0:
270,94,34337,1,2,0:0:0:0:
359,234,34883,1,2,0:0:0:0:
455,98,35428,5,2,0:0:0:0:
210,48,36247,2,0,L|150:37,2,59.4999981842042,0|0|2,0:0|0:0|0:0,0:0:0:0:
346,143,37337,2,0,L|410:129,2,59.4999981842042,2|0|2,0:2|0:0|0:2,0:0:0:0:
193,209,38428,1,2,0:0:0:0:
193,209,38701,2,0,L|125:197,1,59.4999981842042,0|2,0:0|0:0,0:0:0:0:
110,278,39247,2,0,L|192:291,1,59.4999981842042,2|2,0:0|0:0,0:0:0:0:
247,259,39792,1,0,0:0:0:0:
388,346,40338,6,0,B|404:210,2,118.999996368408,2|0|0,0:0|0:0|0:0,0:0:0:0:
304,352,41701,1,0,0:0:0:0:
304,352,41974,2,0,L|315:275,1,59.4999981842042,0|0,0:0|0:0,0:0:0:0:
231,270,42520,2,0,L|219:350,1,59.4999981842042,0|0,0:0|0:0,0:0:0:0:
143,355,43065,2,0,L|110:342,6,19.8333327280681,0|0|0|0|0|0|0,0:0|0:0|0:0|0:0|0:0|0:0|0:0,0:0:0:0:
181,192,44156,6,0,P|151:177|113:180,1,59.4999981842042,0|0,3:0|0:0,0:0:0:0:
86,191,44564,2,0,L|77:92,1,89.2499972763062,0|0,3:0|3:0,0:0:0:0:
226,26,45519,1,0,3:0:0:0:
280,89,45792,1,0,3:0:0:0:
198,105,46064,1,0,3:0:0:0:
226,26,46338,6,0,P|256:11|297:11,1,59.4999981842042,0|0,3:0|0:0,0:0:0:0:
319,25,46746,2,0,L|426:18,1,89.2499972763062,0|0,3:0|3:0,0:0:0:0:
386,184,47701,1,0,3:0:0:0:
430,113,47974,1,0,3:0:0:0:
471,184,48246,1,0,3:0:0:0:
386,184,48519,6,0,P|361:172|317:172,1,59.4999981842042,0|0,3:0|0:0,0:0:0:0:
294,192,48928,2,0,L|306:306,1,89.2499972763062,0|0,3:0|3:0,0:0:0:0:
156,359,49883,1,0,3:0:0:0:
193,284,50155,1,0,3:0:0:0:
239,352,50428,1,0,3:0:0:0:
156,359,50701,6,0,P|126:351|75:352,1,59.4999981842042,0|0,3:0|0:0,0:0:0:0:
57,360,51110,2,0,L|47:260,1,89.2499972763062,0|0,3:0|3:0,0:0:0:0:
119,120,52064,1,0,3:0:0:0:
171,184,52337,1,0,3:0:0:0:
88,198,52610,1,0,3:0:0:0:
119,120,52883,5,0,3:0:0:0:
256,192,53019,12,0,54246,0:0:0:0:
124,384,55065,6,0,L|112:316,1,55.2499974708558,12|0,0:2|0:0,0:0:0:0:
187,304,55338,2,0,L|198:366,1,55.2499974708558,0|0,3:0|0:0,0:0:0:0:
130,249,55610,2,0,B|169:224|169:224|239:236,2,110.499994941712,0|12|0,3:0|0:2|0:0,0:0:0:0:
42,120,56429,2,0,L|111:111,1,55.2499974708558,2|2,3:2|0:2,0:0:0:0:
137,47,56701,2,0,P|174:102|156:157,1,110.499994941712,12|2,0:2|3:2,0:0:0:0:
290,235,57247,6,0,L|357:226,1,55.2499974708558,12|0,0:2|0:0,0:0:0:0:
344,149,57520,2,0,L|277:158,1,55.2499974708558,0|0,3:0|0:0,0:0:0:0:
401,88,57792,2,0,B|428:134|428:134|412:213,2,110.499994941712,0|12|0,3:0|0:2|0:0,0:0:0:0:
252,45,58610,2,0,P|239:73|245:117,1,55.2499974708558,2|2,3:2|0:2,0:0:0:0:
289,156,58883,2,0,P|238:133|183:157,1,110.499994941712,12|2,0:2|3:2,0:0:0:0:
98,276,59429,6,0,B|152:296|152:296|213:280,1,110.499994941712,12|0,0:2|3:0,0:0:0:0:
289,156,59974,1,0,3:0:0:0:
418,241,60247,2,0,P|447:199|429:125,1,110.499994941712,12|0,0:2|3:0,0:0:0:0:
335,29,60792,2,0,P|297:26|262:53,1,55.2499974708558,2|2,3:2|0:2,0:0:0:0:
220,80,61065,2,0,L|92:61,1,110.499994941712,12|2,0:2|3:2,0:0:0:0:
47,205,61610,6,0,L|170:225,1,110.499994941712,8|12,0:2|0:2,0:0:0:0:
282,313,62156,2,0,L|341:319,2,55.2499974708558,0|0|8,3:2|3:2|0:2,0:0:0:0:
141,378,62701,1,12,0:2:0:0:
156,222,62974,2,0,P|179:192|205:177,1,55.2499974708558,0|0,3:2|3:2,0:0:0:0:
201,105,63247,2,0,P|232:112|265:138,1,55.2499974708558,8|8,0:2|0:2,0:0:0:0:
328,113,63520,1,0,3:2:0:0:
422,234,63792,6,0,L|409:310,1,55.2499974708558,12|0,0:2|0:0,0:0:0:0:
335,297,64065,2,0,L|348:211,1,55.2499974708558,0|0,3:0|0:0,0:0:0:0:
382,359,64338,2,0,B|329:376|329:376|264:347,2,110.499994941712,0|12|0,3:0|0:2|0:0,0:0:0:0:
491,249,65156,2,0,L|502:165,1,55.2499974708558,2|2,3:2|0:2,0:0:0:0:
472,120,65429,2,0,P|418:93|357:125,1,110.499994941712,12|2,0:2|3:2,0:0:0:0:
249,201,65974,6,0,L|160:210,1,55.2499974708558,12|0,0:2|0:0,0:0:0:0:
184,129,66247,2,0,L|254:121,1,55.2499974708558,0|0,3:0|0:0,0:0:0:0:
122,81,66520,2,0,B|102:125|102:125|124:190,2,110.499994941712,0|12|0,3:0|0:2|0:0,0:0:0:0:
264,19,67338,1,8,0:2:0:0:
412,59,67610,1,12,0:2:0:0:
265,108,67883,1,2,3:2:0:0:
416,139,68156,6,0,P|437:189|402:248,1,110.499994941712,12|0,0:2|3:0,0:0:0:0:
284,320,68701,1,0,3:0:0:0:
147,246,68974,2,0,L|19:234,1,110.499994941712,12|0,0:2|3:0,0:0:0:0:
134,357,69520,1,0,3:2:0:0:
245,250,69792,1,12,0:2:0:0:
146,130,70065,1,2,3:2:0:0:
36,235,70338,6,0,L|29:155,2,55.2499974708558,8|8|0,0:2|0:2|3:2,0:0:0:0:
166,318,70883,1,0,3:2:0:0:
307,255,71156,2,0,P|339:253|372:273,1,55.2499974708558,8|8,0:2|0:2,0:0:0:0:
407,323,71429,2,0,L|427:203,1,110.499994941712,0|4,3:0|3:3,0:0:0:0:
365,71,71974,2,0,L|421:61,2,55.2499974708558,8|8|0,0:2|0:2|3:2,0:0:0:0:
288,163,72520,5,12,0:2:0:0:
212,71,72792,1,0,3:0:0:0:
136,163,73065,1,0,3:0:0:0:
212,71,73338,6,0,P|141:31|60:77,2,170,14|2|2,0:2|3:2|3:2,0:0:0:0:
136,163,74701,5,12,0:2:0:0:
219,248,74974,1,0,3:0:0:0:
132,330,75247,1,0,3:0:0:0:
219,248,75520,6,0,P|297:228|363:298,2,170,14|8|8,0:2|0:2|0:2,0:0:0:0:
132,329,76883,5,12,0:2:0:0:
64,230,77156,1,0,3:0:0:0:
141,139,77429,1,0,3:0:0:0:
64,230,77701,6,0,P|16:165|44:77,2,170,14|2|2,0:2|3:2|3:2,0:0:0:0:
177,267,79065,2,0,L|254:243,1,42.5,8|8,0:2|0:2,0:0:0:0:
276,247,79338,2,0,L|337:260,1,42.5,0|0,3:2|3:2,0:0:0:0:
376,264,79610,2,0,L|437:253,1,42.5,0|0,3:2|3:2,0:0:0:0:
472,231,79883,6,0,P|513:303|449:374,2,170,12|4|0,0:2|3:3|3:2,0:0:0:0:
382,151,81247,5,4,0:2:0:0:
173,288,82065,2,0,L|99:272,2,59.4999981842042,2|0|2,0:0|0:0|0:0,0:0:0:0:
327,226,83156,2,0,L|391:209,2,59.4999981842042,2|0|2,0:0|0:0|0:0,0:0:0:0:
168,174,84247,1,0,0:0:0:0:
168,174,84520,2,0,L|91:156,1,59.4999981842042,0|0,3:0|0:0,0:0:0:0:
116,77,85065,2,0,L|193:93,1,59.4999981842042,0|0,0:0|3:0,0:0:0:0:
241,138,85610,5,2,0:0:0:0:
403,175,86156,2,0,P|427:124|398:51,2,118.999996368408,2|0|2,0:0|0:0|0:0,0:0:0:0:
354,242,87520,1,0,0:0:0:0:
354,242,87792,2,0,L|473:221,1,118.999996368408,2|0,0:0|0:0,0:0:0:0:
393,368,88883,1,2,0:0:0:0:
260,266,89429,1,0,0:0:0:0:
140,382,89974,5,0,0:0:0:0:
71,141,90792,2,0,L|58:208,2,59.4999981842042,2|0|2,0:0|0:0|0:0,0:0:0:0:
227,84,91883,2,0,L|212:17,2,59.4999981842042,2|0|2,0:0|0:0|0:0,0:0:0:0:
388,125,92974,1,0,0:0:0:0:
388,125,93247,2,0,L|376:193,1,59.4999981842042,0|0,3:0|0:0,0:0:0:0:
460,187,93792,2,0,L|472:106,1,59.4999981842042,0|0,0:0|3:0,0:0:0:0:
432,52,94338,1,2,0:0:0:0:
268,23,94883,6,0,B|225:26|225:26|198:42|198:42|139:44,2,118.999996368408,2|0|0,0:0|0:0|0:0,0:0:0:0:
347,47,96247,1,0,0:0:0:0:
347,47,96520,2,0,P|353:77|341:120,1,59.4999981842042,0|0,0:0|0:0,0:0:0:0:
305,176,97065,2,0,P|302:208|313:258,1,59.4999981842042,0|0,0:0|0:0,0:0:0:0:
358,299,97610,2,0,L|388:292,6,19.8333327280681,0|0|0|0|0|0|0,0:0|0:0|0:0|0:0|0:0|0:0|0:0,0:0:0:0:
193,328,98701,6,0,P|160:339|128:340,1,59.4999981842042,0|0,3:0|0:0,0:0:0:0:
98,320,99110,2,0,L|108:220,1,89.2499972763062,0|0,3:0|3:0,0:0:0:0:
160,73,100065,1,0,3:0:0:0:
108,138,100338,1,0,3:0:0:0:
79,59,100610,1,0,3:0:0:0:
160,73,100883,6,0,P|194:70|233:62,1,59.4999981842042,0|0,3:0|0:0,0:0:0:0:
256,47,101292,2,0,L|247:160,1,89.2499972763062,0|0,3:0|3:0,0:0:0:0:
272,301,102247,1,0,3:0:0:0:
325,237,102520,1,0,3:0:0:0:
353,315,102792,1,0,3:0:0:0:
272,301,103065,6,0,P|247:289|203:289,1,59.4999981842042,0|0,3:0|0:0,0:0:0:0:
185,316,103474,2,0,L|170:222,1,89.2499972763062,0|0,3:0|3:0,0:0:0:0:
290,112,104429,1,0,3:0:0:0:
216,72,104701,1,0,3:0:0:0:
286,28,104974,1,0,3:0:0:0:
290,112,105247,6,0,P|281:142|279:191,1,59.4999981842042,0|0,3:0|0:0,0:0:0:0:
299,205,105656,2,0,L|410:194,1,89.2499972763062,0|0,3:0|3:0,0:0:0:0:
423,358,106610,1,0,3:0:0:0:
376,288,106883,1,0,3:0:0:0:
341,364,107156,1,0,3:0:0:0:
423,358,107429,5,2,0:0:0:0:
256,192,107565,12,0,108792,0:0:0:0:
75,77,109610,6,0,L|148:68,1,55.2499974708558,12|0,0:2|0:0,0:0:0:0:
148,145,109883,2,0,L|74:154,1,55.2499974708558,0|0,3:0|0:0,0:0:0:0:
205,89,110156,2,0,B|230:128|230:128|218:198,2,110.499994941712,0|12|0,3:0|0:2|0:0,0:0:0:0:
140,230,110974,2,0,L|148:308,1,55.2499974708558,2|2,3:2|0:2,0:0:0:0:
119,357,111247,2,0,P|182:317|234:346,1,110.499994941712,12|2,0:2|3:2,0:0:0:0:
365,356,111792,6,0,L|370:301,1,55.2499974708558,12|0,0:2|0:0,0:0:0:0:
447,296,112065,2,0,L|443:373,1,55.2499974708558,0|0,3:0|0:0,0:0:0:0:
404,231,112337,2,0,B|451:215|451:215|510:241,2,110.499994941712,0|12|0,3:0|0:2|0:0,0:0:0:0:
256,278,113156,2,0,P|223:272|195:247,1,55.2499974708558,2|2,3:2|0:2,0:0:0:0:
140,300,113428,2,0,P|134:231|175:190,1,110.499994941712,12|2,0:2|3:2,0:0:0:0:
266,90,113974,6,0,B|138:73,1,110.499994941712,12|0,0:2|3:2,0:0:0:0:
15,139,114519,1,0,3:2:0:0:
157,200,114792,2,0,L|287:219,1,110.499994941712,12|0,0:2|3:2,0:0:0:0:
419,191,115338,2,0,P|435:158|435:118,1,55.2499974708558,0|0,3:2|3:2,0:0:0:0:
503,100,115610,2,0,P|446:63|382:89,1,110.499994941712,12|0,0:2|3:2,0:0:0:0:
258,105,116156,6,0,L|268:244,1,110.499994941712,12|0,0:2|3:2,0:0:0:0:
376,324,116701,2,0,L|385:388,2,55.2499974708558,0|0|12,3:2|3:2|0:2,0:0:0:0:
494,224,117246,1,0,3:2:0:0:
443,76,117520,2,0,P|414:77|380:106,1,55.2499974708558,0|0,3:2|3:2,0:0:0:0:
327,46,117792,2,0,P|314:74|318:121,1,55.2499974708558,12|0,0:2|0:0,0:0:0:0:
260,156,118065,1,0,3:2:0:0:
125,80,118337,6,0,L|113:154,1,55.2499974708558,12|0,0:2|0:0,0:0:0:0:
38,134,118610,2,0,L|51:48,1,55.2499974708558,0|0,3:0|0:0,0:0:0:0:
77,206,118883,2,0,B|116:218|116:218|184:199,2,110.499994941712,0|12|0,3:0|0:2|0:0,0:0:0:0:
194,306,119701,2,0,L|282:322,1,55.2499974708558,2|2,3:2|0:2,0:0:0:0:
296,377,119974,2,0,P|325:323|294:255,1,110.499994941712,12|2,0:2|3:2,0:0:0:0:
302,123,120519,6,0,L|239:117,1,55.2499974708558,12|0,0:2|0:0,0:0:0:0:
230,193,120792,2,0,L|310:200,1,55.2499974708558,0|0,3:0|0:0,0:0:0:0:
173,141,121065,2,0,B|149:182|149:182|166:245,2,110.499994941712,0|12|0,3:0|0:2|0:0,0:0:0:0:
291,41,121883,1,2,3:2:0:0:
145,0,122155,1,12,0:2:0:0:
30,104,122428,1,8,0:2:0:0:
63,260,122701,6,0,P|126:266|179:223,1,110.499994941712,12|0,0:2|3:2,0:0:0:0:
271,130,123246,1,0,3:2:0:0:
354,260,123519,2,0,L|340:388,1,110.499994941712,12|0,0:2|3:2,0:0:0:0:
472,285,124065,1,4,3:3:0:0:
379,161,124337,1,12,0:2:0:0:
486,49,124610,1,8,0:2:0:0:
379,161,124883,6,0,L|310:147,2,55.2499974708558,0|0|0,3:2|3:2|3:2,0:0:0:0:
472,285,125429,1,8,0:2:0:0:
318,274,125701,2,0,P|288:275|253:301,1,55.2499974708558,8|8,0:2|0:2,0:0:0:0:
202,330,125974,2,0,P|176:331|134:315,1,55.2499974708558,0|0,3:2|3:2,0:0:0:0:
71,305,126247,6,0,B|44:246|44:246|88:120,1,170,4|4,3:3|3:3,0:0:0:0:
205,259,134701,6,0,L|215:304,2,42.5,8|4|0,0:2|0:3|3:0,0:0:0:0:
118,341,135247,2,0,L|101:241,1,85,8|8,0:2|0:2,0:0:0:0:
66,210,135656,1,8,0:2:0:0:
66,210,135792,6,0,L|130:198,1,42.5,4|0,3:2|0:0,0:0:0:0:
150,90,136201,2,0,L|206:98,1,42.5,0|0,3:0|0:0,0:0:0:0:
248,200,136610,2,0,L|300:187,1,42.5,0|0,3:0|0:0,0:0:0:0:
325,75,137020,2,0,L|427:93,1,85,0|0,3:0|0:0,0:0:0:0:
466,75,137429,1,0,3:0:0:0:
404,176,137701,1,0,3:0:0:0:
487,260,137974,6,0,L|478:317,1,42.5,4|0,3:2|0:0,0:0:0:0:
373,354,138383,2,0,L|363:298,1,42.5,0|0,3:0|0:0,0:0:0:0:
252,273,138792,2,0,L|246:327,1,42.5,8|8,0:2|0:0,0:0:0:0:
137,361,139201,2,0,L|125:247,1,85,0|0,3:0|0:0,0:0:0:0:
142,218,139610,1,0,3:0:0:0:
28,182,139883,1,0,3:0:0:0:
107,93,140156,6,0,L|124:22,1,42.5,4|0,3:2|0:0,0:0:0:0:
231,19,140565,2,0,L|242:76,1,42.5,0|0,3:0|0:0,0:0:0:0:
350,102,140974,2,0,L|361:53,1,42.5,8|8,0:0|0:0,0:0:0:0:
470,18,141383,2,0,L|484:80,1,42.5,0|0,3:0|0:0,0:0:0:0:
445,173,141792,1,0,3:0:0:0:
494,281,142065,1,0,3:0:0:0:
445,173,142338,6,0,L|399:187,1,42.5,0|8,3:0|3:2,0:0:0:0:
308,255,142747,2,0,L|260:249,1,42.5,0|0,3:0|3:0,0:0:0:0:
173,175,143156,2,0,L|126:189,2,42.5,0|0|8,3:0|3:0|0:2,0:0:0:0:
224,143,143565,2,0,P|241:100|227:49,1,85,0|4,3:0|3:0,0:0:0:0:
187,25,143974,1,4,3:0:0:0:
96,102,144247,1,0,3:0:0:0:
13,15,144520,5,2,0:0:0:0:
170,166,151883,6,0,L|56:188,1,102,2|4,0:0|0:3,0:0:0:0:
23,190,152429,2,0,L|33:111,2,68,4|4|0,0:3|0:3|3:0,0:0:0:0:
76,284,153247,6,0,P|132:283|159:261,1,76.4999976654053,4|0,3:2|0:0,0:0:0:0:
191,241,153656,2,0,L|211:342,1,76.4999976654053,4|0,0:3|3:0,0:0:0:0:
191,367,154065,1,8,0:2:0:0:
371,252,154610,1,4,0:3:0:0:
445,328,154883,1,0,3:0:0:0:
340,354,155156,1,4,0:3:0:0:
371,252,155429,6,0,P|388:215|362:155,1,76.4999976654053,0|0,3:2|3:0,0:0:0:0:
367,129,155838,2,0,L|277:137,1,76.4999976654053,4|0,0:3|3:0,0:0:0:0:
255,176,156247,1,8,0:2:0:0:
50,112,156792,1,4,0:3:0:0:
134,46,157065,1,0,3:0:0:0:
155,150,157338,1,4,0:3:0:0:
50,112,157610,6,0,P|32:148|35:196,1,76.4999976654053,4|0,3:2|3:0,0:0:0:0:
44,236,158020,2,0,L|142:229,1,76.4999976654053,4|0,0:3|0:0,0:0:0:0:
170,250,158429,1,8,0:2:0:0:
381,216,158974,1,4,0:3:0:0:
280,179,159247,1,0,3:0:0:0:
361,109,159520,1,4,0:3:0:0:
381,216,159792,6,0,L|368:315,1,76.4999976654053,12|0,0:2|0:0,0:0:0:0:
348,340,160201,2,0,P|305:349|256:321,1,76.4999976654053,12|0,0:2|0:0,0:0:0:0:
243,295,160610,1,12,0:2:0:0:
60,182,161156,5,12,0:2:0:0:
160,143,161429,1,12,0:2:0:0:
256,188,161701,1,12,0:2:0:0:
361,149,161974,6,0,B|399:105|352:45|352:45|280:66|280:66|195:46,1,254.999992218018,2|8,0:0|0:2,0:0:0:0:
216,51,164156,6,0,L|208:155,1,101.999996887207,4|0,3:2|0:0,0:0:0:0:
341,101,166338,6,0,L|352:204,1,101.999996887207,4|0,3:2|0:0,0:0:0:0:
211,174,168520,6,0,L|199:284,1,101.999996887207,4|0,3:2|0:0,0:0:0:0:
342,266,170701,6,0,L|351:367,1,101.999996887207,4|0,3:2|0:0,0:0:0:0:
239,343,172338,1,12,0:2:0:0:
128,378,172883,6,0,P|91:379|67:374,1,50.9999984436036,12|0,0:2|3:0,0:0:0:0:
23,322,173429,2,0,L|40:211,1,101.999996887207,0|0,3:0|3:0,0:0:0:0:
81,157,174247,1,2,3:2:0:0:
136,209,174520,1,12,0:2:0:0:
189,154,174792,1,2,3:2:0:0:
245,206,175065,2,0,L|253:266,1,50.9999984436036,12|0,0:2|3:0,0:0:0:0:
216,324,175610,2,0,P|264:334|313:301,1,101.999996887207,0|0,3:0|3:0,0:0:0:0:
362,254,176429,1,2,3:2:0:0:
324,187,176701,1,12,0:2:0:0:
364,122,176974,1,2,3:2:0:0:
317,54,177247,6,0,B|235:46|235:46|173:98,1,136,12|0,0:2|3:2,0:0:0:0:
123,106,178065,2,0,P|189:158|255:124,1,136,12|0,0:2|3:2,0:0:0:0:
300,114,178883,1,12,0:2:0:0:
360,157,179156,1,0,3:2:0:0:
295,194,179429,6,0,L|276:333,2,136,12|0|0,0:2|3:2|3:2,0:0:0:0:
197,146,180792,1,4,3:3:0:0:
116,87,181065,1,0,3:2:0:0:
210,47,181338,1,4,3:3:0:0:
197,146,181610,6,0,L|186:220,1,55.2499974708558,12|0,0:2|0:0,0:0:0:0:
111,212,181883,2,0,L|124:132,1,55.2499974708558,0|0,3:0|0:0,0:0:0:0:
162,274,182156,2,0,B|105:290|105:290|40:262,2,110.499994941712,0|12|0,3:0|0:2|3:0,0:0:0:0:
305,197,182974,2,0,L|375:207,1,55.2499974708558,2|2,3:2|0:2,0:0:0:0:
427,241,183247,2,0,P|460:193|435:111,1,110.499994941712,12|2,0:2|3:2,0:0:0:0:
346,33,183792,6,0,L|271:40,1,55.2499974708558,12|0,0:2|0:0,0:0:0:0:
288,115,184065,2,0,L|353:109,1,55.2499974708558,0|0,3:0|0:0,0:0:0:0:
219,72,184338,2,0,B|203:125|203:125|232:171,2,110.499994941712,0|12|0,3:0|0:2|3:0,0:0:0:0:
94,164,185156,2,0,L|79:252,1,55.2499974708558,2|2,3:2|0:2,0:0:0:0:
43,283,185428,2,0,P|94:263|146:304,1,110.499994941712,12|2,0:2|3:2,0:0:0:0:
265,380,185974,6,0,B|383:365,1,110.499994941712,12|0,0:2|3:2,0:0:0:0:
512,302,186519,1,0,3:2:0:0:
383,215,186792,2,0,L|259:199,1,110.499994941712,12|0,0:2|3:2,0:0:0:0:
119,225,187338,2,0,P|108:195|118:152,1,55.2499974708558,0|0,3:2|3:2,0:0:0:0:
52,119,187610,2,0,P|74:102|162:113,1,110.499994941712,12|0,0:2|3:2,0:0:0:0:
273,200,188156,6,0,L|262:260,3,55.2499974708558,8|0|0|0,0:2|3:2|3:2|3:2,0:0:0:0:
314,196,188701,2,0,L|327:124,3,55.2499974708558,4|4|8|0,3:3|3:3|0:2|3:2,0:0:0:0:
352,213,189246,1,0,3:2:0:0:
470,112,189520,2,0,P|445:90|406:79,1,55.2499974708558,4|4,3:3|3:3,0:0:0:0:
409,6,189792,2,0,P|380:16|355:46,1,55.2499974708558,8|0,0:2|3:2,0:0:0:0:
295,71,190065,1,8,0:2:0:0:
157,141,190337,6,0,L|88:128,1,55.2499974708558,12|0,0:2|0:0,0:0:0:0:
92,207,190610,2,0,L|177:222,1,55.2499974708558,0|0,3:0|0:0,0:0:0:0:
29,161,190883,2,0,B|11:209|11:209|39:277,2,110.499994941712,0|12|0,3:0|0:2|3:0,0:0:0:0:
147,61,191701,2,0,L|235:51,1,55.2499974708558,2|2,3:2|0:2,0:0:0:0:
268,14,191974,2,0,P|298:62|268:133,1,110.499994941712,12|2,0:2|3:2,0:0:0:0:
221,252,192519,6,0,L|158:246,1,55.2499974708558,12|0,0:2|0:0,0:0:0:0:
154,323,192792,2,0,L|234:330,1,55.2499974708558,0|0,3:0|0:0,0:0:0:0:
282,303,193065,2,0,B|300:257|300:257|281:191,2,110.499994941712,0|12|0,3:0|0:2|3:0,0:0:0:0:
419,373,193883,1,2,3:2:0:0:
282,303,194155,1,12,0:2:0:0:
430,263,194428,1,2,3:2:0:0:
283,198,194701,6,0,L|296:113,1,76.4999976654053,0|0,3:0|3:0,0:0:0:0:
194,161,195247,2,0,L|212:64,1,76.4999976654053,0|0,3:0|3:0,0:0:0:0:
107,123,195792,2,0,L|125:31,3,76.4999976654053,8|8|8|8,0:2|0:2|0:2|0:2,0:0:0:0:
27,73,196883,6,0,L|11:153,1,76.4999976654053,4|4,3:2|3:2,0:0:0:0:
107,123,197429,2,0,L|90:225,1,76.4999976654053,4|4,3:2|3:2,0:0:0:0:
186,166,197974,2,0,L|170:266,3,76.4999976654053,8|8|8|8,0:2|0:2|0:2|0:2,0:0:0:0:
175,346,199065,6,0,P|228:372|269:359,1,101.999996887207,2|0,0:0|0:0,0:0:0:0:
330,307,199883,1,2,0:0:0:0:
480,276,200429,2,0,L|516:285,2,25.4999992218018,0|0|0,0:0|0:0|0:0,0:0:0:0:
329,307,201247,6,0,L|349:187,1,101.999996887207,2|0,0:0|0:0,0:0:0:0:
379,131,202065,1,2,0:0:0:0:
484,20,202610,2,0,L|512:28,2,25.4999992218018,0|0|0,0:0|0:0|0:0,0:0:0:0:
383,135,203429,6,0,P|336:104|272:115,1,101.999996887207,2|0,0:0|0:0,0:0:0:0:
228,156,204247,1,2,0:0:0:0:
134,35,204792,2,0,L|118:3,2,25.4999992218018,0|0|0,0:0|0:0|0:0,0:0:0:0:
228,156,205610,6,0,L|108:144,1,101.999996887207,2|0,0:0|0:0,0:0:0:0:
45,160,206429,2,0,B|-3:243|48:304|48:304|107:272|99:204,1,254.999992218018,2|0,0:0|0:0,0:0:0:0:
