osu file format v14

[General]
AudioFilename: audio.mp3
AudioLeadIn: 0
PreviewTime: -1
Countdown: 1
SampleSet: Normal
StackLeniency: 0.7
Mode: 0
LetterboxInBreaks: 0
WidescreenStoryboard: 0

[Editor]
DistanceSpacing: 2
BeatDivisor: 8
GridSize: 8
TimelineZoom: 1.8

[Metadata]
Title:Silent Solitude
TitleUnicode:Silent Solitude
Artist:OxT
ArtistUnicode:OxT
Creator:-Youko
Version:Sorcerer King
Source:Overlord III
Tags:Overlord 3 -Youko Ending Theme OST
BeatmapID:1781972
BeatmapSetID:852555

[Difficulty]
HPDrainRate:6
CircleSize:4
OverallDifficulty:8
ApproachRate:9.3
SliderMultiplier:1.20000000596046
SliderTickRate:1

[Events]
//Background and Video events
//Break Periods
2,127290,134127
2,144745,146172
2,146926,148354
2,149108,150536
//Storyboard Layer 0 (Background)
//Storyboard Layer 1 (Fail)
//Storyboard Layer 2 (Pass)
//Storyboard Layer 3 (Foreground)
//Storyboard Sound Samples

[TimingPoints]
545,545.454545454546,4,1,0,90,1,0
545,-100,4,1,0,60,0,0
818,-100,4,1,0,90,0,0
1363,-100,4,1,0,60,0,0
2454,-100,4,1,0,25,0,0
2727,-100,4,1,0,60,0,0
3000,-100,4,1,0,90,0,0
3545,-100,4,1,0,60,0,0
4636,-100,4,1,0,25,0,0
4909,-100,4,1,0,60,0,0
5181,-100,4,1,0,90,0,0
5727,-100,4,1,0,60,0,0
6681,-100,4,1,0,25,0,0
7090,-100,4,1,0,60,0,0
7363,-100,4,1,0,60,0,0
7909,-66.6666666666667,4,1,0,90,0,0
8045,-66.6666666666667,4,1,0,25,0,0
8454,-66.6666666666667,4,1,0,100,0,0
9545,-66.6666666666667,4,1,0,60,0,0
9818,-66.6666666666667,4,1,0,90,0,0
10635,-66.6666666666667,4,1,0,60,0,0
10772,-66.6666666666667,4,1,0,90,0,0
11727,-66.6666666666667,4,1,0,45,0,0
12000,-66.6666666666667,4,1,0,90,0,0
12817,-66.6666666666667,4,1,0,60,0,0
13090,-66.6666666666667,4,1,0,90,0,0
14181,-66.6666666666667,4,1,0,60,0,0
14454,-66.6666666666667,4,1,0,90,0,0
15272,-66.6666666666667,4,1,0,60,0,0
15545,-66.6666666666667,4,1,0,90,0,0
17726,-66.6666666666667,4,1,0,60,0,0
17999,-66.6666666666667,4,1,0,90,0,0
18272,-66.6666666666667,4,1,0,60,0,0
18408,-66.6666666666667,4,1,0,75,0,0
18545,-66.6666666666667,4,1,0,90,0,0
19090,-66.6666666666667,4,1,0,60,0,0
19226,-66.6666666666667,4,1,0,75,0,0
19363,-66.6666666666667,4,1,0,90,0,0
20454,-66.6666666666667,4,1,0,60,0,0
20590,-66.6666666666667,4,1,0,75,0,0
20726,-66.6666666666667,4,1,0,90,0,0
21272,-66.6666666666667,4,1,0,60,0,0
21408,-66.6666666666667,4,1,0,75,0,0
21545,-66.6666666666667,4,1,0,90,0,0
22635,-66.6666666666667,4,1,0,60,0,0
22772,-66.6666666666667,4,1,0,75,0,0
22908,-66.6666666666667,4,1,0,90,0,0
23454,-66.6666666666667,4,1,0,60,0,0
23590,-66.6666666666667,4,1,0,75,0,0
23726,-66.6666666666667,4,1,0,90,0,0
24817,-66.6666666666667,4,1,0,60,0,0
24954,-66.6666666666667,4,1,0,75,0,0
25090,-66.6666666666667,4,1,0,90,0,0
25363,-66.6666666666667,4,1,0,60,0,0
25499,-66.6666666666667,4,1,0,75,0,0
25635,-66.6666666666667,4,1,0,90,0,0
27272,-100,4,1,0,90,0,0
27817,-100,4,1,0,75,0,0
28090,-100,4,1,0,90,0,0
28635,-100,4,1,0,75,0,0
29181,-100,4,1,0,90,0,0
29999,-100,4,1,0,75,0,0
30545,-100,4,1,0,90,0,0
31635,-100,4,1,0,60,0,0
31908,-100,4,1,0,75,0,0
32999,-100,4,1,0,60,0,0
33272,-100,4,1,0,75,0,0
33817,-100,4,1,0,90,0,0
35454,-100,4,1,0,25,0,0
35726,-100,4,1,0,60,0,0
35999,-100,4,1,0,90,0,0
36272,-100,4,1,0,60,0,0
36545,-100,4,1,0,90,0,0
36817,-100,4,1,0,60,0,0
37090,-100,4,1,0,90,0,0
37635,-100,4,1,0,60,0,0
37908,-100,4,1,0,90,0,0
38181,-100,4,1,0,60,0,0
38454,-100,4,1,0,90,0,0
40363,-133.333333333333,4,1,0,90,0,0
41726,-133.333333333333,4,1,0,60,0,0
41863,-100,4,1,0,90,0,0
43635,-100,4,1,0,60,0,0
43909,-66.6666666666667,4,1,0,90,0,0
44045,-66.6666666666667,4,1,0,60,0,0
44181,-66.6666666666667,4,1,0,90,0,0
44590,-66.6666666666667,4,1,0,60,0,0
44863,-66.6666666666667,4,1,0,90,0,0
44999,-66.6666666666667,4,1,0,60,0,0
45272,-66.6666666666667,4,1,0,90,0,0
45408,-66.6666666666667,4,1,0,60,0,0
45817,-66.6666666666667,4,1,0,90,0,0
45954,-66.6666666666667,4,1,0,5,0,0
46090,-66.6666666666667,4,1,0,90,0,0
46226,-66.6666666666667,4,1,0,5,0,0
46363,-66.6666666666667,4,1,0,90,0,0
46499,-66.6666666666667,4,1,0,60,0,0
46772,-66.6666666666667,4,1,0,90,0,0
46908,-66.6666666666667,4,1,0,60,0,0
47181,-66.6666666666667,4,1,0,90,0,0
47317,-66.6666666666667,4,1,0,60,0,0
47590,-66.6666666666667,4,1,0,90,0,0
47726,-66.6666666666667,4,1,0,60,0,0
47863,-66.6666666666667,4,1,0,75,0,0
47999,-66.6666666666667,4,1,0,90,0,0
48681,-66.6666666666667,4,1,0,60,0,0
48954,-66.6666666666667,4,1,0,90,0,0
49090,-66.6666666666667,4,1,0,60,0,0
49363,-66.6666666666667,4,1,0,90,0,0
49499,-66.6666666666667,4,1,0,60,0,0
49772,-66.6666666666667,4,1,0,90,0,0
49908,-66.6666666666667,4,1,0,60,0,0
50045,-66.6666666666667,4,1,0,75,0,0
50181,-66.6666666666667,4,1,0,90,0,0
50863,-66.6666666666667,4,1,0,60,0,0
51135,-66.6666666666667,4,1,0,90,0,0
51272,-66.6666666666667,4,1,0,60,0,0
51545,-66.6666666666667,4,1,0,90,0,0
51681,-66.6666666666667,4,1,0,60,0,0
52090,-66.6666666666667,4,1,0,90,0,0
53181,-66.6666666666667,4,1,0,60,0,0
53454,-66.6666666666667,4,1,0,90,0,0
53999,-66.6666666666667,4,1,0,60,0,0
54272,-66.6666666666667,4,1,0,90,0,1
54372,-66.6666666666667,4,1,0,90,0,1
72817,-100,4,1,0,60,0,1
72954,-100,4,1,0,75,0,1
73090,-100,4,1,0,90,0,1
73635,-100,4,1,0,60,0,1
73772,-100,4,1,0,75,0,1
73908,-100,4,1,0,90,0,1
74999,-100,4,1,0,60,0,1
75135,-100,4,1,0,75,0,1
75272,-100,4,1,0,90,0,1
75817,-100,4,1,0,60,0,1
75954,-100,4,1,0,75,0,1
76090,-100,4,1,0,90,0,1
77181,-100,4,1,0,60,0,1
77317,-100,4,1,0,75,0,1
77454,-100,4,1,0,90,0,1
77999,-100,4,1,0,60,0,1
78135,-100,4,1,0,75,0,1
78272,-100,4,1,0,90,0,1
79363,-100,4,1,0,60,0,1
79499,-100,4,1,0,75,0,1
79635,-100,4,1,0,90,0,1
80181,-100,4,1,0,60,0,1
80317,-100,4,1,0,75,0,1
80454,-100,4,1,0,90,0,1
81818,-100,4,1,0,90,0,0
98727,-66.6666666666667,4,1,0,90,0,0
107454,-66.6666666666667,4,1,0,90,0,0
108817,-66.6666666666667,4,1,0,90,0,1
124909,-133.333333333333,4,1,0,90,0,0
134727,-100,4,1,0,90,0,0
153272,-66.6666666666667,4,1,0,90,0,0
163363,-66.6666666666667,4,1,0,90,0,1
179454,-133.333333333333,4,1,0,90,0,1
180545,-100,4,1,0,90,0,1
196908,-133.333333333333,4,1,0,90,0,1
198817,-133.333333333333,4,1,0,90,0,0
199090,-100,4,1,0,90,0,0

[HitObjects]
48,183,545,5,0,3:0:0:0:
64,71,818,1,0,3:0:0:0:
152,143,1090,5,0,3:0:0:0:
160,32,1363,2,0,P|256:88|240:208,1,240.000001192092,0|0,2:0|2:0,2:0:0:0:
72,248,2727,5,0,3:0:0:0:
144,336,2999,1,0,3:0:0:0:
176,232,3272,5,0,0:0:0:0:
248,320,3545,2,0,P|296:216|224:120,1,240.000001192092,0|0,2:0|2:0,2:0:0:0:
64,144,4909,5,0,3:0:0:0:
176,192,5181,1,0,3:0:0:0:
64,248,5454,5,0,3:0:0:0:
176,296,5726,2,0,P|280:320|368:264,1,210.000001043081,0|0,2:0|2:0,2:0:0:0:
440,112,7090,5,0,3:0:0:0:
376,32,7363,1,0,3:0:0:0:
336,128,7636,5,0,3:0:0:0:
264,40,7909,2,0,L|212:51,1,45.0000019401311,0|0,2:0|2:0,2:0:0:0:
80,160,8454,5,0,3:0:0:0:
144,312,8590,1,0,3:0:0:0:
96,112,8726,1,0,3:0:0:0:
216,221,9000,5,0,3:0:0:0:
352,208,9272,2,0,P|376:168|368:120,1,90.0000038802622,0|0,1:0|1:0,1:0:0:0:
225,175,9681,1,0,0:0:0:0:
355,61,9817,1,0,3:0:0:0:
225,175,9954,1,0,0:0:0:0:
267,34,10090,2,0,P|172:55|139:130,1,180.000007760524,0|0,1:0|1:0,1:0:0:0:
356,55,10772,5,0,3:0:0:0:
218,176,10908,1,0,3:0:0:0:
356,55,11181,5,0,3:0:0:0:
424,224,11454,2,0,P|464:200|480:160,1,90.0000038802622,0|0,1:0|1:0,1:0:0:0:
306,226,11863,1,0,0:0:0:0:
443,98,11999,1,0,3:0:0:0:
306,226,12135,1,0,0:0:0:0:
243,117,12272,2,0,P|315:53|427:53,1,180.000007760524,0|0,1:0|1:0,1:0:0:0:
480,224,13090,5,0,3:0:0:0:
480,224,13226,1,0,0:0:0:0:
296,248,13363,1,0,3:0:0:0:
239,64,13635,2,0,P|151:64|73:127,1,180.000007760524,0|0,1:0|1:0,1:0:0:0:
211,175,14317,1,0,0:0:0:0:
186,296,14454,2,0,B|296:331|384:276|397:163,1,270.000011640787,0|0,1:0|1:0,1:0:0:0:
136,207,15408,1,0,0:0:0:0:
209,59,15545,1,0,3:0:0:0:
381,96,15681,1,0,0:0:0:0:
256,192,15817,12,0,17726,3:0:0:0:
112,104,18000,5,0,3:0:0:0:
112,104,18135,1,0,0:0:0:0:
241,61,18272,1,0,1:0:0:0:
302,42,18408,1,0,1:0:0:0:
241,61,18545,1,0,1:0:0:0:
112,104,18818,5,0,3:0:0:0:
57,257,19090,1,0,1:0:0:0:
220,228,19363,1,0,1:0:0:0:
112,104,19636,1,0,3:0:0:0:
275,68,19909,1,0,3:0:0:0:
216,176,20181,5,0,3:0:0:0:
216,176,20317,1,0,0:0:0:0:
131,298,20454,1,0,1:0:0:0:
100,348,20590,1,0,1:0:0:0:
131,298,20726,1,0,1:0:0:0:
216,176,21000,5,0,3:0:0:0:
311,311,21272,1,0,1:0:0:0:
391,171,21545,1,0,1:0:0:0:
216,176,21818,1,0,3:0:0:0:
319,49,22090,1,0,3:0:0:0:
360,200,22363,5,0,3:0:0:0:
360,200,22499,1,0,3:0:0:0:
204,270,22635,1,0,1:0:0:0:
148,296,22772,1,0,1:0:0:0:
204,270,22908,1,0,3:0:0:0:
360,200,23181,5,0,3:0:0:0:
241,111,23454,1,0,0:0:0:0:
391,45,23726,1,0,0:0:0:0:
416,192,24000,1,0,3:0:0:0:
308,314,24272,1,0,3:0:0:0:
195,185,24545,5,0,3:0:0:0:
148,319,24681,1,0,3:0:0:0:
195,185,24817,1,0,1:0:0:0:
34,210,25090,1,0,3:0:0:0:
104,76,25363,6,0,L|56:12,2,45.0000019401311,0|0|0,1:0|1:0|1:0,1:0:0:0:
195,202,25772,1,0,1:0:0:0:
294,90,25908,1,0,1:0:0:0:
377,266,26181,1,0,0:0:0:0:
154,219,26454,1,0,1:0:0:0:
312,79,26727,1,0,1:0:0:0:
192,280,27272,5,0,3:0:0:0:
96,200,27545,2,0,P|80:160|96:120,1,60.000000298023,0|0,3:0|3:0,3:0:0:0:
192,280,28090,1,0,3:0:0:0:
192,280,28226,1,0,0:0:0:0:
240,173,28363,2,0,P|240:133|224:101,1,60.000000298023,0|0,3:0|3:0,3:0:0:0:
96,82,28908,1,0,0:0:0:0:
152,304,29181,1,0,3:0:0:0:
184,151,29317,1,0,0:0:0:0:
32,176,29454,1,0,3:0:0:0:
184,151,29590,1,0,0:0:0:0:
181,12,29727,6,0,P|221:-4|253:12,2,60.000000298023,0|0|0,3:0|3:0|3:0,3:0:0:0:
155,141,30408,1,0,0:0:0:0:
18,172,30545,2,0,P|10:212|34:244,1,60.000000298023,0|0,3:0|3:0,3:0:0:0:
216,312,31090,1,0,1:0:0:0:
196,78,31635,6,0,L|153:87,1,30.0000001490115
82,205,31908,1,0,3:0:0:0:
82,205,32045,1,0,0:0:0:0:
112,336,32181,2,0,P|152:352|192:352,2,60.000000298023,0|0|0,3:0|3:0|3:0,3:0:0:0:
32,240,32863,5,0,0:0:0:0:
32,240,33000,1,0,1:0:0:0:
231,218,33135,2,0,L|266:174,2,30.0000001490115
63,167,33545,1,0,0:0:0:0:
173,29,33681,2,0,L|207:35,2,30.0000001490115
232,203,34090,1,0,0:0:0:0:
384,40,34363,2,0,B|472:40|488:72|488:72|448:80|448:80|488:96|488:120|456:160,1,240.000001192092,0|0,1:0|1:0,1:0:0:0:
305,337,35726,5,0,3:0:0:0:
305,337,35863,1,0,0:0:0:0:
120,320,35999,2,0,B|80:312|80:312|56:272,1,60.000000298023,0|0,3:0|3:0,3:0:0:0:
58,152,36408,1,0,0:0:0:0:
113,80,36545,2,0,P|137:48|177:24,1,60.000000298023,0|0,3:0|3:0,3:0:0:0:
341,48,36954,1,0,0:0:0:0:
187,42,37090,1,0,3:0:0:0:
187,42,37226,1,0,0:0:0:0:
83,170,37363,6,0,P|62:204|61:226,1,60.000000298023,0|0,3:0|3:0,3:0:0:0:
179,348,37772,1,0,0:0:0:0:
253,334,37909,2,0,P|286:324|302:306,1,60.000000298023,0|0,3:0|3:0,3:0:0:0:
285,156,38317,1,0,0:0:0:0:
214,84,38454,2,0,P|195:76|183:78,1,30.0000001490115
73,191,38727,1,0,3:0:0:0:
171,334,38863,1,0,0:0:0:0:
252,324,39000,2,0,P|287:327|315:309,2,60.000000298023,0|0|0,3:0|3:0|3:0,3:0:0:0:
159,292,39681,5,0,0:0:0:0:
141,127,39818,1,0,3:0:0:0:
288,182,39954,1,0,0:0:0:0:
113,94,40090,2,0,P|82:92|72:112,1,30.0000001490115
232,64,40363,2,0,P|344:64|384:160,1,225.000009700655,0|0,3:0|3:0,3:0:0:0:
304,240,41863,5,0,3:0:0:0:
280,264,42000,1,0,3:0:0:0:
111,301,42272,1,0,0:0:0:0:
114,128,42545,1,0,0:0:0:0:
261,51,42817,1,0,0:0:0:0:
409,124,43090,2,0,L|394:245,1,120.000000596046,0|0,1:0|1:0,1:0:0:0:
280,269,43772,1,0,0:0:0:0:
144,296,43909,6,0,L|80:320,2,45.0000019401311,0|0|0,1:0|1:0|1:0,1:0:0:0:
315,153,44317,1,0,0:0:0:0:
360,232,44454,2,0,L|416:216,1,45.0000019401311,0|0,1:0|1:0,1:0:0:0:
220,52,44726,1,0,0:0:0:0:
152,128,44863,2,0,L|88:112,1,45.0000019401311,0|0,1:0|1:0,1:0:0:0:
390,27,45135,1,0,0:0:0:0:
447,83,45272,6,0,L|495:43,2,45.0000019401311,0|0|0,3:0|3:0|3:0,3:0:0:0:
314,159,45681,1,0,0:0:0:0:
464,232,45817,2,0,L|430:272,1,45.0000019401311
352,320,46090,2,0,L|297:337,1,45.0000019401311
144,312,46363,6,0,L|104:272,1,45.0000019401311,0|0,1:0|1:0,1:0:0:0:
224,198,46635,1,0,0:0:0:0:
376,224,46772,2,0,L|408:192,1,45.0000019401311,0|0,1:0|1:0,1:0:0:0:
289,104,47045,1,0,0:0:0:0:
128,104,47181,2,0,L|96:64,1,45.0000019401311,0|0,1:0|1:0,1:0:0:0:
230,30,47454,1,0,0:0:0:0:
360,56,47590,6,0,L|416:32,2,45.0000019401311,0|0|0,3:0|3:0|3:0,3:0:0:0:
360,56,47999,1,0,0:0:0:0:
203,41,48135,1,0,0:0:0:0:
131,158,48272,1,0,3:0:0:0:
279,68,48408,5,0,0:0:0:0:
384,152,48545,2,0,L|328:192,1,45.0000019401311,0|0,1:0|1:0,1:0:0:0:
330,283,48817,1,0,0:0:0:0:
168,296,48954,2,0,L|156:211,1,45.0000019401311,0|0,1:0|1:0,1:0:0:0:
54,194,49226,1,0,0:0:0:0:
144,80,49363,2,0,L|208:96,1,45.0000019401311,0|0,1:0|1:0,1:0:0:0:
317,98,49635,5,0,0:0:0:0:
336,240,49772,2,0,L|384:272,2,45.0000019401311,0|0|0,3:0|3:0|3:0,3:0:0:0:
336,240,50181,1,0,0:0:0:0:
144,136,50317,1,0,0:0:0:0:
144,136,50454,1,0,3:0:0:0:
291,42,50590,5,0,0:0:0:0:
392,75,50727,2,0,L|440:43,1,45.0000019401311,0|0,1:0|1:0,1:0:0:0:
319,233,50999,1,0,0:0:0:0:
365,315,51136,2,0,L|365:371,1,45.0000019401311,0|0,1:0|1:0,1:0:0:0:
140,231,51408,1,0,0:0:0:0:
120,136,51545,2,0,L|80:104,1,45.0000019401311,0|0,1:0|1:0,1:0:0:0:
209,37,51817,5,0,0:0:0:0:
84,18,51954,1,0,0:0:0:0:
159,114,52090,1,0,2:0:0:0:
28,162,52227,1,0,2:0:0:0:
161,206,52363,1,0,2:0:0:0:
3,313,52499,1,0,0:0:0:0:
221,286,52636,1,0,2:0:0:0:
226,80,52772,5,0,0:0:0:0:
48,200,52909,2,0,P|48:248|80:280,1,90.0000038802622,0|0,3:0|3:0,3:0:0:0:
186,173,53317,1,0,0:0:0:0:
208,344,53454,1,0,2:0:0:0:
208,344,53590,1,0,0:0:0:0:
296,256,53727,2,0,P|320:216|304:168,1,90.0000038802622,0|0,3:0|3:0,3:0:0:0:
104,104,54272,5,0,3:0:0:0:
264,56,54409,1,0,3:0:0:0:
72,152,54545,1,0,3:0:0:0:
72,152,54681,1,0,0:0:0:0:
256,184,54818,1,0,3:0:0:0:
256,184,54954,1,0,0:0:0:0:
320,104,55090,6,0,B|360:96|360:96|424:112,1,90.0000038802622,0|0,1:0|1:0,1:0:0:0:
326,39,55499,1,0,0:0:0:0:
256,184,55636,1,0,3:0:0:0:
449,146,55772,1,0,0:0:0:0:
312,272,55909,2,0,B|384:264|384:264|472:200,1,180.000007760524,0|0,1:0|1:0,1:0:0:0:
273,146,56590,5,0,3:0:0:0:
465,59,56727,1,0,3:0:0:0:
465,59,56863,1,0,0:0:0:0:
312,104,57000,1,0,3:0:0:0:
312,104,57135,1,0,0:0:0:0:
224,40,57272,6,0,B|160:40|160:40|128:56,1,90.0000038802622,0|0,1:0|1:0,1:0:0:0:
180,201,57681,1,0,0:0:0:0:
312,104,57818,1,0,3:0:0:0:
136,51,57954,1,0,0:0:0:0:
239,184,58090,2,0,B|135:176|135:176|39:112,1,180.000007760524,0|0,1:0|1:0,1:0:0:0:
132,36,58772,1,0,0:0:0:0:
248,56,58909,6,0,P|288:72|296:120,1,90.0000038802622,0|0,3:0|3:0,3:0:0:0:
155,146,59317,1,0,0:0:0:0:
201,268,59454,2,0,P|248:328|360:312,1,180.000007760524,0|0,1:0|1:0,1:0:0:0:
432,238,60135,1,0,0:0:0:0:
447,164,60272,2,0,P|447:108|407:84,1,90.0000038802622,0|0,1:0|1:0,1:0:0:0:
246,64,60681,6,0,L|189:78,1,45.0000019401311
88,178,60954,2,0,L|70:239,1,45.0000019401311
190,345,61226,2,0,L|242:370,1,45.0000019401311
336,233,61499,1,0,3:0:0:0:
235,72,61635,2,0,P|187:72|139:112,1,90.0000038802622,0|0,1:0|1:0,1:0:0:0:
96,232,62045,1,0,0:0:0:0:
156,313,62181,2,0,P|188:345|244:321,2,90.0000038802622,0|0|0,1:0|1:0|1:0,1:0:0:0:
124,151,63000,5,0,3:0:0:0:
232,32,63136,1,0,3:0:0:0:
77,82,63272,1,0,3:0:0:0:
77,82,63408,1,0,0:0:0:0:
208,184,63545,1,0,3:0:0:0:
208,184,63681,1,0,0:0:0:0:
352,134,63818,6,0,L|432:198,1,90.0000038802622,0|0,1:0|1:0,1:0:0:0:
208,184,64226,1,0,0:0:0:0:
352,134,64363,1,0,3:0:0:0:
406,292,64499,1,0,0:0:0:0:
199,322,64636,2,0,L|391:338,1,180.000007760524,0|0,1:0|1:0,1:0:0:0:
279,196,65318,5,0,3:0:0:0:
425,305,65454,1,0,3:0:0:0:
425,305,65590,1,0,0:0:0:0:
473,158,65727,2,0,P|481:126|441:78,1,90.0000038802622,0|0,1:0|1:0,1:0:0:0:
417,223,66135,1,0,0:0:0:0:
371,45,66272,1,0,3:0:0:0:
417,223,66408,1,0,0:0:0:0:
310,217,66545,2,0,P|262:129|302:49,1,180.000007760524,0|0,1:0|1:0,1:0:0:0:
454,46,67226,6,0,L|500:74,1,45.0000019401311
441,209,67499,2,0,L|463:254,1,45.0000019401311
299,275,67772,2,0,L|283:331,1,45.0000019401311
200,96,68181,6,0,P|136:160|184:248,1,180.000007760524,0|0,1:0|1:0,1:0:0:0:
323,200,68863,1,0,0:0:0:0:
322,345,69000,2,0,B|402:385|490:345|514:257|466:185,1,270.000011640787,0|0,1:0|1:0,1:0:0:0:
345,99,69954,5,0,0:0:0:0:
421,48,70090,1,0,0:0:0:0:
425,142,70226,1,0,0:0:0:0:
200,67,70363,6,0,B|72:115|152:227|152:227|24:227|24:227|160:395|296:259,1,630.000027161835,0|0,1:0|1:0,1:0:0:0:
377,196,72408,1,0,0:0:0:0:
494,128,72545,5,0,1:0:0:0:
350,56,72818,1,0,1:0:0:0:
206,96,72954,1,0,1:0:0:0:
374,0,73090,1,0,1:0:0:0:
374,0,73226,1,0,0:0:0:0:
494,128,73363,1,0,1:0:0:0:
350,56,73636,1,0,1:0:0:0:
206,96,73772,1,0,1:0:0:0:
374,0,73909,1,0,1:0:0:0:
374,0,74045,1,0,0:0:0:0:
248,240,74181,5,0,1:0:0:0:
56,120,74454,1,0,1:0:0:0:
197,0,74727,5,0,1:0:0:0:
229,136,75000,1,0,1:0:0:0:
157,264,75136,1,0,1:0:0:0:
285,128,75272,1,0,1:0:0:0:
285,128,75408,1,0,0:0:0:0:
197,0,75545,1,0,1:0:0:0:
229,136,75818,1,0,1:0:0:0:
157,264,75954,1,0,1:0:0:0:
285,128,76090,1,0,1:0:0:0:
285,128,76226,1,0,0:0:0:0:
120,136,76363,5,0,1:0:0:0:
208,304,76636,1,0,1:0:0:0:
288,156,76909,5,0,1:0:0:0:
144,92,77180,1,0,1:0:0:0:
0,220,77317,1,0,1:0:0:0:
135,148,77454,1,0,1:0:0:0:
135,148,77590,1,0,0:0:0:0:
288,156,77727,1,0,1:0:0:0:
144,92,77999,1,0,1:0:0:0:
0,220,78136,1,0,1:0:0:0:
135,148,78272,1,0,1:0:0:0:
135,148,78408,1,0,0:0:0:0:
248,284,78545,5,0,1:0:0:0:
409,164,78818,1,0,1:0:0:0:
257,7,79090,1,0,0:0:0:0:
257,7,79226,1,0,0:0:0:0:
114,65,79363,2,0,L|138:100,1,30.0000001490115
312,122,79635,1,0,0:0:0:0:
312,122,79772,1,0,0:0:0:0:
132,199,79908,2,0,L|150:229,1,30.0000001490115
380,268,80181,1,0,0:0:0:0:
313,56,80317,1,0,0:0:0:0:
138,194,80454,1,0,1:0:0:0:
230,14,80590,1,0,0:0:0:0:
357,178,80727,5,0,1:0:0:0:
126,232,80863,1,0,0:0:0:0:
186,26,81000,1,0,1:0:0:0:
64,210,81135,1,0,0:0:0:0:
294,273,81272,1,0,1:0:0:0:
143,304,81817,6,0,L|132:274,1,30.0000001490115
72,128,82090,1,0,3:0:0:0:
143,306,82226,1,0,3:0:0:0:
60,101,82363,2,0,L|82:157,1,60.000000298023,0|0,3:0|3:0,3:0:0:0:
133,292,82772,5,0,0:0:0:0:
267,181,82908,2,0,P|290:179|307:188,1,30.0000001490115
239,366,83181,2,0,P|213:374|210:370,1,30.0000001490115
57,229,83454,2,0,P|33:206|46:178,1,60.000000298023
272,120,83863,5,0,0:0:0:0:
272,120,84000,1,0,3:0:0:0:
164,288,84135,2,0,P|141:298|127:292,1,30.0000001490115
81,138,84408,1,0,3:0:0:0:
272,120,84545,2,0,L|232:184,1,60.000000298023,0|0,3:0|3:0,3:0:0:0:
160,312,84954,1,0,3:0:0:0:
160,312,85090,1,0,3:0:0:0:
55,192,85226,2,0,P|46:171|54:161,1,30.0000001490115
167,28,85499,2,0,P|191:18|203:19,1,30.0000001490115
337,118,85772,5,0,0:0:0:0:
337,118,85909,2,0,L|377:46,1,60.000000298023,0|0,3:0|3:0,3:0:0:0:
417,227,86317,2,0,L|457:213,1,30.0000001490115
382,376,86590,2,0,L|418:376,1,30.0000001490115
439,204,86863,1,0,3:0:0:0:
306,93,87000,2,0,P|282:69|242:69,1,60.000000298023,0|0,3:0|3:0,3:0:0:0:
95,83,87408,5,0,0:0:0:0:
83,234,87545,2,0,L|64:200,1,30.0000001490115
232,301,87817,2,0,L|257:286,1,30.0000001490115
54,278,88090,2,0,L|35:244,1,30.0000001490115
247,348,88363,2,0,L|272:333,1,30.0000001490115
470,275,88635,1,0,0:0:0:0:
478,134,88909,2,0,B|423:46|321:40,1,180.000000894069,0|0,3:0|3:0,3:0:0:0:
225,11,89863,1,0,0:0:0:0:
225,11,90000,1,0,3:0:0:0:
81,75,90272,5,0,0:0:0:0:
81,75,90408,1,0,0:0:0:0:
119,223,90545,2,0,L|199:199,1,60.000000298023,0|0,3:0|3:0,3:0:0:0:
325,136,90954,1,0,0:0:0:0:
313,0,91090,1,0,3:0:0:0:
313,0,91226,1,0,0:0:0:0:
176,56,91363,2,0,L|128:120,1,60.000000298023,0|0,3:0|3:0,3:0:0:0:
61,237,91772,1,0,0:0:0:0:
229,176,91909,5,0,3:0:0:0:
229,176,92045,1,0,0:0:0:0:
162,356,92181,2,0,L|218:300,1,60.000000298023,0|0,3:0|3:0,3:0:0:0:
333,185,92590,1,0,0:0:0:0:
302,38,92727,1,0,3:0:0:0:
302,38,92863,1,0,0:0:0:0:
141,82,93000,6,0,L|165:146,1,60.000000298023,0|0,3:0|3:0,3:0:0:0:
236,296,93408,1,0,0:0:0:0:
290,284,93545,1,0,3:0:0:0:
118,170,93680,1,0,0:0:0:0:
64,180,93817,1,0,3:0:0:0:
362,82,94090,1,0,3:0:0:0:
403,131,94226,1,0,0:0:0:0:
173,136,94363,2,0,P|181:96|213:72,1,60.000000298023,0|0,3:0|3:0,3:0:0:0:
368,56,94909,6,0,P|432:184|336:304,1,300.000001490115,0|0,3:0|3:0,3:0:0:0:
240,332,96409,1,0,3:0:0:0:
190,314,96545,1,0,3:0:0:0:
39,220,96681,6,0,L|21:187,1,30.0000001490115
237,129,96954,2,0,L|229:159,1,30.0000001490115
32,46,97226,2,0,L|13:15,1,30.0000001490115
206,70,97499,1,0,0:0:0:0:
351,135,97636,2,0,P|410:198|399:293,1,180.000000894069,0|0,3:0|3:0,3:0:0:0:
246,337,98590,1,0,3:0:0:0:
82,239,98726,5,0,3:0:0:0:
47,195,98863,1,0,3:0:0:0:
101,186,98999,1,0,3:0:0:0:
263,138,99135,5,0,0:0:0:0:
248,86,99272,1,0,0:0:0:0:
208,124,99408,1,0,0:0:0:0:
245,268,99545,5,0,0:0:0:0:
253,320,99681,1,0,0:0:0:0:
203,302,99817,1,0,0:0:0:0:
416,248,100090,5,0,3:0:0:0:
288,88,100363,1,0,3:0:0:0:
416,248,100636,1,0,3:0:0:0:
234,329,100908,2,0,L|185:350,2,45.0000019401311
138,188,101317,2,0,L|91:170,2,45.0000019401311
253,65,101726,2,0,L|226:23,2,45.0000019401311
207,260,102272,5,0,3:0:0:0:
360,136,102545,1,0,3:0:0:0:
207,260,102818,1,0,3:0:0:0:
374,291,103090,5,0,3:0:0:0:
424,317,103226,1,0,0:0:0:0:
420,260,103363,1,0,0:0:0:0:
336,290,103499,5,0,0:0:0:0:
438,349,103635,1,0,0:0:0:0:
438,233,103772,1,0,0:0:0:0:
308,286,103908,5,0,0:0:0:0:
450,374,104045,1,0,0:0:0:0:
461,209,104181,1,0,0:0:0:0:
283,161,104454,5,0,3:0:0:0:
400,48,104727,1,0,3:0:0:0:
408,224,105000,1,0,3:0:0:0:
212,246,105272,6,0,P|201:270|175:278,1,45.0000019401311
59,166,105545,2,0,P|38:156|38:131,1,45.0000019401311
261,47,105817,2,0,P|276:34|312:41,1,45.0000019401311
283,319,106090,2,0,P|265:337|236:337,1,45.0000019401311
171,141,106500,6,0,L|107:140,2,45.0000019401311,0|0|0,3:0|3:0|3:0,3:0:0:0:
448,64,106908,1,0,3:0:0:0:
448,64,107045,1,0,0:0:0:0:
376,224,107181,1,0,3:0:0:0:
376,224,107317,1,0,0:0:0:0:
266,61,107454,6,0,P|226:109|234:157,1,90.0000038802622,0|0,3:0|3:0,3:0:0:0:
261,280,108000,2,0,B|245:392|101:360,1,180.000007760524,0|0,3:0|3:0,3:0:0:0:
80,176,108818,5,0,3:0:0:0:
154,46,108954,1,0,3:0:0:0:
192,226,109090,2,0,L|205:286,1,45.0000019401311
281,72,109363,2,0,L|326:32,1,45.0000019401311
352,144,109636,6,0,P|392:192|392:256,1,90.0000038802622,0|0,3:0|3:0,3:0:0:0:
300,322,110045,1,0,0:0:0:0:
248,160,110181,1,0,3:0:0:0:
416,196,110317,1,0,0:0:0:0:
291,312,110454,2,0,B|219:400|115:328,1,180.000007760524,0|0,3:0|3:0,3:0:0:0:
200,224,111136,5,0,3:0:0:0:
400,168,111272,1,0,3:0:0:0:
266,54,111408,1,0,0:0:0:0:
309,236,111545,2,0,L|285:340,1,90.0000038802622,0|0,3:0|3:0,3:0:0:0:
204,170,111954,5,0,0:0:0:0:
400,168,112090,1,0,3:0:0:0:
331,308,112226,1,0,0:0:0:0:
202,205,112363,2,0,L|242:29,1,180.000007760524,0|0,3:0|3:0,3:0:0:0:
406,60,113045,5,0,3:0:0:0:
229,136,113181,1,0,0:0:0:0:
406,60,113317,1,0,0:0:0:0:
352,224,113454,2,0,L|312:320,1,90.0000038802622,0|0,3:0|3:0,3:0:0:0:
174,330,113863,1,0,0:0:0:0:
105,190,114000,6,0,B|105:126|105:126|169:102,1,90.0000038802622,0|0,3:0|3:0,3:0:0:0:
319,66,114408,1,0,0:0:0:0:
238,211,114545,1,0,3:0:0:0:
319,66,114681,1,0,0:0:0:0:
438,213,114818,2,0,L|374:293,1,90.0000038802622,0|0,3:0|3:0,3:0:0:0:
286,222,115226,1,0,0:0:0:0:
422,334,115363,5,0,3:0:0:0:
422,334,115499,1,0,0:0:0:0:
222,367,115636,2,0,P|155:354|124:335,1,90.0000038802622,0|0,3:0|3:0,3:0:0:0:
64,220,116045,1,0,0:0:0:0:
126,93,116181,6,0,P|207:27|292:38,1,180.000007760524,0|0,3:0|3:0,3:0:0:0:
446,92,116863,1,0,0:0:0:0:
271,161,117000,2,0,P|249:214|278:248,1,90.0000038802622,0|0,3:0|3:0,3:0:0:0:
354,205,117408,1,0,0:0:0:0:
214,336,117545,5,0,3:0:0:0:
99,187,117681,1,0,3:0:0:0:
267,265,117817,2,0,L|307:298,1,45.0000019401311
158,123,118090,2,0,L|159:64,1,45.0000019401311
347,41,118363,6,0,L|443:9,1,90.0000038802622,0|0,3:0|3:0,3:0:0:0:
412,172,118772,1,0,3:0:0:0:
223,199,118908,1,0,3:0:0:0:
235,35,119045,1,0,0:0:0:0:
381,134,119181,2,0,L|319:306,1,180.000007760524,0|0,3:0|3:0,3:0:0:0:
503,277,119863,5,0,3:0:0:0:
308,191,120000,1,0,3:0:0:0:
386,349,120135,1,0,0:0:0:0:
497,171,120272,2,0,L|465:267,1,90.0000038802622,0|0,3:0|3:0,3:0:0:0:
332,369,120681,5,0,3:0:0:0:
479,358,120817,1,0,3:0:0:0:
371,211,120954,1,0,0:0:0:0:
198,268,121090,2,0,L|274:86,1,180.000007760524,0|0,3:0|3:0,3:0:0:0:
432,32,121772,5,0,0:0:0:0:
432,32,121909,1,0,3:0:0:0:
410,199,122045,1,0,0:0:0:0:
410,199,122181,1,0,3:0:0:0:
261,98,122317,1,0,0:0:0:0:
261,98,122454,1,0,3:0:0:0:
231,279,122726,6,0,P|143:271|111:191,1,180.000007760524,0|0,3:0|3:0,3:0:0:0:
167,39,123408,1,0,0:0:0:0:
348,50,123545,2,0,B|462:59|462:59|510:211,1,270.000011640787,0|0,3:0|3:0,3:0:0:0:
455,364,124499,1,0,0:0:0:0:
289,317,124636,1,0,3:0:0:0:
407,216,124772,1,0,0:0:0:0:
256,192,124908,12,0,127090,3:0:0:0:
368,104,134727,5,0,3:0:0:0:
368,104,134863,1,0,0:0:0:0:
213,244,135135,5,0,3:0:0:0:
170,270,135204,1,0,3:0:0:0:
123,257,135272,1,0,3:0:0:0:
101,212,135340,1,0,3:0:0:0:
112,164,135408,1,0,3:0:0:0:
152,137,135476,1,0,3:0:0:0:
201,152,135545,1,0,3:0:0:0:
247,133,135613,1,0,3:0:0:0:
259,85,135681,1,0,3:0:0:0:
227,48,135749,1,0,3:0:0:0:
48,152,135954,5,0,0:0:0:0:
208,118,136090,1,0,3:0:0:0:
160,256,136227,1,0,3:0:0:0:
328,168,136363,2,0,L|293:188,1,30.0000001490115
471,90,136635,1,0,3:0:0:0:
453,249,136772,1,0,3:0:0:0:
453,249,136908,1,0,0:0:0:0:
309,329,137045,2,0,L|268:338,1,30.0000001490115
309,164,137317,1,0,0:0:0:0:
480,147,137454,2,0,L|447:174,1,30.0000001490115
317,200,137726,1,0,0:0:0:0:
371,373,137863,5,0,3:0:0:0:
236,278,137999,1,0,3:0:0:0:
389,224,138135,1,0,3:0:0:0:
453,65,138272,2,0,L|423:91,1,30.0000001490115
296,145,138545,1,0,3:0:0:0:
152,76,138681,5,0,3:0:0:0:
155,263,138817,1,0,3:0:0:0:
247,163,138954,1,0,3:0:0:0:
59,163,139090,1,0,0:0:0:0:
136,306,139227,2,0,L|168:354,1,30.0000001490115,0|0,3:0|3:0,3:0:0:0:
342,332,139499,1,0,0:0:0:0:
298,176,139636,1,0,3:0:0:0:
472,200,139772,1,0,0:0:0:0:
413,54,139908,2,0,L|391:84,1,30.0000001490115
228,42,140181,5,0,3:0:0:0:
228,42,140317,1,0,0:0:0:0:
169,217,140454,2,0,L|177:265,1,30.0000001490115,0|0,3:0|3:0,3:0:0:0:
246,60,140726,2,0,L|263:89,1,30.0000001490115
148,204,140999,1,0,0:0:0:0:
68,64,141135,1,0,0:0:0:0:
68,64,141272,1,0,0:0:0:0:
76,226,141408,2,0,P|92:245|105:252,1,30.0000001490115
246,298,141681,1,0,0:0:0:0:
308,158,141817,2,0,L|307:126,1,30.0000001490115
128,37,142090,1,0,0:0:0:0:
223,185,142226,1,0,0:0:0:0:
330,53,142363,5,0,3:0:0:0:
327,261,142635,1,0,0:0:0:0:
180,223,142772,1,0,0:0:0:0:
393,221,142908,1,0,0:0:0:0:
137,287,143045,1,0,0:0:0:0:
310,105,143181,1,0,0:0:0:0:
95,218,143317,1,0,0:0:0:0:
381,166,143454,1,0,0:0:0:0:
100,111,143590,1,0,0:0:0:0:
181,311,143726,1,0,0:0:0:0:
187,83,143863,1,0,0:0:0:0:
445,147,143999,1,0,3:0:0:0:
337,335,144135,1,0,0:0:0:0:
216,64,144272,5,0,3:0:0:0:
8,335,144545,5,0,3:0:0:0:
209,26,146726,5,0,3:0:0:0:
512,251,148908,5,0,3:0:0:0:
179,332,151090,5,0,3:0:0:0:
421,270,152181,5,0,3:0:0:0:
400,314,152317,1,0,3:0:0:0:
435,344,152454,1,0,3:0:0:0:
475,323,152590,1,0,3:0:0:0:
467,275,152726,1,0,3:0:0:0:
232,152,152999,5,0,3:0:0:0:
67,117,153272,6,0,L|83:173,1,45.0000019401311,0|0,3:0|3:0,3:0:0:0:
226,71,153545,2,0,L|210:127,1,45.0000019401311,0|0,3:0|3:0,3:0:0:0:
19,149,153817,2,0,L|35:205,1,45.0000019401311,0|0,3:0|3:0,3:0:0:0:
284,47,154090,2,0,L|268:103,1,45.0000019401311,0|0,3:0|3:0,3:0:0:0:
158,255,154363,1,0,3:0:0:0:
158,255,154499,1,0,0:0:0:0:
120,45,154635,6,0,P|72:45|64:85,1,90.0000038802622,0|0,3:0|3:0,3:0:0:0:
290,125,155045,1,0,0:0:0:0:
222,142,155181,1,0,0:0:0:0:
443,187,155317,6,0,L|412:236,1,45.0000019401311
226,254,155590,2,0,L|260:209,1,45.0000019401311
451,308,155862,2,0,L|420:357,1,45.0000019401311
146,138,156135,2,0,L|180:93,1,45.0000019401311
400,56,156408,1,0,3:0:0:0:
227,110,156545,1,0,0:0:0:0:
312,257,156681,2,0,L|337:302,1,45.0000019401311
475,347,156954,5,0,0:0:0:0:
437,195,157090,1,0,0:0:0:0:
265,220,157226,1,0,0:0:0:0:
423,133,157363,1,0,0:0:0:0:
244,157,157499,1,0,0:0:0:0:
323,334,157635,6,0,P|353:322|364:303,1,45.0000019401311
369,140,157908,2,0,P|345:116|319:111,1,45.0000019401311
142,101,158180,2,0,P|125:103|107:124,1,45.0000019401311
113,299,158453,2,0,P|114:321|139:337,1,45.0000019401311
303,248,158726,1,0,3:0:0:0:
320,56,158863,1,0,3:0:0:0:
135,119,158999,5,0,3:0:0:0:
170,312,159135,1,0,0:0:0:0:
307,137,159272,1,0,3:0:0:0:
137,230,159408,1,0,0:0:0:0:
300,303,159545,1,0,3:0:0:0:
426,182,159681,1,0,0:0:0:0:
221,226,159817,5,0,3:0:0:0:
166,152,159954,1,0,3:0:0:0:
213,305,160090,1,0,3:0:0:0:
190,89,160226,1,0,0:0:0:0:
155,346,160363,1,0,0:0:0:0:
255,50,160499,1,0,0:0:0:0:
85,344,160635,1,0,0:0:0:0:
326,63,160772,1,0,0:0:0:0:
25,307,160908,1,0,0:0:0:0:
333,171,161181,6,0,P|334:144|319:129,1,45.0000019401311
120,146,161454,2,0,P|127:173|146:187,1,45.0000019401311
237,53,161726,1,0,3:0:0:0:
237,53,161863,1,0,0:0:0:0:
379,67,161999,2,0,B|443:203|347:323,1,270.000011640787,0|0,3:0|3:0,3:0:0:0:
136,344,163090,1,0,3:0:0:0:
88,152,163363,5,0,3:0:0:0:
301,83,163499,1,0,3:0:0:0:
104,32,163635,1,0,3:0:0:0:
220,300,163908,1,0,3:0:0:0:
316,328,164181,2,0,B|356:296|348:304|388:248,1,90.0000038802622,0|0,3:0|3:0,3:0:0:0:
394,101,164726,1,0,3:0:0:0:
200,128,164999,2,0,L|128:224,1,90.0000038802622,0|0,3:0|3:0,3:0:0:0:
336,318,165545,6,0,L|400:374,1,45.0000019401311,0|0,3:0|3:0,3:0:0:0:
404,194,165817,1,0,3:0:0:0:
204,159,166090,1,0,3:0:0:0:
269,92,166363,2,0,L|325:20,1,90.0000038802622,0|0,3:0|3:0,3:0:0:0:
184,272,166908,1,0,3:0:0:0:
88,144,167181,2,0,L|32:64,1,90.0000038802622,0|0,3:0|3:0,3:0:0:0:
84,314,167726,5,0,3:0:0:0:
184,104,167999,1,0,3:0:0:0:
268,351,168272,1,0,3:0:0:0:
359,36,168545,6,0,P|439:76|471:172,1,180.000007760524,0|0,3:0|3:0,3:0:0:0:
392,314,169363,2,0,P|352:362|312:356,1,90.0000038802622,0|0,3:0|3:0,3:0:0:0:
162,179,169908,5,0,3:0:0:0:
354,327,170181,1,0,3:0:0:0:
90,275,170454,1,0,3:0:0:0:
224,96,170726,2,0,P|312:112|376:200,1,180.000007760524,0|0,3:0|3:0,3:0:0:0:
213,345,171545,2,0,P|173:353|133:329,1,90.0000038802622,0|0,3:0|3:0,3:0:0:0:
80,96,172090,6,0,L|144:80,1,45.0000019401311,0|0,3:0|3:0,3:0:0:0:
312,40,172363,1,0,3:0:0:0:
212,206,172499,1,0,3:0:0:0:
80,60,172635,1,0,0:0:0:0:
301,82,172772,1,0,0:0:0:0:
168,208,172908,6,0,B|200:248|200:248|232:224,1,90.0000038802622,0|0,3:0|3:0,3:0:0:0:
414,114,173317,1,0,3:0:0:0:
263,210,173454,1,0,0:0:0:0:
298,45,173590,1,0,0:0:0:0:
127,99,173726,2,0,B|135:163|135:163|159:179,1,90.0000038802622,0|0,3:0|3:0,3:0:0:0:
333,108,174135,5,0,0:0:0:0:
360,264,174272,2,0,L|304:288,1,45.0000019401311,0|0,3:0|3:0,3:0:0:0:
168,336,174545,1,0,3:0:0:0:
359,314,174681,1,0,0:0:0:0:
272,160,174817,1,0,3:0:0:0:
272,160,174954,1,0,0:0:0:0:
130,67,175090,6,0,P|82:59|34:75,1,90.0000038802622,0|0,3:0|3:0,3:0:0:0:
121,226,175499,1,0,0:0:0:0:
272,160,175635,1,0,3:0:0:0:
155,33,175772,1,0,0:0:0:0:
112,232,175908,2,0,P|152:320|240:320,1,180.000007760524,0|0,3:0|3:0,3:0:0:0:
305,275,176590,5,0,0:0:0:0:
190,75,176726,1,0,3:0:0:0:
190,75,176863,1,0,0:0:0:0:
441,103,176999,1,0,3:0:0:0:
441,103,177135,1,0,0:0:0:0:
256,192,177272,12,0,179181,3:0:0:0:
433,105,179454,6,0,L|413:125,1,22.5000009700655
233,189,179726,2,0,L|250:168,1,22.5000009700655
475,113,179999,6,0,L|455:133,1,22.5000009700655
189,183,180272,2,0,L|206:162,1,22.5000009700655
300,4,180545,1,0,0:0:0:0:
88,64,180817,5,0,3:0:0:0:
119,250,180954,1,0,3:0:0:0:
154,52,181090,1,0,3:0:0:0:
53,259,181226,1,0,0:0:0:0:
154,52,181363,1,0,3:0:0:0:
232,184,181499,1,0,0:0:0:0:
352,48,181635,6,0,L|296:112,1,60.000000298023,0|0,3:0|3:0,3:0:0:0:
192,224,182045,1,0,3:0:0:0:
376,227,182181,1,0,0:0:0:0:
246,71,182317,1,0,0:0:0:0:
425,164,182454,2,0,L|329:268,1,120.000000596046,0|0,3:0|3:0,3:0:0:0:
144,280,183135,5,0,3:0:0:0:
272,136,183272,1,0,3:0:0:0:
453,209,183408,1,0,0:0:0:0:
320,320,183545,1,0,3:0:0:0:
280,154,183681,1,0,0:0:0:0:
448,35,183817,6,0,L|464:99,1,60.000000298023,0|0,3:0|3:0,3:0:0:0:
337,176,184226,1,0,0:0:0:0:
320,320,184363,1,0,3:0:0:0:
188,223,184499,1,0,0:0:0:0:
256,80,184635,2,0,L|293:217,1,120.000000596046,0|0,3:0|3:0,3:0:0:0:
328,352,185317,5,0,3:0:0:0:
404,209,185454,1,0,0:0:0:0:
196,330,185590,1,0,0:0:0:0:
288,192,185726,1,0,3:0:0:0:
152,81,185863,1,0,0:0:0:0:
333,43,185999,6,0,B|389:67|389:67|365:123,1,120.000000596046,0|0,3:0|3:0,3:0:0:0:
246,189,186681,1,0,0:0:0:0:
109,256,186817,2,0,B|77:312|77:312|133:352,1,120.000000596046,0|0,3:0|3:0,3:0:0:0:
269,325,187499,5,0,3:0:0:0:
198,152,187635,1,0,0:0:0:0:
191,339,187772,1,0,0:0:0:0:
273,135,187908,1,0,3:0:0:0:
113,266,188045,1,0,0:0:0:0:
168,56,188181,6,0,L|136:176,1,120.000000596046,0|0,3:0|3:0,3:0:0:0:
96,328,188863,1,0,3:0:0:0:
282,157,188999,1,0,0:0:0:0:
167,353,189135,1,0,0:0:0:0:
218,121,189272,1,0,3:0:0:0:
224,295,189408,1,0,0:0:0:0:
352,160,189545,6,0,L|328:208,1,30.0000001490115,0|0,3:0|3:0,3:0:0:0:
264,328,189818,1,0,3:0:0:0:
462,242,189954,1,0,0:0:0:0:
328,88,190090,1,0,3:0:0:0:
328,88,190226,1,0,0:0:0:0:
118,41,190363,6,0,L|38:25,1,60.000000298023,0|0,3:0|3:0,3:0:0:0:
136,159,190772,1,0,0:0:0:0:
328,88,190908,1,0,3:0:0:0:
136,159,191045,1,0,0:0:0:0:
270,260,191181,2,0,L|174:356,1,120.000000596046,0|0,3:0|3:0,3:0:0:0:
36,181,191863,6,0,L|76:141,1,30.0000001490115,0|0,3:0|3:0,3:0:0:0:
208,38,192135,1,0,0:0:0:0:
228,230,192272,1,0,3:0:0:0:
162,35,192408,1,0,0:0:0:0:
384,67,192545,6,0,L|328:123,1,60.000000298023,0|0,3:0|3:0,3:0:0:0:
199,216,192954,1,0,3:0:0:0:
257,37,193090,1,0,0:0:0:0:
375,162,193226,1,0,0:0:0:0:
392,326,193363,2,0,L|496:222,1,120.000000596046,0|0,3:0|3:0,3:0:0:0:
476,241,194045,1,0,0:0:0:0:
272,296,194181,5,0,3:0:0:0:
272,296,194317,1,0,0:0:0:0:
96,176,194454,1,0,3:0:0:0:
96,176,194590,1,0,0:0:0:0:
315,129,194726,6,0,L|278:150,1,30.0000001490115
70,261,194999,1,0,0:0:0:0:
70,261,195135,1,0,0:0:0:0:
315,245,195272,6,0,L|277:223,1,30.0000001490115
66,104,195545,1,0,0:0:0:0:
66,104,195681,1,0,0:0:0:0:
262,78,195817,5,0,0:0:0:0:
177,236,195954,1,0,0:0:0:0:
293,27,196090,1,0,0:0:0:0:
187,298,196226,1,0,0:0:0:0:
332,78,196363,1,0,0:0:0:0:
238,265,196499,1,0,0:0:0:0:
109,12,196635,1,0,0:0:0:0:
392,120,196908,6,0,B|408:168|376:200|376:200|400:224|400:224|360:224|360:224|400:248|360:312|304:328|272:288,1,315.000013580918,0|0,3:0|3:0,3:0:0:0:
80,112,199090,5,0,3:0:0:0:
168,56,199363,1,0,3:0:0:0:
168,160,199635,5,0,3:0:0:0:
264,104,199908,2,0,P|296:208|192:272,1,240.000001192092,0|0,3:0|3:0,3:0:0:0:
48,288,201272,5,0,3:0:0:0:
48,192,201545,1,0,3:0:0:0:
136,240,201818,5,0,3:0:0:0:
136,136,202090,2,0,P|248:184|232:288,1,240.000001192092,0|0,3:0|3:0,3:0:0:0:
64,160,203454,5,0,3:0:0:0:
96,64,203726,1,0,3:0:0:0:
160,136,203999,5,0,3:0:0:0:
184,40,204272,2,0,P|280:104|224:208,1,240.000001192092,0|0,3:0|3:0,3:0:0:0:
64,256,205635,5,0,3:0:0:0:
96,344,205908,1,0,3:0:0:0:
152,264,206181,5,0,3:0:0:0:
192,344,206454,2,0,P|328:296|312:152,1,300.000001490115,0|0,3:0|3:0,3:0:0:0:
