osu file format v14

[General]
AudioFilename: audio.mp3
AudioLeadIn: 0
PreviewTime: 46681
Countdown: 0
SampleSet: Soft
StackLeniency: 0.7
Mode: 0
LetterboxInBreaks: 0
WidescreenStoryboard: 1

[Editor]
Bookmarks: 48090
DistanceSpacing: 1
BeatDivisor: 4
GridSize: 32
TimelineZoom: 1.5

[Metadata]
Title:HOLLOW HUNGER (TV Size)
TitleUnicode:HOLLOW HUNGER (TV Size)
Artist:OxT
ArtistUnicode:OxT
Creator:NeKroMan4ik
Version:byd's Normal
Source:オーバーロードⅣ
Tags:airincat bite you death byd delette maruoko overlord IV op opening 4 anime rock male vocalist japanese hotaru 大石昌良 Masayoshi Ōishi oishi ooishi Tom-H@ck pop アルベド Albedo オーイシマサヨシ オクト
BeatmapID:3706037
BeatmapSetID:1807111

[Difficulty]
HPDrainRate:4
CircleSize:3.5
OverallDifficulty:4
ApproachRate:5
SliderMultiplier:1.1
SliderTickRate:1

[Events]
//Background and Video events
0,0,"bebedo.png",0,0
Video,0,"aaaaa.mp4"
//Break Periods
2,34783,39383
//Storyboard Layer 0 (Background)
//Storyboard Layer 1 (Fail)
//Storyboard Layer 2 (Pass)
//Storyboard Layer 3 (Foreground)
//Storyboard Layer 4 (Overlay)
//Storyboard Sound Samples

[TimingPoints]
1583,394.736842105263,4,2,2,50,1,0
2372,372.670807453416,4,2,2,50,1,0
3097,377.358490566038,4,2,2,50,1,0
4583,375,4,2,2,70,1,0
4583,-100,4,2,2,70,0,0
10583,-100,4,2,2,60,0,0
34583,-100,4,2,2,50,0,0
40583,-100,4,2,2,60,0,0
46583,394.736842105263,4,2,2,70,1,0
47372,379.746835443038,4,2,2,70,1,0
48080,375,4,2,2,80,1,0
72080,-100,4,2,2,75,0,0
85580,-100,4,2,2,50,0,0

[Colours]
Combo1 : 197,197,137
Combo2 : 192,192,192

[HitObjects]
111,384,4583,6,0,P|156:352|220:343,1,110,4|2,1:1|1:2,0:0:0:0:
273,253,5333,2,0,P|241:208|193:181,1,110,2|2,1:2|1:2,0:0:0:0:
117,102,6083,2,0,P|93:50|118:0,2,110,2|2|2,1:2|1:2|1:2,0:0:0:0:
86,207,7208,1,2,1:2:0:0:
193,181,7583,6,0,P|249:168|325:152,1,110,2|2,1:2|1:2,0:0:0:0:
378,78,8333,2,0,P|436:103|454:153,1,110,2|2,1:2|1:2,0:0:0:0:
389,232,9083,2,0,P|405:267|425:324,2,73.3333333333333,8|8|4,1:3|0:3|0:3,0:0:0:0:
346,212,9833,1,0,1:0:0:0:
188,365,10583,6,0,B|130:357|105:316|109:298|118:292|112:227|26:226,1,220,4|2,1:2|1:2,0:0:0:0:
148,103,11895,1,2,0:0:0:0:
148,103,12083,2,0,L|118:12,2,82.5,2|2|2,1:2|0:0|0:0,0:0:0:0:
195,131,12833,1,2,1:2:0:0:
391,33,13583,6,0,B|443:36|480:64|485:131|485:131|449:155|453:198,1,220,2|2,1:2|1:2,0:0:0:0:
349,318,14896,1,2,0:0:0:0:
349,318,15083,2,0,L|440:348,2,82.5,2|2|2,1:2|0:0|0:0,0:0:0:0:
308,354,15833,1,2,1:2:0:0:
132,221,16583,6,0,B|132:190|150:170|159:171|162:174|187:159|187:123,1,110,2|2,1:2|1:2,0:0:0:0:
150,98,17145,1,0,0:0:0:0:
150,98,17333,2,0,L|129:37,2,55,2|0|2,1:2|0:0|1:2,0:0:0:0:
257,71,18083,2,0,L|378:110,1,110,2|2,1:2|1:2,0:0:0:0:
395,155,18645,1,2,0:0:0:0:
395,155,18833,2,0,L|414:215,1,55,2|0,1:2|0:0,0:0:0:0:
463,228,19208,1,2,1:2:0:0:
378,298,19583,6,0,P|316:316|287:351,1,110,2|2,1:2|1:2,0:0:0:0:
190,297,20333,2,0,P|170:246|181:193,1,110,2|0,1:2|1:2,0:0:0:0:
105,112,21083,2,0,B|84:105|70:92|71:85|74:83|64:68|40:58,2,82.5,2|2|2,1:2|1:2|1:2,0:0:0:0:
153,84,21833,1,2,1:2:0:0:
297,250,22583,6,0,L|410:224,1,110,4|0,1:2|1:0,0:0:0:0:
453,260,23145,1,2,0:0:0:0:
453,260,23333,2,0,P|499:227|484:172,1,110,2|0,1:2|1:0,0:0:0:0:
445,79,24083,2,0,L|464:-5,2,82.5,2|2|2,1:2|0:0|0:0,0:0:0:0:
397,106,24833,2,0,B|366:106|346:88|347:79|350:76|335:51|299:51,1,110,2|0,1:2|1:0,0:0:0:0:
215,112,25583,5,2,1:2:0:0:
94,7,26146,1,2,0:0:0:0:
94,7,26333,2,0,P|40:26|34:90,1,110,2|0,1:2|1:0,0:0:0:0:
87,164,27083,2,0,L|67:248,1,82.5,2|2,1:2|0:0,0:0:0:0:
5,297,27645,1,2,0:0:0:0:
5,297,27833,2,0,P|22:338|85:344,1,110,2|0,1:2|1:0,0:0:0:0:
180,296,28583,6,0,L|166:239,2,55,2|0|2,1:2|0:0|1:2,0:0:0:0:
216,330,29145,1,0,0:0:0:0:
216,330,29333,2,0,L|327:355,1,110,2|2,1:2|1:2,0:0:0:0:
466,272,30270,2,0,P|493:291|500:327,2,55,0|2|2,0:0|1:2|0:0,0:0:0:0:
429,231,30833,2,0,L|442:174,1,55,2|2,1:2|0:0,0:0:0:0:
490,152,31208,1,2,1:2:0:0:
420,67,31583,6,0,L|308:41,1,110,2|2,1:2|1:2,0:0:0:0:
227,112,32333,2,2,B|232:134|232:134|226:147|226:147|239:167,2,55,2|2|0,1:2|3:2|1:2,0:0:0:0:
133,54,33083,2,0,P|93:71|80:125,1,82.5,2|2,1:2|1:2,0:0:0:0:
1,144,33645,1,2,1:2:0:0:
1,144,33833,2,0,P|0:198|53:241,1,110,2|6,1:2|1:2,0:0:0:0:
137,193,34583,1,2,0:2:0:0:
150,312,40583,6,0,P|124:346|123:393,2,82.5,2|0|8,1:2|0:0|0:0,0:0:0:0:
182,266,41333,2,0,P|169:213|138:159,1,110,2|8,1:2|1:2,0:0:0:0:
242,112,42083,2,0,P|267:81|271:40,1,82.5,2|0,1:2|0:0,0:0:0:0:
348,0,42645,1,8,0:0:0:0:
348,0,42833,2,0,P|403:12|426:80,1,110,2|8,1:2|1:2,0:0:0:0:
481,152,43583,6,0,P|472:191|459:243,1,82.5,2|2,1:2|0:0,0:0:0:0:
503,309,44145,1,10,0:0:0:0:
503,309,44333,2,0,P|477:351|433:350,1,82.5,2|2,1:2|0:0,0:0:0:0:
382,308,44895,1,8,0:0:0:0:
382,308,45083,2,0,B|336:164|165:182|165:182|185:235|185:235|133:251|133:251|110:318,1,440,2|4,1:2|0:0,0:0:0:0:
462,136,48080,6,0,P|382:132|342:63,1,165,4|4,1:1|0:3,0:0:0:0:
311,18,48830,2,0,L|250:-2,1,55,2|8,1:2|0:3,0:0:0:0:
227,46,49205,2,0,L|166:67,1,55,8|4,1:0|0:3,0:0:0:0:
143,18,49580,1,2,1:2:0:0:
95,118,49955,1,8,1:0:0:0:
165,204,50330,2,0,B|165:251|138:281|124:280|120:275|80:295|82:352,1,165,2|4,1:0|0:3,0:0:0:0:
116,382,51080,6,0,L|176:362,1,55,2|0,1:3|0:0,0:0:0:0:
203,323,51455,2,0,L|263:344,1,55,8|4,1:0|0:3,0:0:0:0:
290,382,51830,1,2,1:2:0:0:
354,293,52205,2,0,L|333:233,1,55,8|4,1:0|0:3,0:0:0:0:
289,212,52579,2,0,B|242:236|196:230|158:175|158:175|177:136|152:101,1,220,2|2,1:2|1:2,0:0:0:0:
109,95,53517,1,8,0:1:0:0:
109,95,53705,1,8,1:1:0:0:
167,2,54080,6,0,P|248:21|327:39,1,165,6|4,1:2|0:3,0:0:0:0:
373,9,54830,2,0,P|406:35|409:109,1,110,2|8,1:2|1:0,0:0:0:0:
367,127,55392,1,4,0:3:0:0:
367,127,55580,1,2,1:0:0:0:
409,229,55955,2,0,P|462:239|516:254,2,110,8|2|8,1:0|1:2|1:0,0:0:0:0:
365,260,56892,5,4,0:3:0:0:
365,260,57079,2,0,B|321:259|297:286|297:300|303:305|290:352|227:342,1,165,2|4,1:3|0:3,0:0:0:0:
198,303,57830,2,0,P|144:290|90:279,1,110,2|8,1:2|1:0,0:0:0:0:
4,211,58580,2,0,P|30:165|83:155,1,110,2|8,1:3|1:0,0:0:0:0:
130,185,59142,1,4,0:3:0:0:
130,185,59330,2,0,P|158:165|171:131,1,55,2|8,1:2|0:1,0:0:0:0:
215,120,59705,2,0,P|208:87|183:61,1,55,8|4,0:1|0:3,0:0:0:0:
220,21,60080,6,0,P|300:40|377:69,1,165,4|4,1:1|0:3,0:0:0:0:
426,44,60830,1,2,1:2:0:0:
483,137,61205,1,8,1:1:0:0:
420,227,61580,2,0,P|421:278|488:312,1,110,2|8,1:3|1:0,0:0:0:0:
416,330,62142,1,4,0:3:0:0:
416,330,62330,2,0,B|385:330|365:348|366:357|369:360|354:385|318:385,1,110,2|8,1:1|1:0,0:0:0:0:
249,305,63080,6,0,P|240:271|231:233,1,55,2|0,1:2|0:0,0:0:0:0:
186,229,63455,2,0,P|194:195|203:157,1,55,8|4,1:0|0:3,0:0:0:0:
249,151,63830,1,2,1:2:0:0:
157,89,64205,1,8,1:0:0:0:
62,145,64580,2,0,P|48:199|34:259,1,110,2|8,1:2|1:0,0:0:0:0:
0,293,65142,1,4,0:3:0:0:
0,293,65330,2,0,P|17:324|45:330,1,55,2|8,1:2|1:0,0:0:0:0:
77,364,65705,1,8,1:1:0:0:
167,301,66080,6,0,P|227:303|307:373,1,165,4|4,1:2|0:3,0:0:0:0:
357,383,66830,2,0,P|407:368|413:311,1,110,2|8,1:2|1:1,0:0:0:0:
461,285,67392,1,4,0:3:0:0:
461,285,67580,1,2,1:3:0:0:
402,192,67955,2,0,P|413:140|433:76,2,110,8|2|8,1:0|1:2|1:0,0:0:0:0:
358,223,68892,5,4,0:3:0:0:
358,223,69080,2,0,B|311:222|281:196|282:181|287:178|267:138|210:140,1,165,2|4,1:0|0:3,0:0:0:0:
182,104,69830,2,0,P|153:121|135:153,1,55,2|8,1:2|0:3,0:0:0:0:
94,168,70205,2,0,P|97:201|118:231,1,55,8|4,1:1|0:3,0:0:0:0:
156,245,70580,1,4,1:2:0:0:
156,245,70767,2,0,P|142:305|129:370,1,110,4|4,0:3|0:3,0:0:0:0:
177,384,71330,1,8,1:2:0:0:
273,331,71705,1,8,1:1:0:0:
376,368,72080,6,0,L|474:388,2,82.5,4|2|2,1:0|0:0|0:0,0:0:0:0:
344,268,73017,1,2,0:0:0:0:
344,268,73205,2,0,L|322:204,1,55,8|2,0:0|0:0,0:0:0:0:
341,106,73767,2,0,P|359:70|374:64,2,55,2|10|2,0:0|0:0|0:0,0:0:0:0:
291,131,74330,2,0,L|168:106,1,110,2|10,1:2|0:2,0:0:0:0:
110,36,75080,6,0,P|67:49|51:93,1,82.5,4|2,1:2|0:0,0:0:0:0:
87,155,75642,1,2,0:0:0:0:
29,248,76017,2,0,L|46:320,1,55,2|10,0:0|0:0,0:0:0:0:
27,356,76392,1,2,0:0:0:0:
131,321,76767,2,0,P|161:328|232:385,1,110,2|2,0:0|0:0,0:0:0:0:
279,380,77330,2,0,P|308:369|323:341,1,55,2|2,1:2|0:0,0:0:0:0:
372,330,77705,2,0,P|374:299|355:273,1,55,10|2,0:2|0:0,0:0:0:0:
318,245,78080,5,4,1:0:0:0:
386,198,78361,2,0,L|406:100,1,82.5,2|2,0:0|0:0,0:0:0:0:
354,24,79017,1,2,0:0:0:0:
354,24,79205,2,0,P|325:40|313:74,1,55,10|2,0:0|0:0,0:0:0:0:
214,101,79767,2,0,L|150:79,1,55,2|10,0:0|0:0,0:0:0:0:
135,41,80142,1,2,0:0:0:0:
135,41,80330,2,0,P|78:57|69:110,1,110,2|10,1:2|0:2,0:0:0:0:
111,202,81080,6,0,L|91:300,1,82.5,4|2,1:2|0:0,0:0:0:0:
26,329,81642,1,2,0:0:0:0:
133,369,82017,1,2,0:0:0:0:
133,369,82205,2,0,L|206:354,1,55,10|2,0:0|0:0,0:0:0:0:
266,281,82767,2,0,P|312:292|342:352,1,110,2|2,0:0|0:0,0:0:0:0:
388,373,83330,2,0,P|418:367|437:349,1,55,2|10,1:2|0:0,0:0:0:0:
488,337,83705,2,0,P|495:307|486:282,1,55,10|10,0:2|0:0,0:0:0:0:
446,248,84080,5,0,1:0:0:0:
446,248,84267,2,0,L|470:130,1,110,2|10,0:0|0:0,0:0:0:0:
512,107,84830,1,2,1:2:0:0:
425,48,85205,1,2,1:2:0:0:
425,48,85392,1,6,0:0:0:0:
