osu file format v14

[General]
AudioFilename: audio.mp3
AudioLeadIn: 0
PreviewTime: 46681
Countdown: 0
SampleSet: Soft
StackLeniency: 0.4
Mode: 0
LetterboxInBreaks: 0
WidescreenStoryboard: 1

[Editor]
Bookmarks: 89423
DistanceSpacing: 4.9
BeatDivisor: 4
GridSize: 32
TimelineZoom: 1.6

[Metadata]
Title:HOLLOW HUNGER (TV Size)
TitleUnicode:HOLLOW HUNGER (TV Size)
Artist:OxT
ArtistUnicode:OxT
Creator:EnuHQ
Version:Nakazawa's Insane
Source:オーバーロードⅣ
Tags:overlord IV op opening 4 anime rock male vocalist japanese hotaru 大石昌良 Masayoshi Ōishi oishi ooishi Tom-H@ck pop アルベド Albedo オーイシマサヨシ オクト Stompy_ Nakazawa - AfifAkilie -
BeatmapID:3890438
BeatmapSetID:1816890

[Difficulty]
HPDrainRate:5
CircleSize:4.2
OverallDifficulty:8
ApproachRate:8.5
SliderMultiplier:1.75
SliderTickRate:1

[Events]
//Background and Video events
0,0,"bg.jpg",0,0
Video,0,"aaaaa.mp4"
//Break Periods
//Storyboard Layer 0 (Background)
//Storyboard Layer 1 (Fail)
//Storyboard Layer 2 (Pass)
//Storyboard Layer 3 (Foreground)
//Storyboard Layer 4 (Overlay)
//Storyboard Sound Samples

[TimingPoints]
1583,394.736842105263,4,2,17,50,1,0
1583,-55.5555555555556,4,2,17,50,0,0
1879,-166.666666666667,4,2,17,50,0,0
2372,372.670807453416,4,2,17,50,1,0
2558,-166.666666666667,4,2,17,50,0,0
3097,377.358490566038,4,2,17,50,1,0
3097,-125,4,2,17,50,0,0
4583,375,4,2,17,70,1,0
4583,-55.5555555555556,4,2,17,70,0,0
4958,-100,4,2,17,70,0,0
5708,-250,4,2,17,70,0,0
6083,-62.5,4,2,17,70,0,0
6458,-100,4,2,17,70,0,0
7208,-250,4,2,17,70,0,0
7583,-62.5,4,2,17,70,0,0
7958,-100,4,2,17,70,0,0
8708,-83.3333333333333,4,2,17,70,0,0
9083,-100,4,2,17,70,0,0
9833,-71.4285714285714,4,2,17,70,0,0
10395,-250,4,2,17,70,0,0
10583,-125,4,2,17,60,0,0
11145,-250,4,2,17,60,0,0
11333,-125,4,2,17,60,0,0
11895,-250,4,2,17,60,0,0
12083,-100,4,2,17,60,0,0
12833,-125,4,2,17,60,0,0
14145,-250,4,2,17,60,0,0
14333,-125,4,2,17,60,0,0
14895,-250,4,2,17,60,0,0
15083,-100,4,2,17,60,0,0
15833,-125,4,2,17,60,0,0
19583,-166.666666666667,4,2,17,60,0,0
19958,-500,4,2,17,60,0,0
20333,-166.666666666667,4,2,17,60,0,0
20708,-500,4,2,17,60,0,0
21083,-100,4,2,17,60,0,0
22114,-100,4,2,2,60,0,0
22208,-250,4,2,2,60,0,0
22583,-83.3333333333333,4,2,17,60,0,0
22958,-100,4,2,17,60,0,0
23145,-166.666666666667,4,2,17,60,0,0
23333,-100,4,2,17,60,0,0
23895,-166.666666666667,4,2,17,60,0,0
24083,-100,4,2,17,60,0,0
26145,-166.666666666667,4,2,17,60,0,0
26333,-100,4,2,17,60,0,0
26895,-166.666666666667,4,2,17,60,0,0
27083,-100,4,2,17,60,0,0
28208,-125,4,2,17,60,0,0
28583,-100,4,2,17,60,0,0
32145,-166.666666666667,4,2,17,60,0,0
32333,-100,4,2,17,60,0,0
33083,-83.3333333333333,4,2,17,60,0,0
34208,-71.4285714285714,4,2,17,60,0,0
34583,-166.666666666667,4,2,17,50,0,0
40583,-125,4,2,17,60,0,0
44333,-125,4,2,17,85,0,0
46583,394.736842105263,4,2,17,70,1,0
46780,-125,4,2,17,70,0,0
47372,379.746835443038,4,2,17,70,1,0
47372,-100,4,2,17,70,0,0
48080,375,4,2,17,80,1,0
48080,-55.5555555555556,4,2,17,80,0,0
48455,-83.3333333333333,4,2,17,80,0,0
48830,-62.5,4,2,17,80,0,0
49205,-83.3333333333333,4,2,17,80,0,0
50330,-55.5555555555556,4,2,17,80,0,0
51080,-71.4285714285714,4,2,17,80,0,0
52955,-83.3333333333333,4,2,17,80,0,0
54080,-62.5,4,2,17,80,0,0
54455,-83.3333333333333,4,2,17,80,0,0
57080,-71.4285714285714,4,2,17,80,0,0
57455,-83.3333333333333,4,2,17,80,0,0
57830,-71.4285714285714,4,2,17,80,0,0
58205,-83.3333333333333,4,2,17,80,0,0
60080,-55.5555555555556,4,2,17,80,0,0
60455,-83.3333333333333,4,2,17,80,0,0
62330,-55.5555555555556,4,2,17,80,0,0
63080,-71.4285714285714,4,2,17,80,0,0
64955,-83.3333333333333,4,2,17,80,0,0
66080,-62.5,4,2,17,80,0,0
66455,-83.3333333333333,4,2,17,80,0,0
69080,-71.4285714285714,4,2,17,80,0,0
69455,-83.3333333333333,4,2,17,80,0,0
69830,-71.4285714285714,4,2,17,80,0,0
70205,-83.3333333333333,4,2,17,80,0,0
72080,-62.5,4,2,17,75,0,0
72455,-71.4285714285714,4,2,17,75,0,0
73767,-62.5,4,2,17,75,0,0
75080,-62.5,4,2,17,75,0,0
75455,-71.4285714285714,4,2,17,75,0,0
76767,-55.5555555555556,4,2,17,75,0,0
77142,-71.4285714285714,4,2,17,75,0,0
77330,-41.6666666666667,4,2,17,75,0,0
78080,-62.5,4,2,17,75,0,0
78455,-71.4285714285714,4,2,17,75,0,0
79767,-62.5,4,2,17,75,0,0
81080,-62.5,4,2,17,75,0,0
81455,-71.4285714285714,4,2,17,75,0,0
85580,-71.4285714285714,4,2,17,50,0,0
86330,-166.666666666667,4,2,17,50,0,0

[Colours]
Combo1 : 197,197,137
Combo2 : 192,192,192

[HitObjects]
254,384,1583,6,0,B|233:336|271:266|253:227,1,157.499995193482,6|0,1:2|0:0,0:0:0:0:
244,215,1879,6,0,P|221:201|193:193,1,52.4999983978272,2|0,0:0|0:0,0:0:0:0:
168,119,2175,2,0,P|191:106|212:85,1,52.4999983978272,2|0,0:0|0:0,0:0:0:0:
284,0,2558,2,0,P|283:26|290:55,2,52.4999983978272,2|2|2,0:0|0:0|0:0,0:0:0:0:
363,14,3285,5,2,0:0:0:0:
375,9,3474,1,2,0:0:0:0:
372,21,3663,1,2,0:0:0:0:
308,79,3851,2,0,P|325:117|332:155,1,70,2|0,0:0|0:0,0:0:0:0:
423,191,4229,2,0,P|433:157|435:122,1,70,2|0,0:0|0:0,0:0:0:0:
507,198,4512,1,2,1:2:0:0:
506,212,4583,6,0,P|426:223|322:353,1,236.249992790222,14|0,0:2|3:2,0:2:0:0:
253,384,4958,2,0,P|237:327|155:318,1,131.25,2|0,1:2|3:2,0:2:0:0:
95,325,5333,2,0,P|34:304|20:243,1,131.25,2|0,1:2|0:0,0:2:0:0:
138,178,5708,2,0,P|142:150|152:127,1,52.5,2|0,1:2|3:2,0:2:0:0:
36,166,6083,6,0,P|107:199|174:320,1,210,2|0,1:2|3:2,0:2:0:0:
233,358,6458,2,0,P|286:371|324:308,1,131.25,2|0,1:2|3:2,0:2:0:0:
337,234,6833,2,0,P|367:180|428:190,1,131.25,2|0,1:2|3:2,0:2:0:0:
495,241,7208,2,0,P|484:265|481:291,1,52.5,2|0,1:2|3:2,0:2:0:0:
377,384,7583,6,0,P|295:330|329:233,1,210,0|0,0:0|3:2,0:0:0:0:
408,188,7958,2,0,P|453:172|445:92,1,131.25,2|0,1:2|3:2,0:2:0:0:
379,27,8333,2,0,P|342:-4|277:42,1,131.25,2|0,1:2|3:2,0:2:0:0:
227,118,8708,6,0,B|204:142|165:132|165:132|150:150|150:150|106:136|78:159,1,157.499995193482,14|0,0:2|0:2,0:2:0:0:
91,244,9083,6,0,P|120:269|144:267,2,58.3333333333333,12|12|12,0:3|0:3|0:3,0:0:0:0:
45,71,9458,6,0,P|8:83|-1:105,2,58.3333333333333,8|4|4,0:3|0:3|0:3,0:0:0:0:
280,9,9833,6,0,B|292:43|259:91|237:70|198:106|211:170|211:170|207:133|228:116,1,244.999992523194,6|0,3:2|0:2,0:2:0:0:
116,17,10395,2,0,L|112:0,1,17.5,8|8,0:1|0:1,0:0:0:0:
226,117,10583,6,0,P|270:99|368:81,1,140,6|0,1:2|1:2,0:2:0:0:
475,7,11145,1,6,0:3:0:0:
432,79,11333,6,0,P|450:123|468:221,1,140,2|0,1:2|1:2,0:2:0:0:
496,374,11895,1,2,2:0:0:0:
479,296,12083,2,0,P|449:284|388:358,2,131.25,6|2|4,1:2|0:2|0:3,0:2:0:0:
387,357,12833,2,0,B|324:386|280:342|289:300|315:298|328:321,1,140,10|0,0:3|0:2,0:2:0:0:
190,380,13395,5,8,0:1:0:0:
198,369,13489,1,8,0:1:0:0:
194,359,13583,2,0,P|136:330|89:381,1,140,2|0,1:2|1:2,0:2:0:0:
243,258,14145,1,6,0:3:0:0:
162,256,14333,2,0,P|98:234|23:228,1,140,2|8,1:2|0:3,0:2:0:0:
192,178,14895,5,10,0:1:0:0:
275,170,15083,2,0,P|325:157|331:75,2,131.25,2|2|6,1:2|0:2|0:3,0:2:0:0:
335,63,15833,2,0,B|361:25|402:35|410:63|396:73|381:64,1,70,6|0,1:2|0:0,0:2:0:0:
463,17,16114,1,0,1:2:0:0:
465,30,16208,2,0,P|438:66|423:134,1,105,0|0,1:2|0:0,0:0:0:0:
423,123,16583,5,6,1:2:0:0:
444,240,16770,1,2,0:2:0:0:
375,192,16958,1,2,1:2:0:0:
492,171,17145,1,2,0:2:0:0:
489,314,17333,2,0,P|450:326|410:330,1,70,2|0,1:2|0:2,0:2:0:0:
325,255,17708,2,0,P|286:243|246:239,1,70,10|0,0:3|0:0,0:2:0:0:
91,355,18083,5,2,1:2:0:0:
70,238,18270,1,2,0:2:0:0:
139,286,18458,1,2,1:2:0:0:
22,307,18645,1,6,0:3:0:0:
25,164,18833,2,0,P|64:152|104:148,1,70,2|0,1:2|0:0,0:2:0:0:
189,223,19208,2,0,P|228:235|268:239,1,70,10|0,2:3|0:0,0:0:0:0:
324,22,19583,6,0,P|321:69|292:100,1,78.7499975967408,6|0,1:2|0:2,0:2:0:0:
256,146,19958,2,0,L|256:171,1,17.5,0|0,1:2|0:2,0:0:0:0:
188,22,20333,6,0,P|191:69|220:100,1,78.7499975967408,6|0,0:3|0:2,0:2:0:0:
256,146,20708,2,0,L|256:171,1,17.5,0|2,1:2|0:2,0:0:0:0:
340,318,21083,6,0,P|301:290|254:280,1,87.5,6|0,0:3|0:0,0:0:0:0:
210,219,21364,6,0,P|182:258|172:305,1,87.5,6|0,0:3|0:0,0:0:0:0:
112,347,21645,2,0,P|136:364|165:370,1,43.75,6|0,0:3|0:0,0:0:0:0:
266,274,21833,6,0,P|307:285|342:311,1,87.5,6|0,0:3|0:0,0:0:0:0:
392,239,22114,1,8,0:2:0:0:
405,235,22208,2,0,P|434:198|432:185,1,52.5,10|0,0:2|0:0,0:2:0:0:
502,89,22583,6,0,B|484:126|522:196|501:244,1,157.499995193482,6|0,1:2|0:0,0:2:0:0:
493,259,22958,1,0,1:2:0:0:
343,180,23145,2,0,L|348:154,1,26.2499991989136,2|0,0:2|0:0,0:0:0:0:
405,235,23333,2,0,P|367:270|284:236,1,131.25,2|0,1:2|0:0,0:2:0:0:
287,242,23708,1,0,1:2:0:0:
193,384,23895,6,0,L|188:358,1,26.2499991989136,2|0,0:2|0:0,0:0:0:0:
116,300,24083,2,0,P|46:316|-12:370,2,131.25,10|10|4,0:3|0:1|0:3,0:2:0:0:
204,199,24833,2,0,P|178:160|127:169,1,87.5,14|0,0:3|0:0,0:2:0:0:
75,190,25114,1,0,1:2:0:0:
65,203,25208,2,0,P|39:242|-12:233,1,87.5,0|10,1:2|0:1,0:0:0:0:
0,150,25489,5,8,0:1:0:0:
12,139,25583,2,0,P|80:145|106:79,1,131.25,2|0,1:2|0:0,0:2:0:0:
108,85,25958,1,0,1:2:0:0:
271,27,26145,2,0,L|278:1,1,26.2499991989136,10|0,0:1|0:2,0:2:0:0:
187,50,26333,6,0,P|252:73|316:116,1,131.25,6|0,0:3|0:0,0:2:0:0:
322,119,26708,1,0,1:2:0:0:
493,22,26895,2,0,L|480:-1,1,26.2499991989136,2|0,0:2|0:0,0:0:0:0:
406,78,27083,2,0,P|467:95|498:151,2,131.25,2|2|10,1:2|3:2|0:1,0:2:0:0:
297,203,27833,6,0,P|321:257|327:299,1,87.5,14|0,0:3|0:0,0:2:0:0:
378,372,28114,1,0,1:2:0:0:
382,383,28208,2,0,B|372:337|417:318|410:266,1,105,0|8,1:2|0:1,0:0:0:0:
411,268,28583,5,6,1:2:0:0:
488,228,28770,1,2,0:2:0:0:
482,310,28958,1,2,1:2:0:0:
482,310,29145,1,2,0:2:0:0:
416,190,29333,2,0,P|368:185|324:172,1,87.5,2|0,1:2|0:1,0:2:0:0:
241,272,29708,2,0,P|197:276|155:287,1,87.5,2|8,0:3|0:1,0:0:0:0:
26,365,30083,6,0,P|67:364|87:327,1,87.5,10|0,0:3|0:2,0:2:0:0:
155,287,30364,2,0,P|175:250|153:215,1,87.5,2|0,3:2|0:0,0:0:0:0:
84,252,30645,1,2,0:1:0:0:
84,252,30833,2,0,P|75:209|48:167,1,87.5,2|0,1:2|0:1,0:0:0:0:
198,92,31208,2,0,P|171:139|129:133,1,87.5,6|0,0:3|0:1,0:0:0:0:
0,0,31583,6,0,P|45:13|125:70,1,131.25,6|0,1:2|0:0,0:2:0:0:
124,69,31958,1,6,0:3:0:0:
341,24,32145,2,0,L|350:0,1,26.2499991989136,2|0,0:2|0:0,0:0:0:0:
273,75,32333,2,2,L|285:106,6,21.875,2|0|2|0|2|0|2,0:1|0:0|0:1|0:0|0:1|0:0|0:1,0:2:0:0:
365,103,32708,2,0,P|331:155|311:237,1,131.25,6|0,0:3|0:2,0:2:0:0:
317,240,33083,6,0,B|347:216|388:228|414:201,1,104.999996795654,10|4,0:3|0:1,0:2:0:0:
466,327,33364,1,2,1:2:0:0:
472,339,33458,2,0,B|441:315|400:327|374:300,1,104.999996795654,2|8,1:2|0:1,0:0:0:0:
508,152,33833,1,14,0:3:0:0:
512,178,33926,1,4,0:3:0:0:
489,204,34020,1,4,0:3:0:0:
494,231,34113,1,8,0:3:0:0:
479,251,34208,2,0,B|426:250|371:333|317:334,1,183.749994392395,6|0,0:3|0:0,0:0:0:0:
245,318,34583,6,0,P|240:356|267:384,2,78.7499975967408,2|2|2,3:2|0:2|0:2,0:2:0:0:
305,254,35333,2,0,P|325:208|327:137,1,104.999996795654,2|0,3:2|0:2,0:2:0:0:
199,51,36083,2,0,P|234:36|244:0,2,78.7499975967408,2|2|2,3:2|0:2|0:2,0:2:0:0:
112,31,36833,2,0,P|62:36|0:69,1,104.999996795654,2|0,3:2|0:2,0:2:0:0:
67,228,37583,6,0,P|36:204|0:214,2,78.7499975967408,2|10|10,3:2|0:1|0:1,0:2:0:0:
115,311,38333,2,0,P|110:348|136:376,2,78.7499975967408,2|10|10,3:2|0:1|0:1,0:2:0:0:
159,238,38989,1,6,0:1:0:0:
163,228,39083,2,0,P|198:213|208:176,2,78.7499975967408,2|10|2,3:2|0:1|0:2,0:0:0:0:
131,157,39833,2,0,P|125:129|112:89,1,52.4999983978272,2|0,3:2|0:0,0:2:0:0:
178,50,40114,1,6,0:1:0:0:
186,47,40208,2,0,P|191:72|198:97,1,52.4999983978272,2|0,0:2|0:0,0:0:0:0:
70,217,40583,6,0,P|36:199|0:192,1,70,2|8,1:2|0:1,0:2:0:0:
208,176,40958,2,0,P|242:194|278:201,1,70,10|8,1:1|0:1,0:2:0:0:
149,246,41333,1,2,1:2:0:0:
131,157,41520,1,0,3:2:0:0:
126,138,41614,1,0,1:2:0:0:
123,121,41707,1,2,1:2:0:0:
380,33,42083,6,0,P|414:51|450:58,1,70,2|0,1:2|3:2,0:2:0:0:
242,74,42458,2,0,P|208:56|172:49,1,70,2|8,1:2|0:1,0:2:0:0:
301,4,42833,1,6,0:3:0:0:
319,93,43020,1,0,1:2:0:0:
324,112,43113,1,0,1:2:0:0:
327,129,43208,1,2,3:2:0:0:
481,275,43583,6,0,P|486:247|510:198,1,70,2|8,1:2|0:1,0:2:0:0:
422,148,43864,2,0,P|417:176|392:224,1,70,2|0,0:2|0:2,0:2:0:0:
387,224,44145,2,0,P|367:207|339:205,1,35,10|0,0:1|0:2,0:2:0:0:
248,161,44333,2,0,P|272:197|288:272,1,105,2|0,1:2|3:2,0:0:0:0:
286,273,44708,2,0,P|261:274|244:287,1,35,0|8,1:2|0:1,0:0:0:0:
269,359,44895,2,0,P|294:358|311:345,1,35,2|0,3:2|3:2,0:0:0:0:
366,300,45083,5,2,1:2:0:0:
366,300,45176,1,8,0:1:0:0:
366,300,45270,1,0,3:2:0:0:
194,326,45458,2,0,L|155:332,1,35,4|8,0:3|0:1,0:0:0:0:
10,345,45645,1,0,3:2:0:0:
90,380,45833,5,12,0:3:0:0:
106,273,46020,1,12,3:3:0:0:
0,222,46208,1,14,3:3:0:0:
16,115,46395,1,4,0:3:0:0:
260,275,46583,1,14,0:3:0:0:
150,128,46780,6,0,P|125:160|122:193,2,70,2|2|2,0:2|0:2|0:2,0:0:0:0:
328,77,47372,6,0,P|319:29|287:-7,2,87.5,2|2|0,0:2|0:2|0:2,0:2:0:0:
269,222,47941,1,2,0:2:0:0:
204,0,48080,6,0,B|248:41|219:174|270:223,1,236.249992790222,6|0,1:2|0:2,0:2:0:0:
347,245,48455,2,0,P|387:214|450:199,1,104.999996795654,0|0,1:2|0:2,0:2:0:0:
494,9,48830,2,0,P|422:14|414:130,1,210,2|0,1:2|3:2,0:2:0:0:
438,199,49205,2,0,P|463:138|490:98,1,104.999996795654,10|0,0:2|0:2,0:2:0:0:
269,222,49580,2,0,P|296:266|315:315,1,104.999996795654,2|0,1:2|0:0,0:2:0:0:
489,369,49861,1,0,3:2:0:0:
489,369,49955,2,0,P|504:309|414:298,1,157.499995193482,10|0,0:3|0:2,0:2:0:0:
386,356,50330,2,0,B|317:397|234:357|263:274|100:128|-43:340|102:418|161:382|168:309,1,472.499985580445,6|0,0:3|3:2,0:2:0:0:
308,13,51080,6,0,B|249:41|231:162|312:156|279:78,1,183.749994392395,6|0,1:2|0:2,0:2:0:0:
88,29,51455,6,0,B|96:93|205:148|225:69|140:76,1,183.749994392395,6|0,0:3|0:2,0:2:0:0:
35,243,51830,6,0,B|99:255|184:167|115:124|96:207,1,183.749994392395,10|0,0:3|0:0,0:2:0:0:
222,359,52205,6,0,P|227:321|218:288,1,61.2499981307984,10|0,0:2|0:0,0:2:0:0:
99,194,52392,2,0,P|129:217|162:226,1,61.2499981307984,0|0,3:0|3:2,0:0:0:0:
390,216,52580,2,0,B|345:168|224:188|255:263|319:208,1,183.749994392395,6|0,1:2|3:2,0:2:0:0:
309,216,52955,1,2,1:2:0:0:
218,54,53142,2,0,L|203:111,1,52.4999983978272,0|0,3:2|3:2,0:0:0:0:
206,167,53330,2,0,L|192:116,1,52.4999983978272,2|0,1:2|0:2,0:2:0:0:
285,5,53517,1,10,0:2:0:0:
182,246,53705,1,10,0:2:0:0:
159,331,54080,6,0,B|119:293|145:173|99:128,1,210,6|0,1:2|0:0,0:2:0:0:
55,66,54455,2,0,P|16:103|36:159,1,104.999996795654,4|0,0:3|3:2,0:0:0:0:
232,259,54830,2,0,P|207:254|173:242,1,52.4999983978272,2|0,1:2|0:0,0:0:0:0:
48,235,55017,2,0,P|72:226|98:221,1,52.4999983978272,2|0,3:2|0:0,0:0:0:0:
286,326,55205,2,0,P|324:288|304:232,1,104.999996795654,10|0,0:2|3:2,0:2:0:0:
130,15,55580,6,0,P|159:61|172:118,1,104.999996795654,2|0,1:2|3:2,0:0:0:0:
239,157,55861,1,0,3:2:0:0:
247,163,55955,2,0,P|272:114|315:75,1,104.999996795654,2|0,1:2|0:2,0:2:0:0:
512,150,56330,2,0,P|507:124|499:99,1,52.4999983978272,6|0,0:3|0:0,0:2:0:0:
425,0,56517,2,0,P|416:24|412:50,1,52.4999983978272,2|0,3:2|3:2,0:0:0:0:
512,263,56705,2,0,P|455:239|412:311,1,157.499995193482,10|0,0:2|0:0,0:2:0:0:
485,348,57080,6,0,P|422:312|307:324,1,183.749994392395,6|0,1:2|3:2,0:2:0:0:
271,384,57455,2,0,P|236:361|246:300,1,104.999996795654,10|0,0:3|0:2,0:2:0:0:
385,128,57830,2,0,P|392:214|308:236,1,183.749994392395,2|0,1:2|3:2,0:0:0:0:
233,224,58205,2,0,P|227:196|211:167,1,52.4999983978272,10|0,0:2|0:0,0:2:0:0:
291,70,58392,2,0,P|279:93|274:119,1,52.4999983978272,2|0,3:2|0:0,0:0:0:0:
168,278,58580,1,8,0:3:0:0:
0,178,58767,5,8,0:3:0:0:
5,192,58860,1,0,3:2:0:0:
10,207,58954,1,8,0:3:0:0:
85,246,59142,1,0,3:2:0:0:
197,135,59330,6,0,P|204:160|219:182,1,52.4999983978272,4|0,0:3|0:2,0:2:0:0:
283,303,59517,2,0,P|276:278|263:256,1,52.4999983978272,0|0,3:2|3:2,0:0:0:0:
119,150,59705,2,0,P|84:149|53:136,1,52.4999983978272,8|8,0:2|0:2,0:0:0:0:
357,266,59892,2,0,P|391:266|422:279,1,52.4999983978272,8|8,0:2|0:2,0:0:0:0:
211,374,60080,6,0,B|261:325|233:192|276:151,1,236.249992790222,6|0,1:2|0:2,0:2:0:0:
350,134,60455,2,0,P|330:82|280:78,1,104.999996795654,2|0,1:2|0:2,0:2:0:0:
38,201,60830,2,0,P|114:194|173:244,1,157.499995193482,2|0,1:2|0:0,0:2:0:0:
71,304,61205,2,0,P|57:254|25:213,1,104.999996795654,10|0,0:2|3:2,0:0:0:0:
224,26,61580,2,0,P|192:67|179:117,1,104.999996795654,6|0,1:2|0:0,0:2:0:0:
0,0,61955,2,0,P|8:78|79:82,1,157.499995193482,10|0,0:3|0:2,0:2:0:0:
93,0,62330,2,0,B|170:19|201:106|121:144|134:363|385:314|337:156|270:140|213:187,1,472.499985580445,10|0,0:3|3:2,0:2:0:0:
0,384,63080,6,0,B|12:305|99:290|140:345|88:373|64:338,1,183.749994392395,6|0,1:2|0:2,0:2:0:0:
106,215,63455,6,0,B|170:167|242:218|232:286|176:269|183:227,1,183.749994392395,4|0,0:3|0:2,0:2:0:0:
300,170,63830,6,0,B|379:182|394:269|339:310|311:258|346:234,1,183.749994392395,10|0,0:3|0:0,0:2:0:0:
488,245,64205,6,0,P|507:284|505:315,1,61.2499981307984,10|0,0:2|0:0,0:2:0:0:
276,384,64392,2,0,P|300:348|328:334,1,61.2499981307984,2|0,3:0|3:2,0:0:0:0:
459,384,64580,2,0,B|380:372|365:285|420:244|448:295|413:320,1,183.749994392395,2|0,1:2|0:2,0:2:0:0:
418,314,64955,1,6,0:3:0:0:
300,170,65142,2,0,L|314:119,1,52.4999983978272,0|0,3:2|3:2,0:0:0:0:
288,57,65330,2,0,L|301:107,1,52.4999983978272,8|0,0:3|0:2,0:2:0:0:
324,249,65517,1,2,0:2:0:0:
222,11,65705,1,8,0:2:0:0:
229,129,66080,6,0,B|172:143|134:260|80:273,1,210,6|0,1:2|0:0,0:2:0:0:
14,302,66455,2,0,P|-4:261|42:217,1,104.999996795654,4|0,0:3|3:2,0:0:0:0:
222,310,66830,2,0,P|213:285|199:263,1,52.4999983978272,10|0,0:3|0:0,0:0:0:0:
229,129,67017,2,0,P|214:150|206:175,1,52.4999983978272,2|0,3:2|0:0,0:0:0:0:
286,373,67205,2,0,P|337:348|400:334,1,104.999996795654,10|0,0:2|0:2,0:2:0:0:
482,149,67580,6,0,P|429:141|396:195,1,104.999996795654,10|0,0:3|3:2,0:0:0:0:
424,249,67861,1,0,3:2:0:0:
428,258,67955,2,0,P|480:265|513:211,1,104.999996795654,2|0,1:2|0:2,0:2:0:0:
363,91,68330,2,0,P|325:82|304:69,1,52.4999983978272,2|0,1:2|0:0,0:2:0:0:
202,152,68517,2,0,P|225:141|251:136,1,52.4999983978272,0|0,3:2|3:2,0:0:0:0:
464,45,68705,2,0,P|410:101|402:198,1,157.499995193482,10|0,0:2|0:0,0:2:0:0:
428,244,69080,6,0,B|366:249|308:313|241:317,1,183.749994392395,6|0,1:2|0:2,0:2:0:0:
202,367,69455,2,0,P|177:346|198:276,1,104.999996795654,2|0,1:2|0:2,0:2:0:0:
362,91,69830,2,0,P|325:126|315:195,1,122.499996261597,2|0,1:2|3:2,0:0:0:0:
189,281,70111,1,0,3:2:0:0:
181,291,70205,2,0,P|175:231|134:186,1,104.999996795654,10|0,0:2|0:0,0:2:0:0:
337,20,70580,5,2,1:2:0:0:
298,166,70767,1,2,0:2:0:0:
259,314,70955,1,4,0:3:0:0:
257,319,71048,1,8,0:1:0:0:
252,317,71142,1,2,0:2:0:0:
328,265,71330,6,0,P|337:299|340:328,1,52.4999983978272,10|0,0:2|0:2,0:2:0:0:
216,233,71517,2,0,P|190:258|173:281,1,52.4999983978272,8|0,0:2|0:2,0:2:0:0:
422,254,71705,2,0,P|452:227|452:201,1,52.4999983978272,10|0,0:2|0:2,0:2:0:0:
135,187,71892,2,0,P|119:166|118:140,1,52.4999983978272,8|0,0:2|0:2,0:2:0:0:
347,0,72080,6,0,B|302:33|332:167|286:203,1,210,2|4,1:2|0:3,0:2:0:0:
291,198,72455,2,0,P|282:162|264:135,1,61.2499981307984,10|0,0:3|0:2,0:2:0:0:
505,84,72642,2,0,P|431:94|389:199,1,183.749994392395,2|0,0:1|0:0,0:2:0:0:
457,235,73017,2,0,P|472:208|495:188,1,61.2499981307984,2|8,0:1|0:1,0:2:0:0:
327,262,73205,2,0,P|357:261|386:271,1,61.2499981307984,2|0,1:2|0:2,0:2:0:0:
238,162,73392,2,0,P|253:188|259:218,1,61.2499981307984,2|0,0:1|0:0,0:0:0:0:
229,384,73580,1,10,0:3:0:0:
114,237,73767,6,0,L|171:274,1,70,2|8,3:2|0:1,0:0:0:0:
91,310,73955,2,0,L|95:241,1,70,6|0,0:3|0:0,0:0:0:0:
167,291,74142,2,0,L|105:322,1,70,2|0,0:1|0:0,0:0:0:0:
249,291,74330,2,0,L|230:368,1,70,2|0,1:2|0:0,0:0:0:0:
73,164,74517,2,0,L|140:144,1,70,10|8,0:1|0:1,0:0:0:0:
50,379,74705,1,2,0:1:0:0:
50,379,74892,2,0,L|-7:324,1,70,0|0,3:0|3:0,3:0:0:0:
143,0,75080,6,0,B|188:33|158:167|204:203,1,210,2|8,1:2|0:1,0:2:0:0:
198,198,75455,2,0,P|202:162|221:129,1,61.2499981307984,6|0,0:3|0:2,0:2:0:0:
0,130,75642,2,0,P|74:140|116:245,1,183.749994392395,10|0,0:1|0:0,0:2:0:0:
61,284,76017,2,0,P|43:259|17:242,1,61.2499981307984,10|8,0:1|0:1,0:2:0:0:
194,304,76205,2,0,P|163:307|136:320,1,61.2499981307984,2|0,3:2|0:2,0:2:0:0:
277,198,76392,2,0,P|264:225|262:256,1,61.2499981307984,2|0,0:1|0:2,0:2:0:0:
299,384,76580,1,10,1:1:0:0:
456,268,76767,6,0,P|418:204|445:279,1,236.249992790222,0|0,0:2|0:0,0:0:0:0:
511,325,77142,1,8,0:1:0:0:
342,154,77330,2,0,P|374:240|391:360,3,209.999993591309,10|2|10|2,0:3|0:2|0:3|0:2,0:2:0:0:
512,82,78080,6,0,P|467:112|401:1,1,210,6|8,1:2|0:1,0:2:0:0:
393,11,78455,2,0,P|432:24|466:28,1,61.2499981307984,6|0,0:3|0:2,0:2:0:0:
341,155,78642,2,0,P|280:89|186:105,1,183.749994392395,2|0,0:1|0:0,0:2:0:0:
144,156,79017,2,0,P|166:178|200:173,1,61.2499981307984,2|8,0:1|0:1,0:2:0:0:
160,21,79205,2,0,P|128:29|116:61,1,61.2499981307984,6|0,0:3|0:2,0:2:0:0:
268,102,79392,2,0,P|276:70|254:44,1,61.2499981307984,10|0,0:1|0:0,0:0:0:0:
66,122,79580,1,4,0:3:0:0:
224,341,79767,6,0,L|246:261,1,70,2|8,3:2|0:1,0:0:0:0:
193,223,79955,2,0,L|251:282,1,70,2|0,1:2|0:0,0:2:0:0:
310,255,80142,2,0,L|229:275,1,70,2|0,0:1|0:0,0:0:0:0:
267,179,80330,2,0,L|286:102,1,70,2|0,1:1|0:0,0:0:0:0:
308,336,80517,2,0,L|365:390,1,70,2|0,0:2|0:0,0:0:0:0:
86,307,80705,1,2,1:2:0:0:
86,307,80892,2,0,L|155:298,1,70,10|8,0:1|0:1,0:0:0:0:
439,384,81080,6,0,B|479:352|449:218|494:185,1,210,6|4,1:2|0:3,0:2:0:0:
493,186,81455,2,0,P|462:188|420:206,1,61.2499981307984,10|0,0:3|0:2,0:2:0:0:
288,98,81642,2,0,P|374:101|413:23,1,183.749994392395,10|0,0:1|0:2,0:2:0:0:
324,27,82017,2,0,P|350:54|369:93,1,61.2499981307984,2|8,3:2|0:1,0:2:0:0:
353,205,82205,2,0,P|363:168|387:133,1,61.2499981307984,10|0,0:3|0:2,0:2:0:0:
493,91,82392,2,0,P|456:100|413:96,1,61.2499981307984,2|0,0:1|0:2,0:2:0:0:
243,32,82580,1,6,0:3:0:0:
299,231,82767,5,14,0:3:0:0:
324,214,82860,1,0,3:2:0:0:
353,205,82954,1,4,0:3:0:0:
108,132,83142,6,0,P|137:150|157:180,1,61.2499981307984,2|0,3:2|0:1,0:0:0:0:
209,269,83330,2,0,P|210:234|226:202,1,61.2499981307984,6|0,0:3|0:2,0:2:0:0:
150,16,83517,2,0,P|166:46|168:82,1,61.2499981307984,10|0,0:2|0:2,0:2:0:0:
242,355,83705,2,0,P|260:326|290:306,1,61.2499981307984,10|0,0:2|0:2,0:2:0:0:
278,114,83892,2,0,P|247:130|211:132,1,61.2499981307984,10|0,0:2|0:2,0:2:0:0:
367,291,84080,1,14,0:3:0:0:
470,110,84267,6,0,P|446:90|399:95,1,61.2499981307984,14|0,0:2|0:0,0:2:0:0:
319,196,84455,2,0,P|365:211|415:152,1,122.499996261597,0|8,1:2|0:1,0:0:0:0:
213,37,84830,2,0,P|194:59|195:94,1,61.2499981307984,10|0,0:3|0:1,0:0:0:0:
278,114,85017,2,0,P|296:91|295:56,1,61.2499981307984,2|8,3:1|0:1,0:0:0:0:
82,131,85205,2,0,P|112:131|135:149,1,61.2499981307984,6|8,0:3|0:1,0:0:0:0:
247,264,85392,2,0,B|271:300|242:337|256:390,1,122.499996261597,2|0,0:2|0:2,0:2:0:0:
252,12,86330,6,0,B|271:41|247:71|259:114,1,104.999996795654,2|0,0:2|0:2,0:2:0:0:
