osu file format v14

[General]
AudioFilename: audio.mp3
AudioLeadIn: 0
PreviewTime: 46681
Countdown: 0
SampleSet: Soft
StackLeniency: 0.7
Mode: 2
LetterboxInBreaks: 0
WidescreenStoryboard: 0

[Editor]
DistanceSpacing: 1.1
BeatDivisor: 4
GridSize: 32
TimelineZoom: 1.5

[Metadata]
Title:HOLLOW HUNGER (TV Size)
TitleUnicode:HOLLOW HUNGER (TV Size)
Artist:OxT
ArtistUnicode:OxT
Creator:Ascendance
Version:NIGHTMARE
Source:オーバーロードⅣ
Tags:overlord IV op opening 4 anime rock male vocalist japanese hotaru 大石昌良 Masayoshi Ōishi oishi ooishi Tom-H@ck pop jpop j-pop オーイシマサヨシ オクト juansy- verti greaper jemzuu ajamez secre chickenbible NeKroMan4ik shalltear bloodfallen シャルティア ブラッドフォールン
BeatmapID:3842030
BeatmapSetID:1867700

[Difficulty]
HPDrainRate:6
CircleSize:4.4
OverallDifficulty:9.5
ApproachRate:9.5
SliderMultiplier:2.2
SliderTickRate:2

[Events]
//Background and Video events
0,0,"get jpgd.jpg",0,0
//Break Periods
//Storyboard Layer 0 (Background)
//Storyboard Layer 1 (Fail)
//Storyboard Layer 2 (Pass)
//Storyboard Layer 3 (Foreground)
//Storyboard Layer 4 (Overlay)
//Storyboard Sound Samples

[TimingPoints]
1583,394.736842105263,4,2,2,50,1,0
2372,372.670807453416,4,2,2,50,1,0
3097,377.358490566038,4,2,2,50,1,0
4583,375,4,2,2,70,1,0
4583,-100,4,2,2,70,0,0
4958,-100,4,2,2,70,0,0
5708,-100,4,2,2,70,0,0
6083,-100,4,2,2,70,0,0
7583,-100,4,2,2,70,0,0
7958,-100,4,2,2,70,0,0
8708,-33.3333333333333,4,2,2,70,0,0
9083,-100,4,2,2,70,0,0
9833,-25,4,2,2,70,0,0
10583,-100,4,2,2,60,0,0
12083,-100,4,2,2,60,0,0
12833,-100,4,2,2,60,0,0
15083,-100,4,2,2,60,0,0
15833,-100,4,2,2,60,0,0
17708,-100,4,2,2,60,0,0
18083,-100,4,2,2,60,0,0
18833,-100,4,2,2,60,0,0
19208,-100,4,2,2,60,0,0
19583,-100,4,2,2,60,0,0
21833,-100,4,2,2,60,0,0
22114,-100,4,2,2,60,0,0
22583,-100,4,2,2,60,0,0
23145,-100,4,2,2,60,0,0
24083,-100,4,2,2,60,0,0
25583,-100,4,2,2,60,0,0
26145,-100,4,2,2,60,0,0
27083,-100,4,2,2,60,0,0
27833,-100,4,2,2,60,0,0
28583,-100,4,2,2,60,0,0
29333,-100,4,2,2,60,0,0
31958,-100,4,2,2,60,0,0
32333,-100,4,2,2,60,0,0
32708,-100,4,2,2,60,0,0
33083,-100,4,2,2,60,0,0
33833,-100,4,2,2,60,0,0
34583,-100,4,2,2,50,0,0
37583,-100,4,2,2,50,0,0
40583,-100,4,2,2,60,0,0
46208,-100,4,2,2,60,0,0
46583,394.736842105263,4,2,2,70,1,0
47372,379.746835443038,4,2,2,70,1,0
48080,375,4,2,2,80,1,0
48080,-86.9565217391304,4,2,2,80,0,1
48455,-86.9565217391304,4,2,2,80,0,1
51080,-86.9565217391304,4,2,2,80,0,1
51455,-86.9565217391304,4,2,2,80,0,1
54080,-86.9565217391304,4,2,2,80,0,1
54455,-86.9565217391304,4,2,2,80,0,1
57080,-86.9565217391304,4,2,2,80,0,1
57455,-86.9565217391304,4,2,2,80,0,1
58580,-86.9565217391304,4,2,2,80,0,1
60080,-86.9565217391304,4,2,2,80,0,1
60455,-86.9565217391304,4,2,2,80,0,1
63080,-86.9565217391304,4,2,2,80,0,1
63455,-86.9565217391304,4,2,2,80,0,1
66080,-86.9565217391304,4,2,2,80,0,1
66455,-86.9565217391304,4,2,2,80,0,1
69080,-86.9565217391304,4,2,2,80,0,1
69455,-86.9565217391304,4,2,2,80,0,1
70580,-86.9565217391304,4,2,2,80,0,1
72080,-100,4,2,2,75,0,0
72455,-100,4,2,2,75,0,0
73017,-100,4,2,2,75,0,0
73955,-100,4,2,2,75,0,0
74705,-100,4,2,2,75,0,0
75080,-100,4,2,2,75,0,0
75455,-100,4,2,2,75,0,0
76017,-100,4,2,2,75,0,0
76955,-100,4,2,2,75,0,0
77330,-100,4,2,2,75,0,0
78080,-100,4,2,2,75,0,0
78455,-100,4,2,2,75,0,0
79017,-100,4,2,2,75,0,0
79955,-100,4,2,2,75,0,0
80705,-100,4,2,2,75,0,0
81080,-100,4,2,2,75,0,0
81455,-100,4,2,2,75,0,0
82017,-100,4,2,2,75,0,0
82392,-100,4,2,2,75,0,0
82767,-100,4,2,2,75,0,0
83142,-100,4,2,2,75,0,0
84267,-100,4,2,2,75,0,0
84642,-100,4,2,2,75,0,0
85391,-100,4,2,2,75,0,0
85580,-100,4,2,2,50,0,0

[Colours]
Combo1 : 57,66,164
Combo2 : 255,0,0
Combo3 : 63,63,63
Combo4 : 255,118,111

[HitObjects]
101,103,1583,6,0,B|168:137|168:137|286:79,2,165
417,230,2558,2,0,B|296:211,2,110
124,293,3285,5,0,0:0:0:0:
242,212,3474,2,0,L|254:329,1,110
66,189,3851,2,0,L|77:79,1,110
242,212,4229,2,0,L|254:329,1,110
484,181,4583,6,0,L|337:143,1,110,4|0,1:1|0:0,0:0:0:0:
314,173,4864,1,2,0:3:0:0:
104,338,4958,2,0,L|261:309,1,110,2|2,1:2|0:3,0:0:0:0:
263,276,5239,1,0,0:0:0:0:
40,248,5333,6,0,L|27:108,1,110,2|2,1:2|0:3,0:0:0:0:
90,111,5614,1,0,0:0:0:0:
273,148,5708,2,0,L|283:67,1,55,2|0,1:2|0:0,0:0:0:0:
200,216,5895,2,0,L|186:156,1,55
391,340,6083,6,0,L|254:323,1,110,2|0,1:2|0:0,0:0:0:0:
219,349,6364,1,2,0:3:0:0:
474,249,6458,2,0,L|346:230,1,110,2|2,1:2|0:3,0:0:0:0:
305,261,6739,1,0,0:0:0:0:
140,105,6833,6,0,L|261:120,1,110,2|0,1:2|0:0,0:0:0:0:
291,169,7114,1,2,0:3:0:0:
138,276,7208,2,0,L|147:204,1,55,2|0,1:2|0:0,0:0:0:0:
226,225,7395,2,0,L|238:139,1,55,2|0,0:3|0:0,0:0:0:0:
38,110,7583,6,0,L|176:79,1,110,2|0,1:2|0:0,0:0:0:0:
205,114,7864,1,2,0:3:0:0:
387,258,7958,2,0,L|235:242,1,110,2|2,1:2|0:3,0:0:0:0:
334,295,8239,1,0,0:0:0:0:
496,207,8333,2,0,L|481:88,1,110,2|0,1:2|0:0,0:0:0:0:
417,85,8614,1,0,0:0:0:0:
162,43,8708,6,2,B|482:40|482:40|486:308|486:308,1,495.000018882752,2|0,1:2|3:0,0:0:0:0:
261,258,9083,5,8,1:3:0:0:
144,258,9208,1,4,0:3:0:0:
261,258,9333,1,8,0:3:0:0:
27,167,9458,1,8,0:3:0:0:
144,169,9583,1,4,0:3:0:0:
27,167,9708,1,8,0:3:0:0:
212,43,9833,6,2,B|493:42|493:42|494:79|494:79|508:50|508:50|471:53|471:53|502:84|502:84|509:49|509:49|426:12|426:12|63:34|63:34|32:116|32:116|17:213|32:239|32:239|31:271|31:271|59:395|52:327|51:315|49:300|25:229|25:229|379:195,1,1540,0|0,1:0|0:0,0:1:0:0:
291,206,10583,6,0,P|315:306|318:346,1,110,4|0,1:2|0:0,0:0:0:0:
148,194,10958,1,0,1:0:0:0:
283,159,11145,1,2,0:0:0:0:
117,178,11333,2,0,P|88:103|95:55,1,110,2|0,1:2|0:0,0:0:0:0:
250,193,11708,1,0,1:0:0:0:
111,224,11895,1,2,0:0:0:0:
366,287,12083,5,2,1:2:0:0:
233,213,12270,2,0,L|250:152,1,55,0|2,0:0|0:0,0:0:0:0:
403,134,12551,2,0,L|395:68,1,55,0|2,0:0|0:0,0:0:0:0:
234,44,12833,2,0,L|107:26,1,110,2|0,1:2|0:0,0:0:0:0:
264,162,13208,2,0,L|397:139,1,110,0|0,1:0|3:0,0:0:0:0:
373,203,13489,1,0,3:0:0:0:
160,250,13583,6,0,L|143:365,1,110,2|0,1:2|0:0,0:0:0:0:
279,246,13958,1,0,1:0:0:0:
157,202,14145,1,2,0:0:0:0:
296,222,14333,2,0,L|420:201,1,110,2|0,1:2|0:0,0:0:0:0:
422,83,14708,1,0,1:0:0:0:
174,39,14895,1,2,0:0:0:0:
436,61,15083,5,2,1:2:0:0:
294,117,15270,2,0,L|236:107,1,55,0|2,0:0|0:0,0:0:0:0:
82,144,15551,2,0,L|13:132,1,55,0|2,0:0|0:0,0:0:0:0:
183,257,15833,2,0,L|317:236,1,110,2|0,1:2|0:0,0:0:0:0:
320,186,16114,1,0,0:0:0:0:
129,175,16208,2,0,P|82:121|148:58,1,165,0|0,1:0|0:0,0:0:0:0:
291,37,16583,6,0,L|409:40,1,110,2|0,1:2|0:0,0:0:0:0:
475,40,16864,1,0,0:0:0:0:
400,39,16958,2,0,L|270:37,1,110,2|0,1:2|0:0,0:0:0:0:
143,184,17333,2,0,L|142:60,1,110,2|0,1:2|0:0,0:0:0:0:
389,309,17708,2,0,P|466:262|426:190,1,165,2|0,1:2|0:0,0:0:0:0:
215,176,18083,6,0,L|83:176,1,110,2|0,1:2|0:0,0:0:0:0:
163,159,18364,1,2,0:0:0:0:
266,155,18458,2,0,L|407:155,1,110,0|2,0:0|0:0,0:0:0:0:
236,297,18833,2,0,L|237:175,1,110,2|0,1:2|0:0,0:0:0:0:
491,350,19208,2,0,P|391:325|314:313,1,165,2|0,1:2|0:0,0:0:0:0:
82,270,19583,6,0,P|167:247|268:178,2,165,2|2|2,1:2|0:0|0:0,0:0:0:0:
271,195,20333,2,0,P|191:174|119:133,2,165,2|2|2,1:2|0:0|0:0,0:0:0:0:
136,239,21083,5,2,1:2:0:0:
316,236,21364,1,2,1:2:0:0:
136,239,21645,1,2,1:2:0:0:
314,345,21833,2,0,L|314:183,1,146.666666666667,2|0,1:2|0:0,0:0:0:0:
23,169,22208,5,8,0:0:0:0:
487,172,22583,6,0,P|412:152|362:141,1,110,4|0,1:2|0:0,0:0:0:0:
260,169,22958,1,0,0:0:0:0:
399,106,23145,1,2,0:0:0:0:
142,322,23333,2,0,P|128:243|125:199,1,110,2|0,1:2|0:0,0:0:0:0:
301,273,23708,2,0,P|326:348|337:398,1,110,0|2,1:0|0:0,0:0:0:0:
276,356,23989,1,0,0:0:0:0:
51,283,24083,6,0,P|122:253|169:241,1,110,2|0,1:2|0:0,0:0:0:0:
305,185,24364,2,0,P|230:161|190:142,1,110,2|0,0:0|0:0,0:0:0:0:
36,200,24645,1,2,0:0:0:0:
292,25,24833,2,0,P|302:81|302:147,1,110,2|0,1:2|0:0,0:0:0:0:
221,158,25114,1,0,0:0:0:0:
134,177,25208,2,0,P|122:244|122:302,1,110,0|0,1:0|3:0,0:0:0:0:
221,158,25489,1,0,3:0:0:0:
394,157,25583,6,0,P|418:96|417:31,1,110,2|0,1:2|0:0,0:0:0:0:
261,174,25958,1,0,0:0:0:0:
125,142,26145,1,2,0:0:0:0:
411,218,26333,2,0,L|327:338,1,110,2|0,1:2|0:0,0:0:0:0:
189,317,26708,1,0,1:0:0:0:
451,361,26895,1,2,0:0:0:0:
168,300,27083,6,0,P|232:280|286:253,1,110,2|0,1:2|0:0,0:0:0:0:
429,196,27364,2,0,P|354:169|315:138,1,110,2|0,0:0|0:0,0:0:0:0:
486,74,27645,1,2,0:0:0:0:
231,209,27833,2,0,P|217:109|212:87,1,110,2|0,1:2|0:0,0:0:0:0:
264,65,28114,1,0,3:0:0:0:
91,29,28208,2,0,P|67:115|58:220,1,165,0|0,1:0|0:0,0:0:0:0:
236,213,28583,6,0,P|258:278|268:338,1,110,2|0,1:2|0:0,0:0:0:0:
100,188,28958,2,0,P|111:134|129:82,1,110,2|0,1:2|0:0,0:0:0:0:
416,58,29333,1,2,1:2:0:0:
293,87,29520,1,0,3:0:0:0:
328,73,29567,1,0,3:0:0:0:
364,62,29614,1,0,3:0:0:0:
438,80,29708,2,0,P|457:138|467:202,1,110,2|0,1:2|0:0,0:0:0:0:
412,216,29989,1,0,0:0:0:0:
350,239,30083,5,2,1:2:0:0:
476,311,30270,1,0,0:0:0:0:
279,188,30458,2,0,P|170:203|143:207,1,110,2|2,1:2|0:0,0:0:0:0:
326,287,30833,2,0,L|443:264,1,110,2|2,1:2|0:0,0:0:0:0:
132,157,31208,2,0,P|124:237|121:288,1,110,2|0,1:2|0:0,0:0:0:0:
456,38,31583,6,0,L|229:75,1,220,2|2,1:2|1:2,0:0:0:0:
392,144,32145,1,0,0:0:0:0:
114,181,32333,2,2,L|79:175,6,27.5,2|0|0|0|2|0|0,1:2|0:0|3:0|0:0|3:2|0:0|3:0,0:0:0:0:
233,276,32708,2,0,L|349:253,1,110,0|0,1:2|0:0,0:0:0:0:
39,319,33083,6,0,L|230:358,2,165,2|2|2,1:2|1:2|1:2,0:0:0:0:
308,298,33833,1,2,1:2:0:0:
366,277,33926,1,0,0:0:0:0:
380,226,34020,1,0,0:0:0:0:
339,173,34114,1,0,0:0:0:0:
178,190,34208,1,6,1:2:0:0:
121,168,34301,1,0,0:0:0:0:
114,116,34395,1,0,0:0:0:0:
146,72,34489,1,0,0:0:0:0:
313,31,34583,6,0,L|488:71,2,165,2|0|0,0:2|0:0|0:0,0:0:0:0:
165,68,35333,2,0,L|151:185,1,110,2|0,0:0|0:0,0:0:0:0:
298,179,35708,2,0,L|284:69,1,110
21,332,36083,6,0,L|226:293,2,165,2|0|0,0:0|0:0|0:0,0:0:0:0:
178,241,36833,2,0,L|183:358,1,110,2|0,0:0|0:0,0:0:0:0:
317,150,37208,2,0,L|322:263,1,110
159,132,37583,6,0,L|39:113,1,110,2|0,0:0|0:0,0:0:0:0:
215,276,37864,2,0,L|332:251,1,110,2|0,0:0|0:0,0:0:0:0:
381,267,38145,1,0,0:0:0:0:
214,191,38333,2,0,L|91:172,1,110,2|0,0:0|0:0,0:0:0:0:
259,332,38614,2,0,L|379:314,1,110,2|0,0:0|0:0,0:0:0:0:
392,263,38895,1,0,0:0:0:0:
367,315,38989,1,0,0:0:0:0:
185,314,39083,6,0,L|10:347,2,165,2|0|2,0:0|0:0|0:0,0:0:0:0:
322,342,39833,2,0,L|339:260,2,55,2|0|0,0:0|0:0|0:0,0:0:0:0:
194,268,40208,1,0,0:0:0:0:
336,244,40395,2,0,L|350:169,1,55
194,101,40583,6,0,P|117:79|61:74,1,110,2|8,1:2|0:0,0:0:0:0:
248,234,40864,2,0,P|330:229|369:215,1,110
406,186,41145,1,8,0:0:0:0:
242,134,41333,1,2,1:2:0:0:
378,172,41520,1,8,0:0:0:0:
122,201,41708,2,0,P|103:272|99:323,1,110,8|0,1:2|0:0,0:0:0:0:
359,329,42083,6,0,P|285:302|244:297,1,110,2|8,1:2|0:0,0:0:0:0:
54,343,42364,2,0,L|44:218,1,110
99,205,42645,1,8,0:0:0:0:
254,150,42833,1,2,1:2:0:0:
199,141,42926,1,0,0:0:0:0:
145,132,43020,1,8,0:0:0:0:
437,192,43208,2,0,L|455:334,1,110,8|0,1:2|0:0,0:0:0:0:
401,335,43489,1,0,0:0:0:0:
187,276,43583,6,0,L|68:254,1,110,2|8,1:2|0:0,0:0:0:0:
247,368,43864,2,0,L|362:342,1,110,2|0,0:0|0:0,0:0:0:0:
195,245,44145,2,0,L|261:229,1,55,10|0,0:0|0:0,0:0:0:0:
438,165,44333,6,0,L|326:139,1,110,2|8,1:2|0:0,0:0:0:0:
149,215,44614,2,0,L|19:190,1,110,2|0,0:0|0:0,0:0:0:0:
230,324,44895,2,0,L|303:338,1,55,8|0,0:0|0:0,0:0:0:0:
91,349,45083,5,2,1:2:0:0:
42,325,45176,1,8,0:0:0:0:
25,275,45270,1,8,0:0:0:0:
49,227,45364,1,8,0:0:0:0:
201,190,45458,2,0,L|286:189,1,55,8|8,0:0|0:0,0:0:0:0:
90,114,45645,2,0,L|31:113,1,55,8|8,0:0|0:0,0:0:0:0:
288,37,45833,6,0,L|286:105,1,55,8|8,0:3|0:3,0:0:0:0:
128,129,46020,1,8,0:3:0:0:
286,128,46114,1,8,0:3:0:0:
447,131,46208,2,0,L|450:208,1,55,4|4,0:3|0:3,0:0:0:0:
246,207,46395,2,0,L|247:279,1,55,4|4,0:3|0:3,0:0:0:0:
453,313,46583,5,4,0:0:0:0:
304,316,46780,1,0,0:0:0:0:
471,209,46977,2,0,L|480:333,1,110
211,173,47372,2,0,L|92:156,1,110
366,354,47751,2,0,L|502:330,1,110
151,328,48080,6,0,P|90:284|106:212,1,126.500002412796,4|0,1:1|0:0,0:0:0:0:
155,202,48361,1,8,0:3:0:0:
312,189,48455,2,0,L|236:146,1,63.250001206398,8|0,1:0|0:0,0:0:0:0:
176,172,48642,1,4,0:3:0:0:
434,303,48830,2,0,P|479:231|460:163,1,126.500002412796,2|8,1:2|0:3,0:0:0:0:
413,162,49111,1,0,0:0:0:0:
137,88,49205,2,0,L|290:68,1,126.500002412796,8|4,1:0|0:3,0:0:0:0:
300,130,49486,1,0,0:0:0:0:
111,284,49580,6,0,L|271:267,1,126.500002412796,2|0,1:2|0:0,0:0:0:0:
276,213,49861,1,8,0:3:0:0:
86,153,49955,2,0,L|69:88,1,63.250001206398,8|0,1:0|0:0,0:0:0:0:
161,233,50142,2,0,L|180:165,1,63.250001206398,4|0,0:3|0:0,0:0:0:0:
23,353,50330,2,0,L|91:328,1,63.250001206398,2|0,1:0|0:0,0:0:0:0:
147,358,50517,1,8,0:3:0:0:
323,263,50705,2,0,L|158:288,1,126.500002412796,8|4,1:0|0:3,0:0:0:0:
139,244,50986,1,0,0:0:0:0:
379,332,51080,6,0,P|449:270|398:179,1,189.750003619194,2|8,1:3|0:3,0:0:0:0:
154,128,51455,2,0,L|310:108,1,126.500002412796,8|4,1:0|0:3,0:0:0:0:
325,164,51736,1,0,0:0:0:0:
149,259,51830,2,0,L|239:244,1,63.250001206398,2|0,1:2|0:0,0:0:0:0:
285,239,52017,1,8,0:3:0:0:
34,346,52205,2,0,L|23:194,1,126.500002412796,8|4,1:0|0:3,0:0:0:0:
84,183,52486,1,4,0:3:0:0:
288,253,52580,6,0,P|368:187|302:106,1,189.750003619194,2|0,1:2|0:0,0:0:0:0:
136,63,52955,2,0,L|279:41,1,126.500002412796,8|4,1:0|0:3,0:0:0:0:
327,63,53236,1,0,0:0:0:0:
146,173,53330,2,0,L|219:157,1,63.250001206398,2|0,1:2|0:0,0:0:0:0:
389,160,53517,2,0,L|468:137,1,63.250001206398,8|0,1:1|0:0,0:0:0:0:
276,302,53705,2,0,L|127:277,1,126.500002412796,8|4,1:1|0:3,0:0:0:0:
83,270,53986,1,0,0:0:0:0:
297,300,54080,6,0,P|361:248|323:177,1,126.500002412796,6|0,1:2|0:0,0:0:0:0:
301,170,54361,1,8,0:3:0:0:
32,141,54455,2,0,L|102:120,1,63.250001206398,8|0,1:0|0:0,0:0:0:0:
160,147,54642,1,4,0:3:0:0:
323,58,54830,2,0,L|175:34,1,126.500002412796,2|8,1:2|0:3,0:0:0:0:
266,23,55111,1,0,0:0:0:0:
472,117,55205,2,0,P|462:207|393:232,1,126.500002412796,8|4,1:0|0:3,0:0:0:0:
368,220,55486,1,0,0:0:0:0:
157,346,55580,6,0,L|131:206,1,126.500002412796,2|0,1:0|0:0,0:0:0:0:
194,187,55861,1,8,0:3:0:0:
406,143,55955,2,0,L|326:129,1,63.250001206398,8|0,1:0|0:0,0:0:0:0:
159,168,56142,2,0,L|80:157,1,63.250001206398,4|0,0:3|0:0,0:0:0:0:
300,312,56330,2,0,L|437:285,1,126.500002412796,2|8,1:2|0:3,0:0:0:0:
458,226,56611,1,0,0:0:0:0:
203,195,56705,2,0,L|66:168,1,126.500002412796,8|4,1:0|0:3,0:0:0:0:
45,109,56986,1,0,0:0:0:0:
284,95,57080,6,0,P|266:168|190:203,1,126.500002412796,2|0,1:3|0:0,0:0:0:0:
158,181,57361,1,8,0:3:0:0:
323,249,57455,2,0,L|340:316,1,63.250001206398,8|0,1:0|0:0,0:0:0:0:
234,245,57642,2,0,L|250:174,1,63.250001206398,4|0,0:3|0:0,0:0:0:0:
467,169,57830,2,0,P|446:108|356:69,1,126.500002412796,2|8,1:2|0:3,0:0:0:0:
327,77,58111,1,0,0:0:0:0:
126,40,58205,2,0,L|200:52,1,63.250001206398,8|0,1:0|0:0,0:0:0:0:
375,160,58392,2,0,L|297:144,1,63.250001206398,4|0,0:3|0:0,0:0:0:0:
46,214,58580,6,0,L|48:125,1,63.250001206398,2|0,1:3|0:0,0:0:0:0:
201,137,58767,1,0,1:0:0:0:
356,137,58861,1,8,0:3:0:0:
189,137,58955,2,0,L|106:136,1,63.250001206398,8|0,1:0|0:0,0:0:0:0:
322,166,59142,2,0,L|397:163,1,63.250001206398,4|4,0:3|0:3,0:0:0:0:
171,118,59330,6,0,L|103:117,1,63.250001206398,2|0,1:2|0:0,0:0:0:0:
346,182,59517,2,0,L|413:178,1,63.250001206398,8|0,0:1|0:0,0:0:0:0:
137,105,59705,2,0,L|61:105,1,63.250001206398,8|8,0:1|0:3,0:0:0:0:
382,194,59892,2,0,L|455:191,1,63.250001206398,4|4,0:3|0:3,0:0:0:0:
79,324,60080,6,0,P|38:276|69:217,1,126.500002412796,4|0,1:1|0:0,0:0:0:0:
127,203,60361,1,8,0:3:0:0:
294,238,60455,2,0,L|384:212,1,63.250001206398,8|0,1:0|0:0,0:0:0:0:
399,164,60642,1,4,0:3:0:0:
135,310,60830,2,0,L|263:327,1,126.500002412796,2|8,1:2|0:3,0:0:0:0:
316,274,61111,1,0,0:0:0:0:
81,242,61205,2,0,P|27:161|70:101,1,126.500002412796,8|4,1:1|0:3,0:0:0:0:
94,97,61486,1,0,0:0:0:0:
335,324,61580,6,0,L|355:200,1,126.500002412796,2|0,1:3|0:0,0:0:0:0:
281,166,61861,1,8,0:3:0:0:
86,153,61955,2,0,L|164:143,1,63.250001206398,8|0,1:0|0:0,0:0:0:0:
224,167,62142,2,0,L|293:156,1,63.250001206398,4|0,0:3|0:0,0:0:0:0:
23,353,62330,2,0,L|12:262,1,63.250001206398,2|0,1:1|0:0,0:0:0:0:
74,244,62517,1,8,0:3:0:0:
328,111,62705,2,0,L|163:136,1,126.500002412796,8|4,1:0|0:3,0:0:0:0:
276,156,62986,1,0,0:0:0:0:
488,327,63080,6,0,L|306:298,1,126.500002412796,2|0,1:2|0:0,0:0:0:0:
299,335,63361,1,8,0:3:0:0:
95,189,63455,2,0,L|251:169,1,126.500002412796,8|4,1:0|0:3,0:0:0:0:
279,135,63736,1,0,0:0:0:0:
52,126,63830,2,0,L|43:42,1,63.250001206398,2|0,1:2|0:0,0:0:0:0:
111,28,64017,1,8,0:3:0:0:
394,162,64205,2,0,L|255:130,1,126.500002412796,8|4,1:0|0:3,0:0:0:0:
205,95,64486,1,4,0:3:0:0:
401,279,64580,6,0,P|481:213|415:132,1,189.750003619194,2|0,1:2|0:0,0:0:0:0:
136,63,64955,2,0,L|279:41,1,126.500002412796,8|4,1:0|0:3,0:0:0:0:
327,63,65236,1,0,0:0:0:0:
167,165,65330,2,0,L|102:173,1,63.250001206398,2|0,1:2|0:0,0:0:0:0:
305,217,65517,2,0,L|386:200,1,63.250001206398,8|0,0:1|0:0,0:0:0:0:
172,328,65705,2,0,L|23:303,1,126.500002412796,8|4,1:1|0:3,0:0:0:0:
112,290,65986,1,0,0:0:0:0:
297,300,66080,6,0,P|361:248|323:177,1,126.500002412796,4|0,1:2|0:0,0:0:0:0:
301,170,66361,1,8,0:3:0:0:
83,250,66455,2,0,L|61:145,1,63.250001206398,8|0,1:0|0:0,0:0:0:0:
128,142,66642,1,4,0:3:0:0:
378,183,66830,2,0,L|376:45,1,126.500002412796,2|8,1:2|0:3,0:0:0:0:
303,34,67111,1,0,0:0:0:0:
91,74,67205,2,0,L|269:104,1,126.500002412796,8|4,1:1|0:3,0:0:0:0:
286,63,67486,1,0,0:0:0:0:
81,331,67580,6,0,P|39:298|55:191,1,126.500002412796,2|0,1:3|0:0,0:0:0:0:
99,191,67861,1,8,0:3:0:0:
270,183,67955,2,0,L|270:114,1,63.250001206398,8|0,1:0|0:0,0:0:0:0:
84,243,68142,2,0,L|146:233,1,63.250001206398,4|0,0:3|0:0,0:0:0:0:
362,315,68330,2,0,L|499:288,1,126.500002412796,2|8,1:2|0:3,0:0:0:0:
440,226,68611,1,0,0:0:0:0:
254,172,68705,2,0,L|405:150,1,126.500002412796,8|4,1:0|0:3,0:0:0:0:
331,91,68986,1,0,0:0:0:0:
111,61,69080,6,0,P|129:134|205:169,1,126.500002412796,2|0,1:0|0:0,0:0:0:0:
247,163,69361,1,8,0:3:0:0:
424,179,69455,1,8,1:0:0:0:
448,235,69548,1,0,0:0:0:0:
426,293,69642,1,4,0:3:0:0:
369,318,69736,1,0,0:0:0:0:
142,291,69830,2,0,P|163:230|253:191,1,126.500002412796,2|8,1:2|0:3,0:0:0:0:
291,193,70111,1,0,0:0:0:0:
134,131,70205,2,0,L|124:51,1,63.250001206398,8|0,1:1|0:0,0:0:0:0:
331,208,70392,2,0,L|342:283,1,63.250001206398,4|0,0:3|0:0,0:0:0:0:
135,323,70580,6,0,L|66:313,1,63.250001206398,4|0,1:2|0:0,0:0:0:0:
280,260,70767,2,0,L|256:187,1,63.250001206398,4|0,0:3|0:0,0:0:0:0:
186,180,70955,1,0,1:0:0:0:
433,150,71142,2,0,L|371:114,1,63.250001206398,4|0,0:3|0:0,0:0:0:0:
198,109,71330,2,0,L|124:80,1,63.250001206398,8|0,1:2|0:0,0:0:0:0:
342,224,71517,6,0,L|353:140,1,63.250001206398,8|8,0:2|0:2,0:0:0:0:
142,116,71705,2,0,L|70:97,1,63.250001206398,8|8,1:1|0:3,0:0:0:0:
350,249,71892,2,0,L|416:261,1,63.250001206398,4|4,0:3|0:3,0:0:0:0:
175,270,72080,6,0,L|43:294,1,110,4|0,1:0|0:0,0:0:0:0:
231,177,72361,2,0,L|356:207,1,110,2|0,0:0|0:0,0:0:0:0:
165,93,72642,2,0,L|229:78,1,55,2|0,0:0|0:0,0:0:0:0:
298,88,72830,1,0,1:0:0:0:
47,209,73017,2,0,L|113:195,1,55,2|2,0:0|0:3,0:0:0:0:
267,255,73205,2,0,L|379:227,1,110,8|2,0:0|0:0,0:0:0:0:
205,167,73580,5,0,1:0:0:0:
459,328,73767,2,0,L|312:294,2,110,2|10|2,0:0|0:0|0:0,0:0:0:0:
271,172,74330,2,0,L|260:286,1,110,2|2,1:2|0:0,0:0:0:0:
316,317,74611,1,0,0:0:0:0:
165,120,74705,2,0,L|149:245,1,110,10|2,0:2|0:0,0:0:0:0:
462,97,75080,6,0,L|347:73,1,110,4|0,1:2|0:0,0:0:0:0:
172,137,75361,2,0,L|57:118,1,110,2|0,0:0|0:0,0:0:0:0:
235,250,75642,2,0,L|320:232,1,55,2|0,0:0|0:0,0:0:0:0:
353,273,75830,1,0,1:0:0:0:
88,325,76017,2,0,L|156:307,1,55,2|2,0:0|0:3,0:0:0:0:
357,338,76205,2,0,L|465:303,1,110,10|2,0:0|0:0,0:0:0:0:
288,238,76580,5,0,1:0:0:0:
26,123,76767,2,0,L|175:152,1,110,2|8,0:0|0:0,0:0:0:0:
423,74,77142,1,2,0:0:0:0:
173,139,77330,2,0,L|156:197,1,55,2|0,1:2|0:0,0:0:0:0:
339,139,77517,2,0,L|356:197,1,55,2|0,0:0|0:0,0:0:0:0:
173,139,77705,2,0,L|156:197,1,55,10|0,0:2|0:0,0:0:0:0:
339,139,77892,2,0,L|356:197,1,55,2|0,0:0|0:0,0:0:0:0:
153,141,78080,6,0,L|36:122,1,110,4|0,1:0|0:0,0:0:0:0:
207,279,78361,2,0,L|320:258,1,110,2|0,0:0|0:0,0:0:0:0:
96,248,78642,2,0,L|86:174,1,55,2|0,0:0|0:0,0:0:0:0:
152,154,78830,1,0,1:0:0:0:
408,140,79017,2,0,L|417:70,1,55,2|2,0:0|0:3,0:0:0:0:
198,77,79205,2,0,L|80:61,1,110,10|2,0:0|0:0,0:0:0:0:
271,22,79580,5,0,1:0:0:0:
23,204,79767,2,0,L|171:176,2,110,2|10|2,0:0|0:0|0:0,0:0:0:0:
190,250,80330,2,0,L|324:222,1,110,2|2,1:2|0:0,0:0:0:0:
412,269,80705,1,10,0:2:0:0:
116,167,80892,1,2,0:0:0:0:
406,139,81080,6,0,L|288:117,1,110,4|0,1:2|0:0,0:0:0:0:
134,285,81361,2,0,L|253:256,1,110,2|0,0:0|0:0,0:0:0:0:
423,225,81642,2,0,L|361:204,1,55,2|0,0:0|0:0,0:0:0:0:
301,236,81830,1,0,1:0:0:0:
43,162,82017,2,0,L|110:145,1,55,2|2,0:0|0:3,0:0:0:0:
395,90,82205,2,0,L|281:67,1,110,10|2,0:0|0:0,0:0:0:0:
41,42,82580,5,0,1:0:0:0:
287,147,82767,2,0,L|345:135,1,55,2|0,0:0|0:0,0:0:0:0:
281,157,82955,2,0,L|215:146,1,55,8|0,0:0|0:0,0:0:0:0:
410,263,83142,2,0,L|464:248,1,55,2|0,0:0|0:0,0:0:0:0:
196,318,83330,2,0,L|71:297,1,110,2|10,1:2|0:0,0:0:0:0:
145,281,83611,1,0,0:0:0:0:
317,246,83705,2,0,L|390:259,1,55,10|0,0:2|0:0,0:0:0:0:
178,176,83892,2,0,L|105:156,1,55,10|8,0:0|0:0,0:0:0:0:
361,97,84080,5,0,1:0:0:0:
81,40,84267,2,0,L|80:176,1,110,2|8,0:0|0:0,0:0:0:0:
139,162,84548,1,0,0:0:0:0:
346,186,84642,2,0,L|347:248,1,55,10|8,0:0|0:0,0:0:0:0:
150,283,84830,2,0,L|72:279,1,55,2|8,1:2|0:0,0:0:0:0:
159,283,85017,2,0,L|240:281,1,55,10|8,0:2|0:0,0:0:0:0:
26,182,85205,2,0,L|103:182,1,55,2|8,1:2|0:0,0:0:0:0:
301,162,85392,2,0,L|391:164,1,55,6|0,0:0|0:0,0:0:0:0:
175,113,85955,6,0,L|166:52,3,55
376,149,86330,2,0,L|391:369,1,220
