osu file format v14

[General]
AudioFilename: audio.mp3
AudioLeadIn: 0
PreviewTime: 49426
Countdown: 0
SampleSet: Soft
StackLeniency: 0.3
Mode: 0
LetterboxInBreaks: 0
WidescreenStoryboard: 1

[Editor]
DistanceSpacing: 1.1
BeatDivisor: 4
GridSize: 4
TimelineZoom: 1.5

[Metadata]
Title:Go Cry Go (TV Size)
TitleUnicode:Go Cry Go (TV Size)
Artist:OxT
ArtistUnicode:OxT
Creator:Ayaice
Version:Habi's Insane
Source:オーバーロード II
Tags:op opening tv size アインズ・ウール・ゴウン モモンガ Momonga モモンガ Momon アルベド Albedo シャルティア・ブラッドフォールン Shalltear Bloodfallen ガルガンチュア Garuganchua コキュートス Cocytus アウラ・ベラ・フィオーラ Aura Bella Fiora マーレ・ベロ・フィオーレ Mare Bello Fiore ヴィクティム Vuikutimu デミウルゴス Demiurge ユリ・アルファ Yuri・α ルプスレギナ・ベータ Lupusregina・β ナーベラル・ガンマ Narberal・Γ シズ・デルタ CZ2128・Δ ソリュシャン・イプシロン Solution・ε エントマ・ヴァシリッサ・ゼータ εντομα・βασιλισσα・ζ
BeatmapID:1678397
BeatmapSetID:784263

[Difficulty]
HPDrainRate:6
CircleSize:4
OverallDifficulty:7
ApproachRate:9
SliderMultiplier:1.68
SliderTickRate:2

[Events]
//Background and Video events
0,0,"ovlllbg.jpg",0,0
Video,0,"movie.mp4"
//Break Periods
//Storyboard Layer 0 (Background)
//Storyboard Layer 1 (Fail)
//Storyboard Layer 2 (Pass)
//Storyboard Layer 3 (Foreground)
//Storyboard Sound Samples

[TimingPoints]
5540,297.029702970297,4,2,3,75,1,0
15639,297.029702970297,4,2,3,75,1,0
34648,-133.333333333333,4,2,3,75,0,0
47718,-100,4,2,3,75,0,0

[Colours]
Combo1 : 64,0,128
Combo2 : 128,64,64
Combo3 : 192,192,192
Combo4 : 202,0,0
Combo5 : 255,255,0
Combo6 : 255,128,64
Combo7 : 0,213,0

[HitObjects]
248,196,5540,6,0,L|160:180,1,84,4|0,0:0|0:0,0:0:0:0:
96,244,5837,1,8,0:0:0:0:
224,96,5985,1,0,0:0:0:0:
24,72,6134,2,0,P|32:120|32:160,1,84,2|2,0:0|0:0,0:0:0:0:
184,332,6431,2,0,P|184:290|192:248,1,84,8|0,0:0|0:0,0:0:0:0:
224,96,6728,5,2,0:0:0:0:
352,200,6876,1,2,0:0:0:0:
388,44,7025,2,0,L|304:32,1,84,8|0,0:0|0:0,0:0:0:0:
140,44,7322,1,2,0:0:0:0:
232,192,7470,1,2,0:0:0:0:
80,128,7619,2,0,L|-4:112,1,84,8|0,0:0|0:0,0:0:0:0:
160,236,7916,6,0,P|239:221|293:280,1,168,2|8,0:0|0:0,0:0:0:0:
200,336,8361,1,0,0:0:0:0:
68,292,8510,2,0,P|52:252|50:211,1,84,2|2,0:0|0:0,0:0:0:0:
127,47,8807,2,0,P|143:87|145:128,1,84,8|0,0:0|0:0,0:0:0:0:
228,216,9104,6,0,L|316:200,1,84,2|2,0:0|0:0,0:0:0:0:
432,112,9401,2,0,L|344:96,1,84,8|0,0:0|0:0,0:0:0:0:
503,44,9698,2,0,P|473:121|475:205,1,168,2|8,0:0|0:0,0:0:0:0:
504,312,10143,1,0,0:0:0:0:
300,188,10292,6,0,L|176:208,1,126,4|0,0:0|0:0,0:0:0:0:
104,160,10589,2,0,P|88:120|92:76,1,84,8|0,0:0|0:0,0:0:0:0:
164,12,10886,1,2,0:0:0:0:
0,68,11035,1,2,0:0:0:0:
188,112,11183,2,0,L|272:100,1,84,8|0,0:0|0:0,0:0:0:0:
328,24,11480,5,2,0:0:0:0:
372,200,11629,1,2,0:0:0:0:
476,76,11777,2,0,P|464:120|460:160,1,84,8|0,0:0|0:0,0:0:0:0:
288,260,12074,2,0,B|228:252|228:252|184:268|184:268|120:260,1,168,2|8,0:0|0:0,0:0:0:0:
40,188,12520,1,0,0:0:0:0:
121,6,12668,6,0,P|154:82|140:164,1,168,2|8,0:0|0:0,0:0:0:0:
40,188,13114,1,0,0:0:0:0:
124,340,13262,2,0,P|168:336|212:324,1,84,2|2,0:0|0:0,0:0:0:0:
360,232,13559,2,0,P|316:228|272:216,1,84,8|0,0:0|0:0,0:0:0:0:
188,80,13856,6,0,L|164:256,1,168,2|8,0:0|0:0,0:0:0:0:
80,148,14302,1,0,0:0:0:0:
128,8,14450,2,0,P|195:55|276:42,1,168,2|8,0:0|0:0,0:0:0:0:
352,108,14896,1,0,0:0:0:0:
256,264,15044,1,0,0:0:0:0:
256,264,15639,6,0,B|200:256|200:256|148:272|148:272|92:260,1,168,4|8,0:0|0:0,0:0:0:0:
24,184,16084,1,2,0:0:0:0:
24,184,16158,1,2,0:0:0:0:
24,184,16233,2,0,P|16:140|24:96,1,84,2|2,0:0|0:0,0:0:0:0:
172,32,16530,2,0,P|179:73|173:114,1,84,8|0,0:0|0:0,0:0:0:0:
80,260,16827,6,0,B|168:248|148:312|244:292,1,168,2|8,0:0|0:0,0:0:0:0:
379,220,17272,2,0,P|299:223|252:157,1,168,2|2,0:0|0:0,0:0:0:0:
464,116,17718,2,0,P|492:146|507:185,1,84,8|0,0:0|0:0,0:0:0:0:
384,340,18015,6,0,L|212:316,1,168,2|8,0:0|0:0,0:0:0:0:
100,204,18460,1,2,0:0:0:0:
100,204,18535,1,2,0:0:0:0:
100,204,18609,1,2,0:0:0:0:
144,356,18757,1,2,0:0:0:0:
196,167,18906,2,0,P|200:126|191:85,1,84,8|0,0:0|0:0,0:0:0:0:
120,24,19203,5,2,0:0:0:0:
288,96,19351,2,0,L|376:84,1,84,2|8,0:0|0:0,0:0:0:0:
496,232,19648,2,0,B|456:256|456:256|336:224,1,168,2|2,0:0|0:0,0:0:0:0:
208,152,20094,1,8,0:0:0:0:
208,152,20391,6,0,B|128:168|164:228|64:240,1,168,4|8,0:0|0:0,0:0:0:0:
64,136,20837,1,2,0:0:0:0:
64,136,20911,1,2,0:0:0:0:
64,136,20985,1,2,0:0:0:0:
224,256,21134,1,2,0:0:0:0:
256,52,21282,2,0,L|168:40,1,84,8|0,0:0|0:0,0:0:0:0:
8,68,21579,6,0,P|29:149|32:232,1,168,2|8,0:0|0:0,0:0:0:0:
116,312,22025,2,0,L|292:288,1,168,2|2,0:0|0:0,0:0:0:0:
416,192,22470,2,0,L|328:176,1,84,8|0,0:0|0:0,0:0:0:0:
244,48,22767,6,0,L|112:80,1,126,2|0,0:0|0:0,0:0:0:0:
80,56,23064,1,8,0:0:0:0:
172,184,23213,1,0,0:0:0:0:
0,128,23361,2,0,L|24:296,1,168,2|8,0:0|0:0,0:0:0:0:
104,368,23807,1,0,0:0:0:0:
196,240,23955,5,2,0:0:0:0:
234,225,24029,1,2,0:0:0:0:
276,227,24103,1,2,0:0:0:0:
313,247,24177,1,2,0:0:0:0:
338,280,24252,2,0,L|388:272,3,42,8|2|2|2,0:0|0:0|0:0|0:0,0:0:0:0:
416,304,24549,2,0,L|465:295,3,42,2|2|2|2,0:0|0:0|0:0|0:0,0:0:0:0:
496,328,24846,1,8,0:0:0:0:
496,328,25143,6,0,L|480:156,1,168,4|8,0:0|0:0,0:0:0:0:
388,40,25589,1,0,0:0:0:0:
256,176,25738,2,0,P|212:172|160:160,1,84,2|2,0:0|0:0,0:0:0:0:
68,72,26035,1,8,0:0:0:0:
128,248,26183,1,0,0:0:0:0:
0,152,26332,6,0,B|12:208|12:208|4:260|4:260|20:316,1,168,2|8,0:0|0:0,0:0:0:0:
140,364,26777,2,0,P|220:336|312:344,1,168,2|2,0:0|0:0,0:0:0:0:
488,280,27223,2,0,P|440:272|396:256,1,84,8|0,0:0|0:0,0:0:0:0:
296,128,27520,6,0,L|168:148,1,126
136,128,27817,1,0,0:0:0:0:
236,256,27965,1,0,0:0:0:0:
40,168,28114,2,0,P|36:120|44:80,1,84
148,240,28411,2,0,P|154:281|150:323,1,84
52,288,28708,5,0,0:0:0:0:
216,160,28856,2,0,L|300:172,1,84
384,96,29153,1,0,0:0:0:0:
384,96,29228,1,0,0:0:0:0:
384,96,29302,1,0,0:0:0:0:
304,272,29450,1,0,0:0:0:0:
496,232,29599,2,0,P|452:228|404:216,1,84
240,76,29896,5,0,0:0:0:0:
128,176,30044,1,0,0:0:0:0:
180,12,30193,1,0,0:0:0:0:
151,264,30341,2,0,P|71:251|34:180,1,168
80,96,30787,1,0,0:0:0:0:
216,200,30936,1,0,0:0:0:0:
216,200,31010,1,0,0:0:0:0:
216,200,31084,5,0,0:0:0:0:
192,20,31233,2,0,L|176:104,1,84
256,308,31530,2,0,B|340:296|328:360|416:344,1,168
480,264,31975,1,0,0:0:0:0:
344,168,32124,1,0,0:0:0:0:
460,72,32272,6,0,L|444:156,1,84
328,144,32569,1,0,0:0:0:0:
384,12,32718,1,0,0:0:0:0:
228,108,32866,2,0,L|240:200,1,84
344,336,33163,2,0,L|354:252,1,84
248,276,33460,5,0,0:0:0:0:
368,152,33609,1,0,0:0:0:0:
196,100,33757,2,0,L|108:112,1,84
11,240,34054,2,0,P|73:236|124:271,1,126
176,340,34351,2,0,L|304:324,1,126
380,312,34648,5,0,0:0:0:0:
380,312,35242,2,0,P|416:232|380:136,1,189.000007209778
308,84,35837,2,0,P|248:112|184:120,1,126.000004806519
84,60,36282,2,0,L|100:192,1,126.000004806519
176,260,36728,1,0,0:0:0:0:
12,220,36876,1,0,0:0:0:0:
144,368,37025,6,0,P|200:352|276:328,1,126.000004806519
336,204,37470,1,0,0:0:0:0:
416,272,37619,2,0,L|396:372,2,94.500003604889
436,80,38213,6,0,B|384:112|384:112|256:80,1,189.000007209778
176,52,38807,1,0,0:0:0:0:
176,52,38955,1,0,0:0:0:0:
196,208,39104,1,0,0:0:0:0:
92,108,39252,1,0,0:0:0:0:
127,280,39401,6,0,P|215:261|266:334,1,189.000007209778
48,376,39995,2,0,L|20:176,1,189.000007209778
136,68,40589,2,0,P|128:104|124:140,1,63.0000024032594
52,24,40886,1,0,0:0:0:0:
208,128,41035,2,0,L|280:120,1,63.0000024032594
340,48,41332,1,0,0:0:0:0:
292,212,41480,1,0,0:0:0:0:
248,12,41629,1,0,0:0:0:0:
428,127,41777,6,0,P|393:214|411:305,1,189.000007209778
320,344,42371,2,0,B|244:336|244:336|208:352|208:352|136:344,1,189.000007209778
67,276,42965,6,0,P|71:213|57:152,2,126.000004806519
256,112,43856,1,0,0:0:0:0:
256,112,44153,6,0,L|392:136,1,126.000004806519
468,84,44599,1,0,0:0:0:0:
468,84,44673,1,0,0:0:0:0:
468,84,44747,1,0,0:0:0:0:
336,252,44896,1,0,0:0:0:0:
468,312,45044,2,0,P|472:280|480:244,1,63.0000024032594
368,356,45341,6,0,B|296:344|296:344|256:360|256:360|180:344,1,189.000007209778
100,280,45936,2,0,B|120:224|120:224|84:92,1,189.000007209778
152,24,46530,1,0,0:0:0:0:
256,192,46604,12,0,47569,0:0:0:0:
160,108,47718,6,0,L|144:192,1,84
80,32,48015,1,0,0:0:0:0:
252,40,48163,2,0,L|268:124,1,84
160,108,48460,1,0,0:0:0:0:
287,212,48609,2,0,P|349:204|403:235,1,126
420,256,48906,5,0,0:0:0:0:
384,104,49054,1,0,0:0:0:0:
432,292,49203,1,0,0:0:0:0:
476,40,49351,1,0,0:0:0:0:
476,40,50094,6,0,L|352:64,1,126
288,104,50391,2,0,P|248:96|200:80,1,84
84,28,50688,2,0,L|108:164,1,126
160,208,50985,2,0,P|152:256|148:300,1,84
224,360,51282,5,0,0:0:0:0:
336,264,51431,2,0,P|288:252|248:244,1,84
220,120,51728,1,0,0:0:0:0:
375,24,51876,2,0,P|362:106|378:188,1,168
452,256,52322,1,0,0:0:0:0:
288,348,52470,6,0,P|236:336|160:320,1,126
80,288,52767,2,0,L|92:380,1,84
32,152,53064,2,0,P|90:175|151:190,1,126
228,152,53361,2,0,L|216:60,1,84
308,20,53658,5,0,0:0:0:0:
116,104,53807,1,0,0:0:0:0:
116,104,53881,1,0,0:0:0:0:
116,104,53955,1,0,0:0:0:0:
280,232,54104,1,0,0:0:0:0:
184,16,54252,1,0,0:0:0:0:
352,164,54401,1,0,0:0:0:0:
152,244,54549,2,0,L|52:224,1,84
228,351,54846,6,0,P|297:306|380:299,1,168
464,344,55292,1,0,0:0:0:0:
488,180,55440,2,0,B|444:192|444:192|400:188,1,84
268,96,55738,2,0,B|312:84|312:84|356:88,1,84
172,184,56035,6,0,P|144:128|184:8,1,168
288,216,56480,1,0,0:0:0:0:
188,304,56629,2,0,P|144:296|100:288,1,84
300,352,56926,2,0,P|344:344|388:336,1,84
456,248,57223,5,0,0:0:0:0:
312,136,57371,1,0,0:0:0:0:
312,136,57445,1,0,0:0:0:0:
312,136,57520,1,0,0:0:0:0:
464,228,57668,1,0,0:0:0:0:
424,32,57817,2,0,P|416:72|412:124,1,84
224,256,58114,2,0,P|220:214|212:173,1,84
132,84,58411,5,0,0:0:0:0:
72,240,58559,2,0,L|80:288,2,42
44,28,58856,1,0,0:0:0:0:
0,168,59005,1,0,0:0:0:0:
160,212,59153,1,0,0:0:0:0:
80,360,59302,2,0,P|36:344|-4:332,1,84
144,184,59599,6,0,P|192:222|254:224,1,126
348,184,59896,2,0,L|336:272,1,84
296,88,60193,2,0,P|240:88|172:56,1,126
100,24,60490,2,0,L|16:24,1,84
60,140,60787,6,0,P|76:184|60:260,2,126
0,339,61381,2,0,P|63:287|145:284,1,168
232,340,61827,1,0,0:0:0:0:
356,208,61975,6,0,P|292:192|228:156,1,126
180,96,62272,2,0,L|196:8,1,84
68,80,62569,2,0,L|96:216,1,126
160,264,62866,2,0,P|148:316|144:356,1,84
244,196,63163,6,0,P|292:244|388:264,1,168
444,120,63609,2,0,P|396:72|300:52,1,168
172,112,64054,1,0,0:0:0:0:
96,40,64203,1,0,0:0:0:0:
12,220,64351,6,0,B|72:216|72:216|112:236|112:236|184:224,1,168
256,156,64797,1,0,0:0:0:0:
320,240,64945,2,0,P|316:280|312:332,1,84
440,192,65242,2,0,P|436:150|432:108,1,84
332,28,65539,6,0,B|280:72|280:72|240:36|188:36,1,168
104,88,65985,1,0,0:0:0:0:
188,212,66134,2,0,P|204:168|200:120,1,84
5,131,66431,2,0,P|4:173|20:212,1,84
124,336,66728,6,0,B|212:324|192:384|284:364,1,168
472,288,67173,1,0,0:0:0:0:
471,288,67322,2,0,P|391:300|333:243,1,168
364,140,67767,1,0,0:0:0:0:
256,32,67916,6,0,L|232:200,1,168
156,268,68361,1,0,0:0:0:0:
300,360,68510,2,0,P|256:348|216:336,1,84
0,236,68807,2,0,P|44:224|84:212,1,84
328,92,69104,6,0,L|304:240,1,126
300,248,69401,1,0,0:0:0:0:
172,164,69549,1,0,0:0:0:0:
264,344,69698,2,0,L|352:336,1,84
368,336,69921,1,0,0:0:0:0:
368,336,69995,1,0,0:0:0:0:
480,248,70143,6,0,P|500:180|472:80,1,168
396,28,70589,1,0,0:0:0:0:
292,168,70738,1,0,0:0:0:0:
224,48,70886,2,0,L|312:72,1,84
104,144,71183,2,0,P|80:104|76:64,1,84
224,164,71480,6,0,B|208:224|208:224|228:288,1,126
280,344,71777,2,0,L|372:328,1,84
440,256,72074,1,0,0:0:0:0:
324,140,72223,1,0,0:0:0:0:
324,140,72297,1,0,0:0:0:0:
324,140,72371,1,0,0:0:0:0:
480,244,72520,6,0,B|440:192|440:192|428:136|468:96,1,168
392,24,72965,2,0,P|344:36|296:44,1,84
188,24,73262,2,0,L|200:112,1,84
276,244,73559,2,0,L|296:144,1,84
100,140,73856,6,0,L|128:308,1,168
208,360,74302,1,0,0:0:0:0:
316,252,74450,2,0,P|268:240|224:228,1,84
234,230,74673,1,0,0:0:0:0:
234,230,74747,1,0,0:0:0:0:
380,148,74896,6,0,P|416:192|412:328,1,168
344,360,75341,2,0,P|304:352|260:344,1,84
175,227,75639,2,0,P|98:206|39:260,1,168
40,284,76233,5,0,0:0:0:0:
24,128,76381,1,0,0:0:0:0:
144,264,76530,2,0,P|136:308|128:352,1,84
248,216,76827,2,0,P|240:164|224:116,1,84
152,48,77124,1,0,0:0:0:0:
324,112,77272,1,0,0:0:0:0:
324,112,77346,1,0,0:0:0:0:
324,112,77421,1,0,0:0:0:0:
320,112,78609,6,0,P|392:120|448:52,1,168
360,32,79054,1,0,0:0:0:0:
236,72,79203,2,0,B|224:116|224:116|240:160,1,84
308,224,79500,2,0,L|392:208,1,84
236,292,79797,5,0,0:0:0:0:
236,292,79945,1,0,0:0:0:0:
392,312,80094,2,0,L|476:296,1,84
284,372,80391,2,0,P|236:328|132:336,1,168
52,364,80837,1,0,0:0:0:0:
8,188,80985,6,0,B|56:228|56:228|168:200,1,168
224,120,81431,1,0,0:0:0:0:
192,28,81579,2,0,P|156:52|132:92,1,84
260,212,81876,2,0,P|296:188|320:148,1,84
336,52,82173,5,0,0:0:0:0:
400,200,82322,1,0,0:0:0:0:
476,24,82470,2,0,P|460:68|444:112,1,84
416,300,82767,2,0,L|364:288,1,42
296,344,82916,2,0,L|248:348,1,42
188,296,83064,1,0,0:0:0:0:
236,160,83213,1,0,0:0:0:0:
72,216,83361,6,0,P|88:272|108:384,1,168
200,280,83807,1,0,0:0:0:0:
184,120,83955,2,0,P|144:116|84:108,1,84
272,56,84252,2,0,P|313:61|355:65,1,84
448,24,84549,5,0,0:0:0:0:
348,180,84698,1,0,0:0:0:0:
488,232,84846,2,0,P|480:188|476:136,1,84
320,156,85143,2,0,P|340:220|352:288,1,126
304,348,85440,2,0,L|212:328,1,84
168,208,85738,6,0,P|128:256|28:264,1,168
72,160,86183,1,0,0:0:0:0:
172,64,86332,2,0,P|216:76|256:84,1,84
408,192,86629,2,0,P|364:180|324:172,1,84
216,204,86926,5,0,0:0:0:0:
220,245,87000,1,0,0:0:0:0:
225,287,87074,1,0,0:0:0:0:
230,329,87148,1,0,0:0:0:0:
235,370,87223,2,0,L|176:352,1,42
80,352,87371,2,0,L|56:308,1,42
24,200,87520,5,0,0:0:0:0:
180,112,87668,1,0,0:0:0:0:
116,236,87817,2,0,L|88:48,1,168
