osu file format v14

[General]
AudioFilename: audio.mp3
AudioLeadIn: 0
PreviewTime: 49525
Countdown: 0
SampleSet: Soft
StackLeniency: 0.7
Mode: 0
LetterboxInBreaks: 0
WidescreenStoryboard: 1

[Editor]
DistanceSpacing: 1
BeatDivisor: 4
GridSize: 16
TimelineZoom: 2.5

[Metadata]
Title:GO CRY GO
TitleUnicode:GO CRY GO
Artist:OxT
ArtistUnicode:OxT
Creator:olsonn
Version:OVERLORD [remap]
Source:
Tags:
BeatmapID:2102808
BeatmapSetID:1004321

[Difficulty]
HPDrainRate:5
CircleSize:4.2
OverallDifficulty:9.4
ApproachRate:9.5
SliderMultiplier:2
SliderTickRate:1

[Events]
//Background and Video events
0,0,"overlord.jpg",0,0
//Break Periods
//Storyboard Layer 0 (Background)
//Storyboard Layer 1 (Fail)
//Storyboard Layer 2 (Pass)
//Storyboard Layer 3 (Foreground)
//Storyboard Sound Samples

[TimingPoints]
802,297.029702970297,4,2,0,85,1,0
5552,-80,4,2,0,85,0,0
15059,-400,4,2,0,85,0,0
15356,-100,4,2,0,85,0,0
19217,-80,4,2,0,85,0,0
19663,-100,4,2,0,85,0,0
20034,-400,4,2,0,85,0,0
20405,-100,4,2,0,85,0,0
24861,-400,4,2,0,85,0,0
25158,-74.0740740740741,4,2,0,85,0,0
32881,-62.5,4,2,0,85,0,0
33475,-54.054054054054,4,2,0,85,0,0
34069,-50,4,2,0,85,0,0
34663,-200,4,2,0,85,0,0
35257,-133.333333333333,4,2,0,85,0,0
35851,-100,4,2,0,85,0,0
36445,-200,4,2,0,85,0,0
38821,-133.333333333333,4,2,0,85,0,0
39415,-200,4,2,0,85,0,0
40009,-133.333333333333,4,2,0,85,0,0
40603,-100,4,2,0,85,0,0
41198,-200,4,2,0,85,0,0
41792,-133.333333333333,4,2,0,85,0,0
42980,-80,4,2,0,85,0,0
45356,-74.0740740740741,4,2,0,85,0,0
46544,-200,4,2,0,85,0,0
47732,-50,4,2,0,85,0,0
49514,-80,4,2,0,85,0,1
50108,-74.0740740740741,4,2,0,85,0,1
54712,-90.9090909090909,4,2,0,85,0,1
56049,-74.0740740740741,4,2,0,85,0,1
57237,-76.9230769230769,4,2,0,85,0,1
58574,-66.6666666666667,4,2,0,85,0,1
59019,-74.0740740740741,4,2,0,85,0,0
64217,-86.9565217391304,4,2,0,85,0,1
65554,-74.0740740740741,4,2,0,85,0,1
67930,-64.5161290322581,4,2,0,85,0,1
68673,-74.0740740740741,4,2,0,85,0,1
76247,-66.6666666666667,4,2,0,85,0,1
76693,-58.8235294117647,4,2,0,85,0,1
76990,-52.6315789473684,4,2,0,85,0,1
77287,-47.6190476190476,4,2,0,85,0,1
77435,-80,4,2,0,85,0,1
77732,-100,4,2,0,85,0,1
78623,-80,4,2,0,85,0,0

[Colours]
Combo1 : 135,36,255
Combo2 : 224,0,230
Combo3 : 215,215,215
Combo4 : 0,67,244

[HitObjects]
59,101,4663,6,0,L|192:87,1,100
266,244,4960,2,0,L|148:257,1,100
245,81,5257,2,0,P|299:106|326:157,1,100
435,264,5554,6,0,L|449:128,1,125
335,21,5851,6,0,L|322:145,1,125
289,305,6148,2,0,P|248:253|236:192,1,125
230,33,6445,2,0,P|187:45|159:118,1,125
186,275,6742,2,0,L|56:321,1,125
222,369,7039,2,0,L|351:330,1,125
504,339,7336,2,0,B|508:312|508:312|492:312|508:280|508:280|492:280|508:248|508:248|492:248|508:216|508:216|492:216|508:184|508:184|492:184|508:152|508:152|492:152|508:120|508:120|492:120|508:88|508:88|492:88|508:56|508:56|492:56|508:24|508:24|500:15,1,375
355,82,7930,6,0,L|309:207,1,125
393,340,8227,6,0,L|436:222,1,125
430,59,8524,2,0,P|402:16|325:11,1,125
172,34,8821,2,0,P|177:87|225:147,1,125
354,235,9118,2,0,L|486:267,1,125
338,352,9415,2,0,L|216:322,1,125
55,345,9712,2,0,B|51:318|51:318|67:318|51:286|51:286|67:286|51:254|51:254|67:254|51:222|51:222|67:222|51:190|51:190|67:190|51:158|51:158|67:158|51:126|51:126|67:126|51:94|51:94|67:94|51:62|51:62|67:62|51:30|51:30|59:21,1,375
165,145,10306,6,0,L|119:27,1,125
282,30,10603,2,0,L|333:154,1,125
392,297,10901,1,0,0:0:0:0:
432,140,11049,1,0,0:0:0:0:
273,178,11198,2,0,P|339:211|390:172,1,125
255,301,11495,6,0,L|132:323,1,125
59,176,11792,2,0,L|191:155,1,125
342,126,12089,1,0,0:0:0:0:
197,53,12237,1,0,0:0:0:0:
210,215,12386,2,0,P|246:164|224:106,1,125
70,63,12683,6,0,L|71:194,1,125
175,313,12980,2,0,L|174:179,1,125
171,24,13277,1,0,0:0:0:0:
273,149,13425,1,0,0:0:0:0:
111,173,13574,2,0,P|148:129|222:146,1,125
202,311,13871,6,0,L|172:183,1,125
282,30,14168,2,0,L|333:154,1,125
392,297,14466,1,0,0:0:0:0:
432,140,14614,1,0,0:0:0:0:
273,178,14763,2,0,P|339:211|390:172,1,125
187,173,15059,2,0,P|199:194|199:205,1,25
102,282,15356,6,0,P|165:262|212:289,1,100
308,335,15653,2,0,P|280:263|298:206,1,100
306,114,15950,1,0,0:0:0:0:
408,195,16099,1,0,0:0:0:0:
408,195,16173,1,0,0:0:0:0:
408,195,16247,2,0,L|269:175,1,100
180,159,16544,6,0,P|128:137|106:75,1,100
235,73,16841,2,0,L|256:312,1,200
354,353,17287,2,0,P|420:301|418:250,1,100
312,220,17584,1,0,0:0:0:0:
403,127,17732,1,0,0:0:0:0:
285,69,17881,1,0,0:0:0:0:
165,132,18029,6,0,P|224:123|277:146,1,100
203,252,18326,2,0,P|262:261|315:238,1,100
344,126,18623,2,0,P|403:117|456:140,1,100
382,246,18920,2,0,P|441:255|494:232,1,100
474,79,19217,1,0,0:0:0:0:
334,157,19366,1,0,0:0:0:0:
412,15,19514,1,0,0:0:0:0:
286,51,19663,2,0,P|243:90|201:227,1,200
301,316,20108,2,0,P|313:303|316:289,1,25
299,175,20405,6,0,P|197:96|63:173,1,300
20,295,21000,1,0,0:0:0:0:
150,288,21149,1,0,0:0:0:0:
150,288,21223,1,0,0:0:0:0:
150,288,21297,2,0,P|122:238|175:184,1,100
245,129,21594,6,0,P|269:245|360:234,1,200
441,181,22039,2,0,L|390:83,1,100
271,49,22336,1,0,0:0:0:0:
172,133,22485,1,0,0:0:0:0:
291,182,22633,1,0,0:0:0:0:
301,311,22782,6,0,P|333:252|337:186,1,100
210,244,23079,2,0,P|178:185|174:119,1,100
302,165,23376,2,0,P|334:106|338:40,1,100
211,98,23673,2,0,P|179:39|175:-27,1,100
294,55,23970,5,0,0:0:0:0:
333,106,24044,1,0,0:0:0:0:
377,155,24118,1,0,0:0:0:0:
440,269,24267,1,0,0:0:0:0:
377,285,24341,1,0,0:0:0:0:
313,297,24415,1,0,0:0:0:0:
184,319,24564,1,0,0:0:0:0:
207,258,24638,1,0,0:0:0:0:
230,197,24712,1,0,0:0:0:0:
284,79,24861,6,0,L|251:75,1,25
84,53,25158,2,0,B|48:39|48:39|68:156,1,135.000000514984
99,308,25455,2,0,B|105:345|105:345|196:270,1,135.000000514984
293,148,25752,2,0,B|322:123|322:123|211:82,1,135.000000514984
59,49,26049,1,0,0:0:0:0:
59,49,26123,1,0,0:0:0:0:
59,49,26198,1,0,0:0:0:0:
125,210,26346,2,0,B|240:273|240:273|378:207,1,270.000001029968
321,42,26792,2,0,B|258:16|258:16|175:45,1,135.000000514984
36,114,27089,5,0,0:0:0:0:
36,114,27237,1,0,0:0:0:0:
60,277,27386,1,0,0:0:0:0:
60,277,27534,6,0,B|123:303|123:303|203:271,1,135.000000514984
134,109,27831,2,0,B|197:83|197:83|277:115,1,135.000000514984
266,283,28128,2,0,B|329:309|329:309|409:277,1,135.000000514984
340,115,28425,2,0,B|403:89|403:89|483:121,1,135.000000514984
486,288,28722,5,0,0:0:0:0:
349,176,28871,1,0,0:0:0:0:
316,347,29019,1,0,0:0:0:0:
199,215,29168,2,0,B|250:159|250:159|335:160,1,135.000000514984
476,214,29465,2,0,B|425:270|425:270|340:269,1,135.000000514984
81,63,29910,6,0,L|53:219,1,135.000000514984
170,330,30207,2,0,L|193:197,1,135.000000514984
228,24,30504,2,0,P|276:57|281:162,1,135.000000514984
286,305,30802,2,0,L|428:278,1,135.000000514984
468,110,31099,2,0,L|335:135,1,135.000000514984
160,157,31396,2,0,P|127:228|176:289,1,135.000000514984
324,299,31693,2,0,L|461:277,2,135.000000514984
150,319,32138,1,0,0:0:0:0:
187,146,32287,5,0,0:0:0:0:
187,146,32435,5,0,0:0:0:0:
342,228,32584,1,0,0:0:0:0:
342,228,32732,5,0,0:0:0:0:
232,50,32881,1,0,0:0:0:0:
232,50,33029,5,0,0:0:0:0:
258,257,33178,1,0,0:0:0:0:
258,257,33326,5,0,0:0:0:0:
335,28,33475,5,0,0:0:0:0:
361,266,33623,1,0,0:0:0:0:
211,47,33772,5,0,0:0:0:0:
171,283,33920,1,0,0:0:0:0:
293,52,34069,5,0,0:0:0:0:
324,307,34217,1,0,0:0:0:0:
194,80,34366,5,0,0:0:0:0:
158,336,34514,1,0,0:0:0:0:
320,130,34663,6,0,P|389:110|450:147,1,125
465,273,35257,2,0,L|228:279,1,225.000008583069
192,157,35851,2,0,P|259:113|392:185,1,200
463,233,36297,1,0,0:0:0:0:
439,292,36445,2,0,P|380:263|338:175,1,150
335,126,37039,6,0,P|286:107|186:134,1,150
146,172,37633,1,0,0:0:0:0:
188,221,37782,1,0,0:0:0:0:
137,261,37930,1,0,0:0:0:0:
176,312,38079,1,0,0:0:0:0:
115,336,38227,6,0,P|71:264|100:194,1,150
143,124,38821,2,0,P|264:99|333:199,1,225.000008583069
336,229,39415,2,0,P|324:302|367:370,1,150
416,281,40009,2,0,P|452:199|389:83,1,225.000008583069
319,192,40603,2,0,P|214:232|56:147,1,300
74,85,41198,2,0,P|131:61|209:101,1,150
150,177,41792,6,0,B|120:236|120:236|305:195,1,225.000008583069
358,252,42386,6,0,B|388:311|388:311|203:270,1,225.000008583069
71,301,42980,6,0,B|63:331|63:331|170:295,1,125
309,258,43277,2,0,L|381:133,1,125
457,11,43574,2,0,L|313:11,1,125
170,22,43871,2,0,L|242:146,1,125
319,267,44168,6,0,P|377:245|393:168,1,125
377,27,44465,1,0,0:0:0:0:
329,181,44613,1,0,0:0:0:0:
329,181,44688,1,0,0:0:0:0:
329,181,44762,1,0,0:0:0:0:
222,59,44910,1,0,0:0:0:0:
185,217,45059,1,0,0:0:0:0:
62,111,45207,1,0,0:0:0:0:
75,286,45356,1,4,0:0:0:0:
429,281,45653,6,0,L|291:310,1,135.000000514984
170,186,45950,2,0,L|322:159,1,135.000000514984
476,132,46247,2,0,P|493:83|448:19,1,135.000000514984
398,68,46544,2,0,P|279:143|75:79,1,350
319,43,47732,5,0,0:0:0:0:
353,321,47881,1,0,0:0:0:0:
95,211,48029,1,0,0:0:0:0:
368,145,48178,5,0,0:0:0:0:
196,365,48327,1,0,0:0:0:0:
91,106,48475,1,0,0:0:0:0:
329,250,48623,5,0,0:0:0:0:
52,284,48772,1,0,0:0:0:0:
160,32,48920,1,0,0:0:0:0:
222,300,49069,5,0,0:0:0:0:
261,23,49217,1,0,0:0:0:0:
324,296,49366,1,0,0:0:0:0:
224,152,49514,6,0,L|334:190,1,62.5
446,233,49737,6,0,L|340:196,1,62.5
393,36,49960,6,0,L|366:106,1,62.5
319,172,50108,6,0,P|241:199|165:165,1,135.000000514984
33,82,50405,2,0,L|46:252,1,135.000000514984
173,354,50702,2,0,P|233:327|294:350,1,135.000000514984
484,371,51000,2,0,L|438:217,1,135.000000514984
412,68,51297,1,0,0:0:0:0:
331,317,51519,1,0,0:0:0:0:
491,107,51742,1,0,0:0:0:0:
318,69,51891,2,0,P|172:157|285:312,1,405.000001544952
457,323,52485,6,0,P|405:263|409:161,1,135.000000514984
482,56,52782,2,0,L|293:85,1,135.000000514984
172,81,53079,2,0,P|223:129|244:227,1,135.000000514984
198,358,53376,2,0,L|372:316,1,135.000000514984
482,239,53673,6,0,P|475:160|432:96,1,135.000000514984
272,119,53970,2,0,P|241:178|237:245,2,135.000000514984
392,246,54415,2,0,P|343:305|243:301,1,135.000000514984
113,301,54712,5,0,0:0:0:0:
64,273,54787,1,0,0:0:0:0:
38,224,54861,1,0,0:0:0:0:
42,169,54935,1,0,0:0:0:0:
66,119,55009,1,0,0:0:0:0:
107,82,55084,1,0,0:0:0:0:
156,58,55158,1,0,0:0:0:0:
210,60,55232,1,0,0:0:0:0:
259,82,55306,1,0,0:0:0:0:
282,132,55381,5,0,0:0:0:0:
284,186,55455,1,0,0:0:0:0:
258,234,55529,1,0,0:0:0:0:
213,265,55603,1,0,0:0:0:0:
157,261,55678,1,0,0:0:0:0:
109,233,55752,1,0,0:0:0:0:
100,172,55826,1,0,0:0:0:0:
134,128,55901,1,0,0:0:0:0:
295,61,56049,5,0,0:0:0:0:
260,225,56198,1,0,0:0:0:0:
188,65,56346,5,0,0:0:0:0:
335,160,56495,1,0,0:0:0:0:
261,1,56643,6,0,P|288:51|223:123,1,135.000000514984
87,174,56940,2,0,P|52:228|79:287,1,135.000000514984
249,337,57237,5,0,0:0:0:0:
313,341,57311,1,0,0:0:0:0:
374,316,57386,1,0,0:0:0:0:
417,268,57460,1,0,0:0:0:0:
427,204,57534,1,0,0:0:0:0:
418,139,57608,1,0,0:0:0:0:
376,88,57683,1,0,0:0:0:0:
317,59,57757,1,0,0:0:0:0:
253,48,57831,5,0,0:0:0:0:
190,65,57905,1,0,0:0:0:0:
138,106,57980,1,0,0:0:0:0:
115,166,58054,1,0,0:0:0:0:
128,229,58128,1,0,0:0:0:0:
171,276,58202,1,0,0:0:0:0:
229,305,58277,1,0,0:0:0:0:
293,309,58351,1,0,0:0:0:0:
352,283,58425,6,0,L|417:173,1,64.9999970245363
421,160,58574,1,0,0:0:0:0:
416,85,58648,1,0,0:0:0:0:
357,38,58722,1,0,0:0:0:0:
281,29,58797,1,0,0:0:0:0:
209,52,58871,1,0,0:0:0:0:
169,115,58945,1,0,0:0:0:0:
171,193,59019,6,0,L|219:360,1,135.000000514984
338,358,59316,2,0,L|291:217,1,135.000000514984
268,62,59613,2,0,P|209:121|114:85,1,135.000000514984
3,44,59910,2,0,L|24:196,1,135.000000514984
142,305,60207,2,0,P|198:239|300:246,1,135.000000514984
388,327,60504,2,0,L|366:181,1,135.000000514984
342,19,60802,5,0,0:0:0:0:
264,269,61024,1,0,0:0:0:0:
268,5,61247,1,0,0:0:0:0:
423,87,61396,2,0,P|387:244|176:193,1,405.000001544952
150,38,61990,6,0,P|233:76|301:35,1,135.000000514984
440,19,62287,2,0,L|424:176,1,135.000000514984
403,327,62584,2,0,P|360:281|250:244,1,135.000000514984
144,340,62881,2,0,L|166:178,1,135.000000514984
187,31,63178,2,0,P|259:4|333:42,1,135.000000514984
335,196,63475,2,0,P|263:237|209:216,2,135.000000514984
364,23,63920,2,0,P|295:7|233:22,1,135.000000514984
96,83,64217,5,0,0:0:0:0:
47,115,64292,1,0,0:0:0:0:
14,162,64366,1,0,0:0:0:0:
8,219,64440,1,0,0:0:0:0:
30,271,64514,1,0,0:0:0:0:
69,313,64589,1,0,0:0:0:0:
124,327,64663,1,0,0:0:0:0:
180,320,64737,1,0,0:0:0:0:
223,282,64811,5,0,0:0:0:0:
239,226,64886,1,0,0:0:0:0:
251,170,64960,1,0,0:0:0:0:
268,115,65034,1,0,0:0:0:0:
303,70,65108,1,0,0:0:0:0:
353,40,65183,1,0,0:0:0:0:
409,46,65257,1,0,0:0:0:0:
456,78,65331,1,0,0:0:0:0:
475,132,65405,1,0,0:0:0:0:
410,295,65554,5,0,0:0:0:0:
298,160,65702,1,0,0:0:0:0:
468,203,65851,5,0,0:0:0:0:
319,298,66000,1,0,0:0:0:0:
414,151,66148,6,0,P|388:112|281:97,1,135.000000514984
233,248,66445,2,0,P|167:240|136:180,1,135.000000514984
204,34,66742,1,0,0:0:0:0:
264,5,66816,1,0,0:0:0:0:
336,14,66891,1,0,0:0:0:0:
386,58,66965,1,0,0:0:0:0:
397,124,67039,1,0,0:0:0:0:
372,186,67113,1,0,0:0:0:0:
310,215,67188,1,0,0:0:0:0:
244,198,67262,5,0,0:0:0:0:
251,264,67336,1,0,0:0:0:0:
212,319,67410,1,0,0:0:0:0:
146,337,67485,1,0,0:0:0:0:
83,311,67559,1,0,0:0:0:0:
52,251,67633,1,0,0:0:0:0:
60,184,67707,1,0,0:0:0:0:
112,140,67782,1,0,0:0:0:0:
179,134,67856,1,0,0:0:0:0:
251,161,67930,6,0,P|304:182|360:157,1,77.5000005912781
384,131,68079,1,0,0:0:0:0:
379,53,68153,1,0,0:0:0:0:
315,9,68227,1,0,0:0:0:0:
236,9,68302,1,0,0:0:0:0:
172,52,68376,1,0,0:0:0:0:
162,128,68450,1,0,0:0:0:0:
201,194,68524,1,0,0:0:0:0:
315,327,68673,5,0,0:0:0:0:
478,264,68821,1,0,0:0:0:0:
309,212,68970,1,0,0:0:0:0:
451,111,69118,2,0,P|442:176|396:224,1,135.000000514984
230,163,69415,2,0,P|288:138|361:158,1,135.000000514984
379,328,69712,2,0,P|328:290|308:216,1,135.000000514984
344,51,70009,1,0,0:0:0:0:
403,223,70158,6,0,P|384:286|332:327,1,135.000000514984
355,153,70455,2,0,P|419:136|480:162,1,135.000000514984
315,223,70752,2,0,P|268:175|260:109,1,135.000000514984
417,31,71049,2,0,P|398:95|345:135,1,135.000000514984
47,320,71495,6,0,P|56:255|102:207,1,135.000000514984
268,268,71792,2,0,P|210:293|137:273,1,135.000000514984
119,103,72089,2,0,P|170:141|190:215,1,135.000000514984
148,377,72386,1,0,0:0:0:0:
260,242,72534,2,0,P|304:193|369:179,1,135.000000514984
489,309,72831,5,0,0:0:0:0:
489,309,72905,1,0,0:0:0:0:
489,309,72980,1,0,0:0:0:0:
471,135,73128,1,0,0:0:0:0:
345,258,73277,1,0,0:0:0:0:
336,83,73425,1,0,0:0:0:0:
182,168,73574,1,0,0:0:0:0:
73,30,73722,1,0,0:0:0:0:
248,39,73871,6,0,P|313:48|361:94,1,135.000000514984
300,260,74168,2,0,P|275:202|295:129,1,135.000000514984
465,111,74465,2,0,P|427:162|353:182,1,135.000000514984
184,188,74762,1,0,0:0:0:0:
360,94,74910,6,0,P|423:113|464:165,1,135.000000514984
290,142,75207,2,0,P|273:78|299:17,1,135.000000514984
360,182,75504,2,0,P|312:229|246:237,1,135.000000514984
89,159,75802,2,0,P|131:209|100:276,1,135.000000514984
198,116,76099,1,0,0:0:0:0:
198,116,76247,5,0,0:0:0:0:
310,276,76396,1,0,0:0:0:0:
344,84,76544,5,0,0:0:0:0:
199,252,76693,1,0,0:0:0:0:
245,36,76841,5,0,0:0:0:0:
314,273,76990,1,0,0:0:0:0:
172,71,77138,5,0,0:0:0:0:
139,342,77287,1,0,0:0:0:0:
308,125,77435,2,0,P|351:80|452:75,1,125
452,188,77732,6,0,L|319:202,1,100
245,45,78029,2,0,L|363:32,1,100
266,208,78326,2,0,P|212:183|185:132,1,100
351,129,78623,6,0,L|468:220,1,125
428,367,78920,2,0,L|329:290,1,125
238,155,79217,2,0,P|188:132|100:200,1,125
106,315,79514,2,0,P|162:338|219:316,1,125
340,207,79811,2,0,L|457:133,1,125
319,36,80108,2,0,L|178:113,1,125
56,40,80405,2,0,B|52:67|52:67|68:67|52:99|52:99|68:99|52:131|52:131|68:131|52:163|52:163|68:163|52:195|52:195|68:195|52:227|52:227|68:227|52:259|52:259|68:259|52:291|52:291|68:291|52:323|52:323|68:323|52:355|52:355|60:364,1,375
213,322,81000,6,0,L|372:255,1,125
306,111,81297,2,0,L|172:168,1,125
36,212,81594,2,0,P|16:150|39:82,1,125
176,20,81891,2,0,P|237:48|258:127,1,125
279,260,82188,2,0,L|159:316,1,125
190,151,82485,2,0,L|310:101,1,125
472,30,82782,2,0,B|476:57|476:57|460:57|476:89|476:89|460:89|476:121|476:121|460:121|476:153|476:153|460:153|476:185|476:185|460:185|476:217|476:217|460:217|476:249|476:249|460:249|476:281|476:281|460:281|476:313|476:313|460:313|476:345|476:345|468:354,1,375
316,307,83376,6,0,L|191:187,1,125
265,64,83673,2,0,L|362:156,1,125
474,263,83971,1,0,0:0:0:0:
446,104,84119,1,0,0:0:0:0:
317,203,84268,2,0,P|390:206|421:149,1,125
257,154,84564,6,0,L|155:271,1,125
12,236,84861,2,0,L|105:140,1,125
214,29,85159,1,0,0:0:0:0:
192,190,85307,1,0,0:0:0:0:
59,95,85456,2,0,P|132:89|165:144,1,125
321,102,85752,6,0,L|299:255,1,125
160,304,86049,2,0,L|185:172,1,125
216,20,86347,1,0,0:0:0:0:
286,167,86495,1,0,0:0:0:0:
122,160,86644,2,0,P|179:115|237:143,1,125
362,213,86940,5,0,0:0:0:0:
405,248,87014,1,0,0:0:0:0:
400,304,87089,1,0,0:0:0:0:
358,341,87163,1,0,0:0:0:0:
302,337,87237,1,0,0:0:0:0:
264,295,87311,1,0,0:0:0:0:
248,240,87386,1,0,0:0:0:0:
263,186,87460,1,0,0:0:0:0:
292,138,87534,5,0,0:0:0:0:
382,2,87683,1,0,0:0:0:0:
416,159,87831,2,0,L|416:320,1,125
