osu file format v14

[General]
AudioFilename: audio.mp3
AudioLeadIn: 0
PreviewTime: 48916
Countdown: 0
SampleSet: Soft
StackLeniency: 0.2
Mode: 0
LetterboxInBreaks: 0
WidescreenStoryboard: 1

[Editor]
DistanceSpacing: 1
BeatDivisor: 4
GridSize: 32
TimelineZoom: 2.5

[Metadata]
Title:GO CRY GO (TV Size)
TitleUnicode:GO CRY GO (TV Size)
Artist:OxT
ArtistUnicode:OxT
Creator:NeKroMan4ik
Version:OVERLORD
Source:オーバーロードⅡ
Tags:overlord ii 2nd op opening anime jrock rock japanese -mikanmymommy djulus irohas mugiwarasekai fuju airincat
BeatmapID:2951375
BeatmapSetID:1434136

[Difficulty]
HPDrainRate:6
CircleSize:4.3
OverallDifficulty:9.2
ApproachRate:9.5
SliderMultiplier:1.65
SliderTickRate:1

[Events]
//Background and Video events
0,0,"bg.jpg",0,0
Video,-350,"momongus.mp4"
//Break Periods
//Storyboard Layer 0 (Background)
//Storyboard Layer 1 (Fail)
//Storyboard Layer 2 (Pass)
//Storyboard Layer 3 (Foreground)
//Storyboard Layer 4 (Overlay)
//Storyboard Sound Samples

[TimingPoints]
265,297.029702970297,4,2,1,50,1,0
4571,-166.666666666667,4,2,1,50,0,0
4943,-166.666666666667,4,2,1,5,0,0
5030,297.029702970297,4,2,1,70,1,0
9485,-74.0740740740741,4,2,1,70,0,0
9708,-74.0740740740741,4,2,1,5,0,0
9782,-100,4,2,1,70,0,0
11861,-83.3333333333333,4,2,1,70,0,0
12084,-83.3333333333333,4,2,1,5,0,0
12158,-100,4,2,1,70,0,0
15129,297.029702970297,4,2,1,60,1,0
15129,-117.647058823529,4,2,1,60,0,0
17728,-117.647058823529,4,2,1,5,0,0
17802,-117.647058823529,4,2,1,60,0,0
22257,-111.111111111111,4,2,1,65,0,0
23742,-90.9090909090908,4,2,1,65,0,0
24633,-100,4,2,1,70,0,0
34138,-166.666666666667,4,2,1,50,0,0
41267,-111.111111111111,4,2,1,70,0,0
41713,-111.111111111111,4,2,1,5,0,0
41861,-111.111111111111,4,2,1,70,0,0
42307,-111.111111111111,4,2,1,5,0,0
42455,-142.857142857143,4,2,1,70,0,0
42678,-142.857142857143,4,2,1,5,0,0
42752,-111.111111111111,4,2,1,60,0,0
44831,-76.9230769230769,4,2,1,65,0,0
45054,-76.9230769230769,4,2,1,5,0,0
45129,-166.666666666667,4,2,1,65,0,0
45277,-166.666666666667,4,2,1,5,0,0
45426,-76.9230769230769,4,2,1,65,0,0
45649,-76.9230769230769,4,2,1,5,0,0
45724,-166.666666666667,4,2,1,65,0,0
45872,-166.666666666667,4,2,1,5,0,0
46020,-333.333333333333,4,2,1,70,0,0
47059,-333.333333333333,4,2,1,5,0,0
47208,-100,4,2,1,70,0,0
48990,-1000,4,2,1,60,0,0
49570,297.029702970297,4,2,1,80,1,0
49570,-55.5555555555556,4,2,1,80,0,1
49792,-55.5555555555556,4,2,1,5,0,1
49867,-76.9230769230769,4,2,1,80,0,1
50164,-55.5555555555556,4,2,1,80,0,1
50386,-55.5555555555556,4,2,1,5,0,1
50461,-76.9230769230769,4,2,1,80,0,1
50758,-66.6666666666667,4,2,1,80,0,1
51129,-66.6666666666667,4,2,1,5,0,1
51203,-66.6666666666667,4,2,1,80,0,1
51277,-66.6666666666667,4,2,1,5,0,1
51352,-66.6666666666667,4,2,1,80,0,1
51946,-55.5555555555556,4,2,1,80,0,1
52168,-55.5555555555556,4,2,1,5,0,1
52243,-76.9230769230769,4,2,1,80,0,1
52540,-55.5555555555556,4,2,1,80,0,1
52762,-55.5555555555556,4,2,1,5,0,1
52837,-76.9230769230769,4,2,1,80,0,1
53134,-90.9090909090909,4,2,1,80,0,1
54322,-95.2380952380952,4,2,1,70,0,0
59074,-62.5,4,2,1,80,0,1
59296,-62.5,4,2,1,5,0,1
59371,-100,4,2,1,80,0,1
59668,-62.5,4,2,1,80,0,1
59890,-62.5,4,2,1,5,0,1
59965,-100,4,2,1,80,0,1
60262,-76.9230769230769,4,2,1,80,0,1
60411,-76.9230769230769,4,2,1,5,0,1
60485,-76.9230769230769,4,2,1,80,0,1
60633,-76.9230769230769,4,2,1,5,0,1
60707,-76.9230769230769,4,2,1,80,0,1
60781,-76.9230769230769,4,2,1,5,0,1
60856,-76.9230769230769,4,2,1,80,0,1
61450,-62.5,4,2,1,80,0,1
61672,-62.5,4,2,1,5,0,1
61747,-100,4,2,1,80,0,1
62044,-62.5,4,2,1,80,0,1
62266,-62.5,4,2,1,5,0,1
62341,-100,4,2,1,80,0,1
62638,-90.9090909090909,4,2,1,80,0,1
63827,-95.2380952380952,4,2,1,70,0,0
68579,-86.9565217391304,4,2,1,80,0,1
68802,-86.9565217391304,4,2,1,5,0,1
68876,-86.9565217391304,4,2,1,80,0,1
69842,-86.9565217391304,4,2,1,5,0,1
69916,-86.9565217391304,4,2,1,80,0,1
71995,-95.2380952380952,4,2,1,80,0,0
73035,-153.846153846154,4,2,1,80,0,0
73332,-95.2380952380952,4,2,1,80,0,0
74409,-95.2380952380952,4,2,1,5,0,0
74669,-95.2380952380952,4,2,1,80,0,0
74706,-95.2380952380952,4,2,1,5,0,0
74966,-66.6666666666667,4,2,1,80,0,0
75040,-66.6666666666667,4,2,1,5,0,0
75114,-83.3333333333333,4,2,1,80,0,0
75708,-90.9090909090909,4,2,1,80,0,1
76896,-166.666666666667,4,2,1,80,0,0
77193,-166.666666666667,4,2,1,5,0,0
78084,-100,4,2,1,70,0,0
82837,-83.3333333333333,4,2,1,70,0,1
85139,-83.3333333333333,4,2,1,5,0,1
85213,-74.0740740740741,4,2,1,90,0,1
87292,-166.666666666667,4,2,1,80,0,0
87589,-166.666666666667,4,2,1,5,0,0

[Colours]
Combo1 : 201,126,126
Combo2 : 187,170,168
Combo3 : 196,172,194
Combo4 : 182,183,192

[HitObjects]
28,289,4571,5,8,0:3:0:0:
28,289,4646,1,8,0:3:0:0:
28,289,4720,2,0,P|21:245|15:213,1,74.2499977340699,8|0,0:3|0:0,0:0:0:0:
77,149,5030,6,0,P|168:152|240:84,1,165,4|10,1:2|0:0,0:0:0:0:
131,65,5475,1,2,0:0:0:0:
188,343,5624,2,0,P|169:289|185:250,1,82.5,2|0,0:0|1:0,0:0:0:0:
346,61,5921,2,0,L|334:160,1,82.5,10|0,0:0|1:0,0:0:0:0:
259,0,6218,1,2,1:2:0:0:
259,0,6366,1,0,1:0:0:0:
434,118,6515,6,0,P|477:135|536:142,1,82.5,10|0,0:0|0:0,0:0:0:0:
256,252,6812,2,0,L|160:268,1,82.5,2|0,1:2|1:0,0:0:0:0:
395,384,7109,2,0,P|411:342|398:301,1,82.5,10|0,0:0|1:0,0:0:0:0:
241,160,7406,6,0,P|157:170|61:184,1,165,4|10,1:2|0:0,0:0:0:0:
174,265,7851,1,0,1:0:0:0:
65,78,8000,1,2,0:0:0:0:
241,160,8148,1,0,1:0:0:0:
103,384,8297,2,0,P|96:337|89:284,1,82.5,10|0,0:0|0:0,0:0:0:0:
191,321,8594,1,0,1:2:0:0:
5,352,8742,1,0,1:0:0:0:
191,321,8891,6,0,L|282:302,1,82.5,10|0,0:0|1:0,0:0:0:0:
491,357,9188,1,0,1:0:0:0:
470,321,9262,1,0,1:0:0:0:
466,280,9336,1,0,1:0:0:0:
477,241,9410,1,0,1:0:0:0:
502,208,9485,6,0,B|396:169|396:169|341:204,1,167.062500637293,14|0,0:0|0:0,0:0:0:0:
291,129,9782,6,0,P|213:136|152:70,1,165,4|8,1:2|0:0,0:0:0:0:
252,39,10228,1,2,1:2:0:0:
252,39,10302,1,0,1:0:0:0:
252,39,10376,1,2,1:2:0:0:
121,201,10525,1,2,1:2:0:0:
62,23,10673,1,10,0:2:0:0:
279,222,10822,1,0,0:0:0:0:
61,384,10970,5,0,1:0:0:0:
61,384,11119,1,2,1:2:0:0:
121,201,11267,2,0,P|130:242|138:297,1,82.5,10|0,0:0|1:0,0:0:0:0:
144,291,11490,1,0,1:0:0:0:
153,299,11564,1,2,1:2:0:0:
343,327,11713,1,2,0:0:0:0:
230,144,11861,6,0,P|241:215|255:290,1,148.49999546814,10|0,0:0|1:0,0:0:0:0:
343,327,12158,5,8,0:0:0:0:
410,286,12307,1,0,1:0:0:0:
484,311,12455,1,8,0:3:0:0:
512,384,12604,1,8,0:3:0:0:
390,186,12752,5,8,0:3:0:0:
357,66,12901,1,8,0:3:0:0:
477,34,13049,1,8,0:3:0:0:
509,153,13198,1,8,0:3:0:0:
292,180,13346,5,12,0:0:0:0:
215,158,13495,1,0,1:0:0:0:
254,25,13643,5,2,1:2:0:0:
336,253,13792,1,8,0:0:0:0:
342,264,13866,1,8,0:0:0:0:
348,275,13940,1,8,0:0:0:0:
128,368,14089,5,10,0:0:0:0:
390,186,14237,1,10,0:0:0:0:
168,72,14386,1,8,0:0:0:0:
29,95,15129,6,0,P|98:82|167:72,1,140.250002675056,4|8,1:2|0:0,0:0:0:0:
271,5,15574,1,8,0:3:0:0:
278,15,15648,1,8,0:3:0:0:
285,25,15723,2,0,P|278:65|270:124,1,70.1250013375282,0|8,1:0|0:3,0:0:0:0:
203,174,16020,1,10,0:0:0:0:
403,152,16168,1,2,0:0:0:0:
342,294,16317,6,0,P|327:264|348:209,1,70.1250013375282,2|0,1:2|0:0,0:0:0:0:
403,152,16614,1,8,0:0:0:0:
502,26,16762,2,0,P|494:60|489:95,1,70.1250013375282,2|8,0:0|0:3,0:0:0:0:
342,294,17059,5,2,1:2:0:0:
254,274,17208,1,10,0:0:0:0:
168,252,17356,1,2,1:2:0:0:
17,384,17505,6,0,P|59:355|67:304,1,105.187502006292,2|0,1:2|0:0,0:0:0:0:
14,247,17802,1,10,0:0:0:0:
148,43,17950,1,8,0:3:0:0:
155,53,18024,1,8,0:3:0:0:
162,63,18099,2,0,P|167:99|174:142,1,70.1250013375282,2|0,1:2|1:0,0:0:0:0:
14,9,18396,2,0,P|5:46|-5:102,1,70.1250013375282,10|0,0:0|0:0,0:0:0:0:
58,179,18693,5,2,1:2:0:0:
265,93,18841,1,2,1:2:0:0:
104,0,18990,1,10,0:0:0:0:
223,220,19138,1,2,0:0:0:0:
334,84,19287,2,0,P|300:87|264:93,1,70.1250013375282,2|2,1:2|1:2,0:0:0:0:
324,282,19584,2,0,L|335:212,1,70.1250013375282,10|0,0:0|1:0,0:0:0:0:
371,359,19881,6,0,P|330:317|247:332,1,140.250002675056,6|8,1:2|0:0,0:0:0:0:
472,180,20327,1,8,0:3:0:0:
479,190,20401,1,8,0:3:0:0:
486,200,20475,2,0,L|474:279,1,70.1250013375282,2|0,1:2|1:0,0:0:0:0:
321,126,20772,2,0,P|358:122|403:111,1,70.1250013375282,10|0,0:2|1:0,0:0:0:0:
367,216,21069,5,2,1:2:0:0:
340,37,21218,1,0,1:3:0:0:
367,216,21366,1,8,0:0:0:0:
207,115,21515,2,0,L|224:24,1,70.1250013375282,2|0,0:0|1:0,0:0:0:0:
211,38,21737,1,2,0:0:0:0:
203,29,21812,2,0,P|165:18|130:33,1,70.1250013375282,2|8,1:2|0:0,0:0:0:0:
73,181,22109,1,2,0:0:0:0:
73,181,22257,6,0,P|62:253|52:337,1,148.49999546814,2|10,1:2|0:0,0:0:0:0:
232,384,22703,1,0,1:0:0:0:
232,384,22777,1,0,1:0:0:0:
232,384,22851,2,0,P|246:344|230:296,1,74.2499977340699,2|0,1:2|1:0,0:0:0:0:
168,237,23148,1,10,0:0:0:0:
341,344,23297,6,0,L|394:333,1,37.1249988670349,0|0,1:0|1:0,0:0:0:0:
479,379,23445,1,8,0:3:0:0:
502,351,23519,1,8,0:3:0:0:
505,314,23593,1,8,0:3:0:0:
486,283,23667,1,8,0:3:0:0:
426,224,23742,6,0,P|419:198|416:172,1,45.3750013847352,8|8,0:3|0:3,0:0:0:0:
512,93,23891,2,0,P|505:119|502:145,1,45.3750013847352,8|8,0:3|0:3,0:0:0:0:
323,197,24039,6,0,L|269:186,1,45.3750013847352,8|8,0:3|0:3,0:0:0:0:
265,198,24188,2,0,L|309:207,1,45.3750013847352,8|8,0:3|0:3,0:0:0:0:
387,327,24336,5,8,0:0:0:0:
387,327,24633,5,12,0:0:0:0:
135,237,24782,1,0,1:0:0:0:
416,179,24930,5,8,0:0:0:0:
182,371,25079,1,0,1:0:0:0:
414,337,25228,5,8,0:0:0:0:
107,226,25377,1,0,1:0:0:0:
261,110,25525,5,10,0:0:0:0:
44,376,25673,1,2,1:2:0:0:
34,367,25747,1,0,1:0:0:0:
26,356,25822,6,0,P|19:305|10:254,1,82.5,10|0,0:0|0:0,0:0:0:0:
142,57,26119,2,0,P|160:95|144:146,1,82.5,8|2,0:0|1:2,0:0:0:0:
147,145,26341,1,0,1:0:0:0:
141,156,26416,1,8,0:0:0:0:
158,287,26564,1,2,1:2:0:0:
0,139,26713,1,10,0:0:0:0:
262,0,26861,1,2,1:2:0:0:
262,0,26935,1,0,1:0:0:0:
262,0,27010,6,0,P|254:42|246:93,1,82.5,14|0,0:0|1:0,0:0:0:0:
385,348,27307,2,0,P|393:306|401:255,1,82.5,10|0,0:0|1:0,0:0:0:0:
241,298,27604,6,0,P|200:292|149:289,1,82.5,10|0,0:0|1:0,0:0:0:0:
411,134,27901,2,0,P|451:139|502:142,1,82.5,10|0,0:0|1:0,0:0:0:0:
502,134,28124,1,0,1:0:0:0:
512,127,28198,5,8,0:0:0:0:
337,42,28346,1,2,1:2:0:0:
415,259,28495,1,8,0:0:0:0:
224,384,28643,5,2,1:2:0:0:
229,370,28718,1,0,1:0:0:0:
235,356,28792,1,8,0:0:0:0:
286,165,28940,1,2,1:2:0:0:
200,224,29089,5,10,0:0:0:0:
468,346,29237,1,2,1:2:0:0:
473,355,29312,1,0,1:0:0:0:
478,363,29386,5,14,0:0:0:0:
286,165,29534,1,2,1:2:0:0:
461,56,29683,1,10,0:0:0:0:
364,300,29831,1,2,1:2:0:0:
200,224,29980,2,0,P|193:179|185:132,1,82.5,8|0,0:0|1:0,0:0:0:0:
264,64,30277,5,10,0:0:0:0:
94,207,30426,1,2,1:2:0:0:
94,207,30500,1,0,1:0:0:0:
94,207,30574,1,10,0:0:0:0:
277,290,30723,1,2,1:2:0:0:
86,214,30871,1,10,0:0:0:0:
275,74,31020,2,0,P|320:67|367:59,1,82.5,2|8,1:2|0:0,0:0:0:0:
193,231,31317,5,2,1:2:0:0:
179,149,31465,1,10,0:0:0:0:
165,67,31614,1,2,0:0:0:0:
216,0,31762,5,6,1:2:0:0:
45,132,31911,1,8,0:0:0:0:
275,286,32059,1,10,0:0:0:0:
179,149,32208,1,10,0:0:0:0:
102,367,32356,5,10,0:0:0:0:
286,165,32505,1,8,0:0:0:0:
343,369,32653,1,10,0:0:0:0:
153,235,32802,1,0,1:0:0:0:
457,272,32950,5,10,0:0:0:0:
244,74,33099,1,8,0:0:0:0:
275,286,33247,1,10,0:0:0:0:
446,40,33396,1,8,0:0:0:0:
275,286,33544,5,8,0:0:0:0:
246,245,33618,1,8,0:0:0:0:
202,226,33692,1,8,0:0:0:0:
153,232,33766,1,8,0:0:0:0:
115,262,33841,1,8,0:3:0:0:
91,282,33915,1,8,0:3:0:0:
61,288,33989,1,8,0:3:0:0:
31,281,34063,1,8,0:3:0:0:
8,262,34138,6,0,B|26:201|23:152|23:152|67:128|106:159,1,197.99999395752,6|0,1:2|0:0,0:0:0:0:
431,368,35327,5,8,0:3:0:0:
370,239,35772,1,8,0:3:0:0:
510,249,36218,1,8,0:3:0:0:
437,290,36515,6,0,B|312:315|312:315|279:356|316:390,1,197.99999395752,4|0,1:2|0:0,0:0:0:0:
0,227,37703,6,0,B|103:195|88:262|203:232,1,197.99999395752,2|0,0:0|0:0,0:0:0:0:
80,108,38445,5,8,0:3:0:0:
44,65,38594,1,8,0:3:0:0:
71,33,38742,1,8,0:3:0:0:
57,13,38891,6,0,P|117:0|195:106,1,197.99999395752,8|0,0:3|0:0,0:0:0:0:
125,285,40079,6,0,P|79:265|30:264,1,98.9999969787599,2|8,0:0|0:3,0:0:0:0:
6,349,40525,1,8,0:3:0:0:
6,349,40673,2,0,P|51:368|100:369,1,98.9999969787599,8|8,0:3|0:3,0:0:0:0:
365,181,41267,6,0,B|427:148|496:170|496:170|535:134|508:80,1,222.74999320221,4|0,1:2|0:0,0:0:0:0:
234,258,41861,6,0,B|203:203|148:183|95:196|77:248|98:281|141:290,1,222.74999320221,4|0,1:2|0:0,0:0:0:0:
276,166,42455,6,0,L|267:76,1,86.6249973564149,4|0,1:2|0:0,0:0:0:0:
328,29,42752,5,2,1:2:0:0:
139,116,43049,1,2,1:2:0:0:
227,305,43346,1,2,1:2:0:0:
415,217,43643,5,6,1:2:0:0:
276,166,43940,1,8,0:3:0:0:
118,369,44089,5,8,0:3:0:0:
118,369,44163,1,8,0:3:0:0:
118,369,44237,1,8,0:3:0:0:
30,239,44386,1,8,0:3:0:0:
125,142,44534,1,8,0:3:0:0:
62,69,44683,1,8,0:3:0:0:
107,10,44831,6,0,P|183:56|284:45,1,160.874992635727,4|0,1:2|0:0,0:0:0:0:
338,45,45129,2,0,L|323:114,1,49.4999984893799,2|0,1:0|0:0,0:0:0:0:
512,199,45426,6,0,P|436:245|335:234,1,160.874992635727,4|0,1:2|0:0,0:0:0:0:
281,234,45724,2,0,L|296:303,1,49.4999984893799,2|0,1:0|0:0,0:0:0:0:
225,373,46020,6,0,B|192:343|145:370|145:370|120:320|66:335,1,173.24999471283,14|0,0:0|0:0,0:0:0:0:
184,215,47208,5,12,0:0:0:0:
147,4,47356,1,0,1:0:0:0:
187,230,47505,1,0,1:0:0:0:
37,112,47653,5,12,0:0:0:0:
0,323,47801,1,0,1:0:0:0:
40,97,47950,1,0,1:0:0:0:
187,230,48099,6,0,P|230:225|266:202,1,82.5,12|0,0:0|1:0,0:0:0:0:
400,48,48396,5,8,0:0:0:0:
199,140,48544,1,8,0:0:0:0:
294,343,48693,1,8,0:0:0:0:
493,248,48841,1,2,1:3:0:0:
432,176,48990,5,2,0:0:0:0:
426,185,49213,1,2,0:0:0:0:
420,195,49435,1,2,0:0:0:0:
394,296,49570,6,0,B|234:267|234:267|285:328,1,222.74999320221,4|0,1:0|0:0,0:0:0:0:
185,384,49867,2,0,P|151:352|167:277,1,107.249995090485,10|0,0:0|0:0,0:0:0:0:
11,31,50164,6,0,B|171:2|171:2|120:63,1,222.74999320221,2|0,1:2|0:0,0:0:0:0:
220,119,50461,2,0,P|254:87|238:12,1,107.249995090485,10|0,0:0|0:0,0:0:0:0:
10,159,50758,6,0,P|20:204|106:228,1,123.750004720688,2|0,0:0|1:0,0:0:0:0:
183,281,50980,6,0,P|195:339|156:384,1,123.750004720688,2|0,0:0|0:0,0:0:0:0:
256,201,51203,6,0,P|286:205|317:211,1,61.875002360344,2|0,0:0|0:0,0:0:0:0:
419,176,51352,6,0,P|453:119|428:59,1,123.750004720688,2|0,0:0|1:0,0:0:0:0:
176,45,51649,2,0,P|142:95|158:153,1,123.750004720688,8|0,0:0|1:0,0:0:0:0:
299,370,51946,6,0,B|318:212|318:212|359:293,1,222.74999320221,6|0,1:2|0:0,0:0:0:0:
396,343,52243,2,0,P|452:303|509:317,1,107.249995090485,10|0,0:0|1:0,0:0:0:0:
287,128,52466,1,0,1:0:0:0:
280,118,52540,6,0,B|149:76|194:156|52:121,1,222.74999320221,2|0,1:2|0:0,0:0:0:0:
0,62,52837,2,0,P|49:36|106:57,1,107.249995090485,10|0,0:2|0:0,0:0:0:0:
198,217,53134,6,0,P|187:264|177:329,1,90.7500027694703,2|0,1:2|1:0,0:0:0:0:
259,384,53431,5,10,0:0:0:0:
88,244,53579,1,8,0:0:0:0:
74,236,53654,1,8,0:0:0:0:
62,230,53728,1,8,0:0:0:0:
300,137,53876,1,10,0:0:0:0:
163,53,54025,5,10,0:0:0:0:
180,132,54173,1,2,0:0:0:0:
282,298,54322,6,0,B|376:322|353:250|451:282,2,173.24999471283,6|8|0,1:2|0:0|1:0,0:0:0:0:
106,147,55065,1,0,1:0:0:0:
151,384,55213,2,0,P|176:341|162:287,1,86.6249973564149,8|0,0:0|0:0,0:0:0:0:
225,132,55510,5,0,1:0:0:0:
78,318,55658,1,0,1:0:0:0:
318,205,55807,1,8,0:0:0:0:
125,62,55955,1,0,1:0:0:0:
262,382,56104,2,0,P|271:333|287:282,1,86.6249973564149,2|0,1:2|1:0,0:0:0:0:
125,62,56401,2,0,P|116:111|100:162,1,86.6249973564149,10|0,0:2|1:0,0:0:0:0:
172,305,56698,5,10,0:2:0:0:
383,145,56847,1,8,0:0:0:0:
398,138,56921,1,8,0:0:0:0:
413,132,56995,1,8,0:0:0:0:
233,60,57144,1,8,0:0:0:0:
368,344,57292,5,0,1:0:0:0:
207,201,57441,1,8,0:3:0:0:
213,190,57515,1,8,0:3:0:0:
218,180,57589,1,8,0:3:0:0:
473,53,57738,1,8,0:3:0:0:
309,205,57886,5,6,1:2:0:0:
130,74,58035,1,8,0:0:0:0:
130,74,58109,1,8,0:0:0:0:
130,74,58183,1,8,0:0:0:0:
293,0,58332,1,8,0:0:0:0:
309,205,58480,5,8,0:0:0:0:
198,4,58629,1,8,0:0:0:0:
0,111,58777,1,8,0:0:0:0:
111,312,58926,1,8,0:0:0:0:
154,158,59074,6,0,B|304:135|304:135|262:190,1,198,4|0,1:2|0:0,0:0:0:0:
240,247,59371,2,0,P|212:264|237:242,1,82.5,2|0,0:0|1:0,0:0:0:0:
512,368,59669,6,0,B|362:391|362:391|404:336,1,198,10|0,0:2|0:0,0:0:0:0:
426,279,59966,2,0,P|454:262|430:284,1,82.5,2|0,0:0|1:0,0:0:0:0:
352,179,60263,6,0,P|360:118|370:59,1,107.249995090485,6|0,1:2|0:0,0:0:0:0:
435,14,60485,6,0,P|485:-10|544:9,1,107.249995090485,2|0,0:0|0:0,0:0:0:0:
270,114,60708,6,0,P|233:108|209:83,1,53.6249975452424,2|0,0:0|0:0,0:0:0:0:
67,6,60857,6,0,P|18:61|28:100,1,107.249995090485,10|0,0:0|1:0,0:0:0:0:
175,384,61154,2,0,P|126:329|136:290,1,107.249995090485
4,207,61451,6,0,B|96:194|96:194|98:196|98:196|207:182,1,198,6|0,1:2|0:0,0:0:0:0:
261,123,61748,2,0,B|257:81|257:81|220:98,1,82.5,2|0,0:0|1:0,0:0:0:0:
371,384,62045,6,0,B|364:299|364:299|366:294|366:294|362:239|362:239|398:279,1,198,10|0,0:0|0:0,0:0:0:0:
469,339,62342,2,0,P|480:271|491:224,1,82.5,2|0,0:0|0:0,0:0:0:0:
354,8,62639,6,0,L|370:115,1,90.7500027694703,4|0,1:2|0:0,0:0:0:0:
455,39,62935,1,2,0:0:0:0:
276,69,63083,1,2,1:2:0:0:
187,51,63232,5,8,0:0:0:0:
208,135,63380,1,2,1:2:0:0:
110,287,63530,5,8,0:0:0:0:
131,203,63678,1,2,1:2:0:0:
338,384,63827,6,0,P|283:309|195:329,2,173.24999471283,6|8|0,1:2|0:0|1:2,0:0:0:0:
266,181,64570,1,0,1:0:0:0:
90,384,64718,2,0,P|70:336|88:288,1,86.6249973564149,8|0,0:0|0:0,0:0:0:0:
266,181,65015,5,0,1:0:0:0:
74,93,65163,1,0,1:0:0:0:
273,188,65312,1,8,0:0:0:0:
76,272,65460,1,0,1:0:0:0:
193,51,65609,2,0,L|175:150,1,86.6249973564149,2|0,1:2|1:0,0:0:0:0:
398,351,65906,2,0,L|380:252,1,86.6249973564149,10|0,0:2|1:0,0:0:0:0:
275,191,66203,5,14,0:2:0:0:
500,284,66352,1,8,0:0:0:0:
277,382,66500,1,0,1:0:0:0:
460,165,66649,1,2,0:0:0:0:
298,19,66797,2,0,P|286:104|275:190,1,173.24999471283,14|0,0:0|1:0,0:0:0:0:
190,70,67243,1,8,0:0:0:0:
392,100,67391,5,6,1:2:0:0:
192,246,67540,1,8,0:0:0:0:
162,214,67614,1,8,0:0:0:0:
122,199,67688,1,8,0:0:0:0:
79,205,67762,1,8,0:0:0:0:
44,229,67837,1,8,0:0:0:0:
122,370,67985,5,10,0:0:0:0:
93,70,68134,1,10,0:0:0:0:
122,384,68282,1,10,0:0:0:0:
91,55,68431,1,10,0:0:0:0:
347,256,68579,6,0,P|421:247|449:180,1,142.312502714396,6|0,1:2|0:0,0:0:0:0:
512,120,68876,2,0,L|416:101,1,94.8750018095971,10|0,0:0|1:0,0:0:0:0:
198,135,69173,5,8,0:0:0:0:
448,273,69322,1,0,1:0:0:0:
182,384,69470,1,8,0:0:0:0:
303,324,69619,6,0,L|320:181,1,142.312502714396,6|0,1:2|0:0,0:0:0:0:
412,16,69916,1,2,1:2:0:0:
198,135,70065,1,8,0:0:0:0:
424,364,70213,1,2,1:2:0:0:
424,364,70287,1,0,1:0:0:0:
424,364,70362,2,0,P|433:309|455:260,1,94.8750018095971,10|0,0:0|1:0,0:0:0:0:
221,43,70659,2,0,P|212:98|190:147,1,94.8750018095971,8|0,0:0|0:0,0:0:0:0:
231,346,70956,6,0,L|129:366,1,94.8750018095971,14|0,0:0|0:0,0:0:0:0:
343,113,71253,2,0,P|390:121|445:133,1,94.8750018095971,10|0,0:0|1:0,0:0:0:0:
295,239,71550,1,10,0:0:0:0:
211,0,71698,1,2,1:2:0:0:
437,132,71847,1,8,0:0:0:0:
230,361,71995,6,0,P|177:296|94:301,1,173.24999471283,6|8,1:2|0:3,0:0:0:0:
85,311,72367,1,8,0:3:0:0:
76,322,72441,5,8,0:3:0:0:
0,184,72589,1,8,0:3:0:0:
136,109,72738,1,8,0:3:0:0:
211,245,72886,1,8,0:3:0:0:
99,240,73035,6,0,L|112:176,1,53.6249975452424,8|8,0:3|0:3,0:0:0:0:
137,110,73332,5,10,0:0:0:0:
412,347,73629,1,10,0:0:0:0:
136,109,73926,5,10,0:0:0:0:
95,384,74074,1,8,0:0:0:0:
0,184,74223,1,8,0:0:0:0:
242,334,74371,6,0,L|275:327,1,21.6562493391037,6|0,1:2|0:0,0:0:0:0:
451,78,74669,6,0,L|484:85,1,21.6562493391037,6|0,1:2|0:0,0:0:0:0:
242,334,74966,6,0,L|181:321,1,61.875002360344,10|0,0:0|0:0,0:0:0:0:
95,384,75114,6,0,B|85:320|78:271|78:271|110:230|176:250,1,197.99999395752,6|0,1:2|1:0,0:0:0:0:
401,384,75708,5,10,0:0:0:0:
512,315,75857,1,10,0:0:0:0:
243,251,76005,5,10,0:0:0:0:
422,294,76154,1,8,0:0:0:0:
376,72,76302,5,10,0:0:0:0:
486,228,76451,1,8,0:0:0:0:
512,0,76599,5,10,0:0:0:0:
334,249,76748,1,0,1:0:0:0:
333,261,76822,1,0,1:0:0:0:
332,272,76896,6,0,L|220:288,1,98.9999969787599,10|0,0:0|0:0,0:0:0:0:
291,188,78084,6,0,B|390:176|338:124|430:110,1,165,6|8,1:2|0:0,0:0:0:0:
282,82,78529,1,2,0:0:0:0:
439,295,78678,2,0,P|458:241|442:202,1,82.5,2|0,0:0|1:0,0:0:0:0:
272,0,78975,2,0,L|284:99,1,82.5,10|0,0:0|1:0,0:0:0:0:
116,299,79272,6,0,P|103:242|127:202,1,82.5,2|0,1:2|1:0,0:0:0:0:
178,64,79570,2,0,P|135:81|4:98,1,165,10|0,0:0|1:0,0:0:0:0:
211,252,80015,1,0,1:0:0:0:
337,22,80164,1,8,0:0:0:0:
282,82,80312,1,8,0:0:0:0:
314,160,80460,6,0,P|397:173|490:200,1,165,4|10,1:2|0:0,0:0:0:0:
381,265,80905,1,0,1:0:0:0:
490,78,81054,1,2,1:2:0:0:
314,160,81202,1,0,1:0:0:0:
494,384,81351,6,0,P|499:339|521:284,1,82.5,8|0,0:0|0:0,0:0:0:0:
330,79,81649,2,0,P|325:124|303:179,1,82.5,2|0,1:2|1:0,0:0:0:0:
159,384,81946,2,0,L|144:292,1,82.5,8|0,0:0|1:0,0:0:0:0:
0,137,82243,5,8,0:0:0:0:
37,115,82317,1,0,1:0:0:0:
80,115,82391,1,0,1:0:0:0:
116,137,82466,1,0,1:0:0:0:
141,169,82540,1,8,0:0:0:0:
173,201,82614,1,8,0:0:0:0:
218,205,82688,1,8,0:0:0:0:
260,192,82763,1,8,0:0:0:0:
294,159,82837,6,0,B|316:10|316:10|264:52,1,197.99999395752,6|8,1:2|0:0,0:0:0:0:
217,101,83282,1,2,1:2:0:0:
214,109,83356,1,0,1:0:0:0:
211,118,83431,1,10,0:2:0:0:
412,237,83579,1,2,1:2:0:0:
248,288,83727,1,10,0:2:0:0:
400,126,83876,1,0,1:0:0:0:
407,113,83951,1,0,1:0:0:0:
415,101,84025,6,0,P|464:92|526:84,1,98.9999969787599,10|0,0:2|1:0,0:0:0:0:
191,357,84322,2,0,P|142:366|80:374,1,98.9999969787599,10|0,0:2|1:0,0:0:0:0:
83,366,84544,1,0,1:0:0:0:
75,357,84618,1,10,0:2:0:0:
258,217,84767,1,2,1:2:0:0:
132,33,84916,6,0,L|112:186,1,148.49999546814,10|0,0:0|1:0,0:0:0:0:
50,242,85213,5,14,0:0:0:0:
287,127,85362,1,0,1:0:0:0:
19,45,85510,5,8,0:0:0:0:
348,246,85659,1,0,1:0:0:0:
229,307,85807,5,10,0:0:0:0:
277,12,85956,1,2,1:2:0:0:
50,124,86104,5,10,0:0:0:0:
396,317,86253,1,0,1:0:0:0:
136,379,86401,5,12,0:0:0:0:
141,334,86475,1,8,0:3:0:0:
148,286,86550,1,8,0:3:0:0:
153,242,86623,1,8,0:3:0:0:
159,198,86698,1,8,0:3:0:0:
164,153,86772,1,8,0:3:0:0:
175,107,86847,6,0,L|184:37,1,55.687500212431,8|8,0:0|0:3,0:0:0:0:
38,204,86995,2,0,P|31:170|22:135,1,55.687500212431,8|8,0:3|0:3,0:0:0:0:
275,252,87144,2,0,P|281:222|291:183,1,55.687500212431,8|8,0:3|0:3,0:0:0:0:
148,286,87292,6,0,L|135:384,1,98.9999969787599,12|8,0:0|0:3,0:0:0:0:
