osu file format v14

[General]
AudioFilename: audio.mp3
AudioLeadIn: 0
PreviewTime: 48916
Countdown: 0
SampleSet: Soft
StackLeniency: 0.7
Mode: 0
LetterboxInBreaks: 0
WidescreenStoryboard: 1

[Editor]
Bookmarks: 24633,48841,59074,68579,78084
DistanceSpacing: 1
BeatDivisor: 4
GridSize: 32
TimelineZoom: 2.2

[Metadata]
Title:GO CRY GO (TV Size)
TitleUnicode:GO CRY GO (TV Size)
Artist:OxT
ArtistUnicode:OxT
Creator:NeKroMan4ik
Version:FUJIRIN'S INSANE
Source:オーバーロードⅡ
Tags:overlord ii 2nd op opening anime jrock rock japanese -mikanmymommy djulus irohas mugiwarasekai fuju airincat
BeatmapID:2951372
BeatmapSetID:1434136

[Difficulty]
HPDrainRate:5
CircleSize:4
OverallDifficulty:7.6
ApproachRate:9
SliderMultiplier:1.6
SliderTickRate:1

[Events]
//Background and Video events
0,0,"bg.jpg",0,0
Video,-350,"momongus.mp4"
//Break Periods
//Storyboard Layer 0 (Background)
//Storyboard Layer 1 (Fail)
//Storyboard Layer 2 (Pass)
//Storyboard Layer 3 (Foreground)
//Storyboard Layer 4 (Overlay)
//Storyboard Sound Samples

[TimingPoints]
265,297.029702970297,4,2,1,50,1,0
5030,297.029702970297,4,2,1,70,1,0
5030,-100,4,2,1,70,0,0
6143,-100,4,2,1,5,0,0
6218,-100,4,2,1,70,0,0
9114,-100,4,2,1,5,0,0
9189,-100,4,2,1,70,0,0
11861,-83.3333333333333,4,2,1,70,0,0
12084,-83.3333333333333,4,2,1,5,0,0
12158,-100,4,2,1,70,0,0
15129,297.029702970297,4,2,1,60,1,0
15129,-86.9565217391302,4,2,1,60,0,0
15574,-117.647058823529,4,2,1,60,0,0
17728,-117.647058823529,4,2,1,5,0,0
17802,-117.647058823529,4,2,1,60,0,0
19807,-117.647058823529,4,2,1,5,0,0
19881,-117.647058823529,4,2,1,60,0,0
22257,-111.111111111111,4,2,1,65,0,0
22480,-111.111111111111,4,2,1,5,0,0
22554,-111.111111111111,4,2,1,65,0,0
24336,-83.3333333333333,4,2,1,65,0,0
24559,-111.111111111111,4,2,1,5,0,0
24633,-100,4,2,1,70,0,0
28124,-100,4,2,1,5,0,0
28198,-100,4,2,1,70,0,0
34138,-166.666666666667,4,2,1,50,0,0
34732,-500.000000000003,4,2,1,50,0,0
35327,-166.666666666667,4,2,1,50,0,0
35921,-333.333333333333,4,2,1,50,0,0
36218,-166.666666666667,4,2,1,50,0,0
37703,-166.666666666667,4,2,1,50,0,0
39485,-500.000000000003,4,2,1,50,0,0
40079,-142.857142857143,4,2,1,50,0,0
41267,-249.999999999999,4,2,1,70,0,0
41787,-111.111111111111,4,2,1,5,0,0
41861,-111.111111111111,4,2,1,70,0,0
42381,-111.111111111111,4,2,1,5,0,0
42455,-111.111111111111,4,2,1,70,0,0
42529,-111.111111111111,4,2,1,5,0,0
42752,-166.666666666666,4,2,1,60,0,0
44831,-76.9230769230769,4,2,1,65,0,0
45054,-76.9230769230769,4,2,1,5,0,0
45129,-166.666666666667,4,2,1,65,0,0
45277,-166.666666666667,4,2,1,5,0,0
45426,-76.9230769230769,4,2,1,65,0,0
45649,-76.9230769230769,4,2,1,5,0,0
45723,-166.666666666667,4,2,1,65,0,0
45872,-166.666666666667,4,2,1,5,0,0
46020,-166.666666666667,4,2,1,70,0,0
47208,-100,4,2,1,70,0,0
48693,-200,4,2,1,70,0,0
48990,-166.666666666667,4,2,1,60,0,0
49138,-166.666666666667,4,2,1,5,0,0
49213,-166.666666666667,4,2,1,60,0,0
49361,-166.666666666667,4,2,1,5,0,0
49436,-166.666666666667,4,2,1,60,0,0
49570,297.029702970297,4,2,1,80,1,0
49570,-71.4285714285714,4,2,1,80,0,1
49792,-71.4285714285714,4,2,1,5,0,0
49867,-200,4,2,1,80,0,0
50164,-71.4285714285714,4,2,1,80,0,1
50386,-71.4285714285714,4,2,1,5,0,0
50461,-200,4,2,1,80,0,0
50758,-90.9090909090909,4,2,1,80,0,0
50906,-90.9090909090909,4,2,1,5,0,0
50980,-90.9090909090909,4,2,1,80,0,0
51129,-90.9090909090909,4,2,1,5,0,0
51203,-90.9090909090909,4,2,1,80,0,0
51277,-90.9090909090909,4,2,1,5,0,0
51351,-90.9090909090909,4,2,1,80,0,0
51946,-71.4285714285714,4,2,1,80,0,1
52169,-71.4285714285714,4,2,1,5,0,0
52243,-200,4,2,1,80,0,0
52540,-71.4285714285714,4,2,1,80,0,1
52763,-71.4285714285714,4,2,1,5,0,0
52837,-200,4,2,1,80,0,0
53134,-90.9090909090909,4,2,1,80,0,0
54322,-80,4,2,1,70,0,0
54545,-80,4,2,1,5,0,0
54619,-100,4,2,1,80,0,0
59074,-250,4,2,1,80,0,0
59296,-250,4,2,1,5,0,0
59371,-58.8235294117647,4,2,1,80,0,1
59669,-250,4,2,1,80,0,0
59890,-250,4,2,1,5,0,0
59966,-58.8235294117647,4,2,1,80,0,1
60263,-90.9090909090909,4,2,1,80,0,0
60411,-90.9090909090909,4,2,1,5,0,0
60485,-90.9090909090909,4,2,1,80,0,0
60633,-90.9090909090909,4,2,1,5,0,0
60707,-90.9090909090909,4,2,1,80,0,0
60781,-90.9090909090909,4,2,1,5,0,0
60856,-90.9090909090909,4,2,1,80,0,0
61450,-250,4,2,1,80,0,0
61672,-250,4,2,1,5,0,0
61748,-62.5,4,2,1,80,0,1
62045,-250,4,2,1,80,0,0
62268,-250,4,2,1,5,0,1
62341,-62.5,4,2,1,80,0,1
62639,-90.9090909090909,4,2,1,80,0,0
62862,-90.9090909090909,4,2,1,5,0,0
62936,-90.9090909090909,4,2,1,80,0,0
63827,-95.2380952380952,4,2,1,70,0,0
65238,-95.2380952380952,4,2,1,5,0,0
65312,-95.2380952380952,4,2,1,70,0,0
68579,-71.4285714285714,4,2,1,80,0,1
68802,-71.4285714285714,4,2,1,5,0,0
68876,-86.9565217391304,4,2,1,80,0,0
69322,-86.9565217391304,4,2,1,80,0,0
69619,-71.4285714285714,4,2,1,80,0,1
69842,-71.4285714285714,4,2,1,5,0,0
69916,-86.9565217391304,4,2,1,80,0,0
70659,-250,4,2,1,80,0,0
70881,-250,4,2,1,5,0,0
70956,-71.4285714285714,4,2,1,80,0,1
71178,-71.4285714285714,4,2,1,5,0,0
71253,-86.9565217391304,4,2,1,80,0,0
71995,-86.9565217391304,4,2,1,80,0,0
73555,-86.9565217391304,4,2,1,5,0,0
73629,-86.9565217391304,4,2,1,80,0,0
74594,-86.9565217391304,4,2,1,5,0,0
74668,-86.9565217391304,4,2,1,80,0,0
75708,-90.9090909090909,4,2,1,80,0,0
76896,-250.000000000001,4,2,1,80,0,0
78084,-100,4,2,1,80,0,0
79198,-100,4,2,1,5,0,0
79272,-100,4,2,1,80,0,0
81574,-100,4,2,1,5,0,0
81648,-100,4,2,1,80,0,0
84916,-83.3333333333333,4,2,1,70,0,0
85139,-83.3333333333333,4,2,1,5,0,0
85213,-100,4,2,1,70,0,0
87292,-125,4,2,1,70,0,0
87589,-125,4,2,1,5,0,0

[Colours]
Combo1 : 201,126,126
Combo2 : 187,170,168
Combo3 : 196,172,194
Combo4 : 182,183,192

[HitObjects]
139,0,5030,6,0,L|153:78,1,80,4|0,1:2|0:0,0:0:0:0:
103,169,5327,2,0,P|71:192|32:188,1,80,10|2,0:0|0:0,0:0:0:0:
174,276,5624,1,2,0:0:0:0:
174,276,5772,1,0,1:0:0:0:
231,221,5921,2,0,P|290:226|349:239,1,120,10|0,0:0|0:0,0:0:0:0:
349,239,6218,5,2,1:2:0:0:
511,158,6366,2,0,P|480:135|441:138,1,80,0|10,1:0|0:0,0:0:0:0:
432,148,6812,2,0,P|418:111|416:72,1,80,2|0,1:2|1:0,0:0:0:0:
231,221,7109,2,0,P|245:183|247:144,1,80,10|0,0:0|1:0,0:0:0:0:
177,61,7331,5,0,1:0:0:0:
184,67,7406,2,0,B|128:76|128:76|96:118|96:118|46:129,1,160,4|10,1:2|0:0,0:0:0:0:
170,163,7851,1,0,1:0:0:0:
2,232,8000,2,0,L|80:244,1,80,2|0,0:0|1:0,0:0:0:0:
154,298,8297,2,0,P|169:333|152:369,1,80,10|0,0:0|0:0,0:0:0:0:
231,221,8594,5,0,1:2:0:0:
231,221,8742,1,0,1:0:0:0:
300,251,8891,2,0,P|336:205|320:149,1,120,10|0,0:0|0:0,0:0:0:0:
320,149,9188,1,0,1:0:0:0:
442,39,9336,1,0,1:0:0:0:
442,39,9411,1,0,1:0:0:0:
442,39,9485,2,0,L|363:53,1,80,14|0,0:0|0:0,0:0:0:0:
169,144,9782,5,4,1:2:0:0:
123,231,9930,2,0,P|177:176|253:187,1,160,0|2,0:0|1:2,0:0:0:0:
416,259,10376,1,2,1:2:0:0:
347,332,10525,1,2,1:2:0:0:
354,185,10673,1,10,0:2:0:0:
354,185,10970,5,0,1:0:0:0:
421,56,11119,2,0,B|442:90|442:90|427:127,1,80,2|10,1:2|0:0,0:0:0:0:
253,187,11416,1,0,1:0:0:0:
253,187,11490,1,0,1:0:0:0:
253,187,11564,2,0,B|232:153|232:153|246:115,1,80,2|2,1:2|0:0,0:0:0:0:
335,306,11861,2,0,B|263:298|265:345|196:328,1,143.999995605469,10|0,0:0|1:0,0:0:0:0:
196,328,12158,5,8,0:0:0:0:
196,328,12232,1,0,1:0:0:0:
196,328,12307,2,0,L|213:249,1,80,0|8,1:0|0:3,0:0:0:0:
74,68,12604,1,8,0:3:0:0:
200,150,12752,1,8,0:3:0:0:
65,218,12901,1,8,0:3:0:0:
117,147,13049,1,8,0:3:0:0:
117,147,13346,5,12,0:0:0:0:
296,39,13495,2,0,L|217:52,1,80,0|2,1:0|1:2,0:0:0:0:
292,213,13792,5,8,0:0:0:0:
292,213,13866,1,8,0:0:0:0:
292,213,13940,1,8,0:0:0:0:
346,122,14089,1,10,0:0:0:0:
437,176,14237,1,10,0:0:0:0:
376,261,14386,1,8,0:0:0:0:
383,267,14906,5,2,0:0:0:0:
383,267,14980,2,0,L|441:284,1,40,2|0,0:0|0:0,0:0:0:0:
447,369,15129,2,0,B|400:384|361:340|396:322|356:268|305:284,1,184.000003509522,4|8,1:2|0:0,0:0:0:0:
203,336,15574,1,8,0:3:0:0:
203,336,15648,1,8,0:3:0:0:
203,336,15723,2,0,L|137:319,1,68.0000012969971,0|8,1:0|0:3,0:0:0:0:
202,175,16020,1,10,0:0:0:0:
73,253,16168,1,2,0:0:0:0:
0,212,16317,6,0,P|47:166|112:175,1,136.000002593994,2|8,1:2|0:0,0:0:0:0:
224,18,16762,2,0,L|232:85,1,68.0000012969971,2|8,0:0|0:3,0:0:0:0:
307,227,17059,1,2,1:2:0:0:
378,76,17208,1,10,0:0:0:0:
447,147,17356,5,2,1:2:0:0:
447,147,17430,1,2,0:0:0:0:
447,147,17505,2,0,L|346:163,1,102.000001945496,2|0,1:2|0:0,0:0:0:0:
346,163,17802,1,10,0:0:0:0:
286,305,17950,1,8,0:3:0:0:
286,305,18025,1,8,0:3:0:0:
286,305,18099,2,0,L|353:293,1,68.0000012969971,2|0,1:2|1:0,0:0:0:0:
215,149,18396,2,0,L|203:216,1,68.0000012969971,10|0,0:0|0:0,0:0:0:0:
124,384,18693,5,2,1:2:0:0:
71,321,18841,1,2,1:2:0:0:
125,259,18990,1,10,0:0:0:0:
290,202,19138,5,2,0:0:0:0:
290,202,19213,1,2,0:0:0:0:
290,202,19287,2,0,L|357:213,1,68.0000012969971,2|2,1:2|1:2,0:0:0:0:
248,63,19584,2,0,B|202:41|202:41|160:71,1,102.000001945496,10|0,0:0|0:0,0:0:0:0:
160,70,19881,6,0,P|177:135|187:202,1,136.000002593994,6|8,1:2|0:0,0:0:0:0:
315,355,20327,1,8,0:3:0:0:
315,355,20401,1,8,0:3:0:0:
315,355,20475,1,2,1:2:0:0:
265,236,20624,1,0,1:0:0:0:
166,302,20772,2,0,L|232:316,1,68.0000012969971,10|0,0:2|1:0,0:0:0:0:
377,292,21069,6,0,P|413:237|390:176,1,136.000002593994,2|8,1:2|0:0,0:0:0:0:
328,118,21515,2,0,L|261:132,1,68.0000012969971,2|0,0:0|1:0,0:0:0:0:
125,15,21812,5,2,1:2:0:0:
125,15,21960,1,8,0:0:0:0:
188,70,22109,1,2,0:0:0:0:
135,134,22257,2,0,L|31:163,1,107.999996704102,2|0,1:2|0:0,0:0:0:0:
31,163,22554,2,0,B|15:131|15:131|28:97,1,71.9999978027344,10|0,0:0|1:0,0:0:0:0:
27,98,22777,1,0,1:0:0:0:
27,98,22851,1,2,1:2:0:0:
207,184,23148,2,0,B|223:216|223:216|210:250,1,71.9999978027344,10|0,0:0|1:0,0:0:0:0:
137,298,23445,6,0,L|100:290,2,35.9999989013672,8|8|8,0:3|0:3|0:3,0:0:0:0:
212,365,23742,1,8,0:3:0:0:
212,365,23817,1,8,0:3:0:0:
212,365,23891,1,8,0:3:0:0:
320,246,24039,1,8,0:3:0:0:
320,246,24114,1,8,0:3:0:0:
320,246,24188,1,8,0:3:0:0:
320,246,24263,1,8,0:3:0:0:
320,246,24336,2,0,B|365:256|365:256|389:301|389:301|434:312,1,143.999995605469,8|0,0:0|0:0,0:0:0:0:
434,312,24633,6,0,B|384:290|339:331|382:337|342:376|299:367,2,160,12|8|8,0:0|0:0|0:0,0:0:0:0:
493,164,25376,1,0,1:0:0:0:
495,157,25450,1,0,1:0:0:0:
497,151,25525,2,0,L|514:232,1,80,10|2,0:0|1:2,0:0:0:0:
324,167,25822,2,0,P|393:135|394:60,1,160,10|8,0:0|0:0,0:0:0:0:
316,14,26267,2,0,P|277:23|224:37,1,80,2|8,1:2|0:0,0:0:0:0:
103,26,26564,1,2,1:2:0:0:
184,143,26713,1,10,0:0:0:0:
184,143,26861,1,2,1:2:0:0:
77,200,27010,6,0,P|41:190|-4:179,1,80,14|0,0:0|1:0,0:0:0:0:
108,368,27307,2,0,P|135:341|131:302,1,80,10|0,0:0|1:0,0:0:0:0:
236,228,27604,2,0,B|267:236|267:236|279:250|279:250|320:263,1,80,10|0,0:0|1:0,0:0:0:0:
488,328,27901,2,0,B|461:306|430:321|430:321|423:351|392:362,1,120,10|0,0:0|1:0,0:0:0:0:
392,362,28198,6,0,B|371:326|371:326|395:296,1,80,8|2,0:0|1:2,0:0:0:0:
497,180,28495,1,8,0:0:0:0:
351,125,28643,1,2,1:2:0:0:
351,125,28718,1,0,1:0:0:0:
351,125,28792,2,0,P|390:114|430:104,1,80,8|2,0:0|1:2,0:0:0:0:
275,23,29089,1,10,0:0:0:0:
200,85,29237,1,2,1:2:0:0:
262,194,29386,6,0,L|245:281,1,80,14|2,0:0|1:2,0:0:0:0:
86,367,29683,1,10,0:0:0:0:
88,268,29831,1,2,1:2:0:0:
88,268,29980,2,0,B|128:257|152:293|152:293|157:348|203:350,1,160,8|10,0:0|0:0,0:0:0:0:
331,308,30426,5,2,1:2:0:0:
331,308,30500,1,0,1:0:0:0:
331,308,30574,1,10,0:0:0:0:
412,367,30723,1,2,1:2:0:0:
484,267,30871,1,10,0:0:0:0:
410,211,31020,2,0,B|414:169|414:169|419:165|419:165|424:129,1,80,2|8,1:2|0:0,0:0:0:0:
349,54,31317,1,2,1:2:0:0:
410,7,31465,2,0,B|446:16|446:16|451:13|451:13|487:22,1,80,10|2,0:0|0:0,0:0:0:0:
305,131,31762,5,6,1:2:0:0:
305,131,31911,1,8,0:0:0:0:
305,131,32059,2,0,B|268:121|268:121|263:124|263:124|227:115,1,80,10|10,0:0|0:0,0:0:0:0:
119,31,32356,1,10,0:0:0:0:
119,31,32505,1,8,0:0:0:0:
119,31,32653,2,0,B|109:66|109:66|106:69|106:69|95:120,1,80,10|0,0:0|1:0,0:0:0:0:
32,237,32950,5,10,0:0:0:0:
4,160,33099,1,8,0:0:0:0:
159,226,33247,1,10,0:0:0:0:
125,297,33396,1,8,0:0:0:0:
280,370,33544,6,0,B|316:351|316:351|330:311|304:291,1,106.666666666667,8|0,0:0|0:0,0:0:0:0:
317,219,33841,2,0,B|277:235|277:235|266:261|266:261|220:285,1,106.666666666667,8|0,0:3|0:0,0:0:0:0:
330,199,34138,6,0,B|373:191|399:234|381:235|391:273|438:275,1,143.999995605469,6|0,1:2|0:0,0:0:0:0:
444,292,34732,6,0,L|458:247,1,48,2|0,0:0|0:0,0:0:0:0:
310,114,35327,6,0,B|274:105|245:135|245:135|247:183|212:193,1,143.999995605469,8|8,0:3|0:3,0:0:0:0:
198,198,35921,6,0,L|184:146,1,47.9999985351563,2|8,0:0|0:3,0:0:0:0:
0,275,36515,6,0,P|70:289|139:311,1,143.999995605469,6|2,1:2|0:0,0:0:0:0:
231,297,37109,2,0,P|235:332|217:362,2,71.9999978027344,2|2|2,0:0|0:0|0:0,0:0:0:0:
182,240,37703,2,0,B|223:225|253:252|235:267|272:295|308:277,1,143.999995605469,2|0,0:0|0:0,0:0:0:0:
379,217,38297,2,0,L|368:166,1,47.9999985351563,2|8,0:0|0:3,0:0:0:0:
214,121,38594,1,8,0:3:0:0:
268,28,38742,1,8,0:3:0:0:
340,72,38891,6,0,B|376:95|414:68|393:61|441:28|471:57,1,143.999995605469,8|0,0:3|0:0,0:0:0:0:
472,68,39485,6,0,L|423:49,1,48,2|0,0:0|0:0,0:0:0:0:
286,165,40079,6,0,L|296:220,1,55.9999982910157,2|0,0:0|0:0,0:0:0:0:
431,288,40376,1,8,0:3:0:0:
431,288,40673,2,0,P|441:238|458:175,1,111.999996582031,8|8,0:3|0:3,0:0:0:0:
457,179,41119,1,0,1:0:0:0:
309,93,41267,6,0,P|256:82|219:122,1,112,4|0,1:2|0:0,0:0:0:0:
220,129,41861,6,0,B|243:167|318:124|306:51|243:-1|166:38,1,251.999992309571,4|0,1:2|0:0,0:0:0:0:
65,0,42455,6,0,L|74:34,1,35.9999989013672,4|0,1:2|0:0,0:0:0:0:
233,345,42752,5,2,1:2:0:0:
297,272,43049,1,2,1:2:0:0:
246,192,43346,1,2,1:2:0:0:
48,80,43643,5,6,1:2:0:0:
0,136,43940,1,8,0:3:0:0:
66,195,44089,1,8,0:3:0:0:
66,195,44163,1,8,0:3:0:0:
66,195,44237,2,0,L|121:172,1,47.9999985351563,8|8,0:3|0:3,0:0:0:0:
229,270,44534,2,0,L|212:224,1,47.9999985351563,8|8,0:3|0:3,0:0:0:0:
337,23,44831,6,0,B|299:18|278:57|278:57|282:81|270:116|240:123,1,155.999992858887,4|0,1:2|0:0,0:0:0:0:
229,141,45129,6,0,L|208:81,1,47.9999985351563,2|0,1:0|0:0,0:0:0:0:
472,91,45426,6,0,B|501:116|486:157|486:157|465:170|448:203|462:229,1,155.999992858887,4|0,1:2|0:0,0:0:0:0:
460,246,45723,6,0,L|514:224,1,47.9999985351563,2|0,1:0|0:0,0:0:0:0:
213,95,46020,6,0,B|155:75|136:165|182:208|241:199|281:160|272:129|307:110|349:114|381:163|356:194,1,335.999989746094,14|0,0:0|0:0,0:0:0:0:
291,278,47208,5,12,0:0:0:0:
288,293,47356,1,0,1:0:0:0:
285,309,47505,1,0,1:0:0:0:
184,374,47653,5,12,0:0:0:0:
115,302,47802,1,0,1:0:0:0:
177,238,47950,1,0,1:0:0:0:
282,321,48099,2,0,P|317:308|367:295,1,80,12|0,0:0|1:0,0:0:0:0:
473,82,48396,5,8,0:0:0:0:
343,175,48544,1,8,0:0:0:0:
494,286,48693,2,0,L|504:240,1,40,8|2,0:0|1:3,0:0:0:0:
425,362,48990,6,0,L|377:371,1,47.9999985351563,2|0,0:0|0:0,0:0:0:0:
385,377,49213,2,0,L|432:367,1,47.9999985351563,2|0,0:0|0:0,0:0:0:0:
438,372,49435,1,2,0:0:0:0:
281,320,49570,6,0,B|233:274|253:197|253:197|252:224|270:244,1,167.999994873047,4|0,1:0|0:0,0:0:0:0:
304,141,49867,2,0,L|343:147,1,40,10|0,0:0|0:0,0:0:0:0:
455,37,50164,6,0,B|503:83|483:160|483:160|484:133|466:113,1,167.999994873047,2|0,1:2|0:0,0:0:0:0:
432,216,50461,2,0,L|392:209,1,40,10|0,0:0|0:0,0:0:0:0:
278,262,50758,6,0,P|306:294|300:336,1,88.000002685547,2|0,0:0|1:0,0:0:0:0:
210,366,50980,2,0,P|182:334|188:292,1,88.000002685547,2|0,0:0|0:0,0:0:0:0:
197,155,51203,2,0,L|183:197,1,44.0000013427735,2|0,0:0|0:0,0:0:0:0:
55,228,51352,2,0,B|102:240|130:205|112:182|154:135|197:155,1,176.000005371094,2|8,0:0|0:0,0:0:0:0:
338,236,51797,1,0,1:0:0:0:
341,8,51946,6,0,P|277:55|299:132,1,167.999994873047,6|0,1:2|0:0,0:0:0:0:
369,164,52243,2,0,B|407:152,1,40,10|0,0:0|1:0,0:0:0:0:
498,219,52466,1,0,1:0:0:0:
503,210,52540,2,0,B|342:259,1,167.999994873047,2|0,1:2|0:0,0:0:0:0:
295,319,52837,2,0,P|288:333|301:324,1,40,10|0,0:2|0:0,0:0:0:0:
63,210,53134,6,0,L|148:229,1,88.000002685547,2|0,1:2|1:0,0:0:0:0:
215,297,53431,1,10,0:0:0:0:
161,370,53579,1,8,0:0:0:0:
161,370,53654,1,8,0:0:0:0:
161,370,53728,1,8,0:0:0:0:
75,286,53876,5,10,0:0:0:0:
21,213,54024,1,10,0:0:0:0:
75,140,54173,1,2,0:0:0:0:
318,98,54322,6,0,B|277:76|248:113|248:113|231:164|183:153,1,150,6|0,1:2|0:0,0:0:0:0:
197,154,54619,2,0,B|177:121|177:121|205:92,1,80,8|0,0:0|0:0,0:0:0:0:
321,262,54916,1,0,1:0:0:0:
437,139,55065,1,0,1:0:0:0:
380,35,55213,2,0,P|352:110|338:188,1,160,8|0,0:0|1:0,0:0:0:0:
398,378,55659,1,0,1:0:0:0:
509,267,55807,2,0,P|472:283|433:291,1,80,8|0,0:0|1:0,0:0:0:0:
235,218,56104,6,0,P|208:189|217:152,1,80,2|0,1:2|1:0,0:0:0:0:
320,122,56401,2,0,P|346:150|337:187,1,80,10|0,0:2|1:0,0:0:0:0:
137,238,56698,1,10,0:2:0:0:
225,345,56847,1,8,0:0:0:0:
225,345,56921,1,8,0:0:0:0:
225,345,56995,2,0,P|188:329|149:321,1,80,8|8,0:0|0:0,0:0:0:0:
287,272,57292,1,0,1:0:0:0:
395,372,57441,2,0,P|413:363|432:358,2,40,8|8|8,0:3|0:3|0:3,0:0:0:0:
287,272,57738,1,8,0:3:0:0:
328,130,57886,6,0,P|353:158|349:197,1,80,6|8,1:2|0:0,0:0:0:0:
348,198,58109,1,8,0:0:0:0:
348,198,58183,2,0,P|311:181|272:175,1,80,8|8,0:0|0:0,0:0:0:0:
135,357,58480,1,8,0:0:0:0:
135,357,58629,1,8,0:0:0:0:
215,289,58777,1,8,0:0:0:0:
145,211,58926,1,8,0:0:0:0:
0,248,59074,6,0,L|48:266,1,48,4|0,1:2|0:0,0:0:0:0:
47,277,59371,2,0,P|96:232|72:168,1,136.000002593994,2|0,0:0|1:0,0:0:0:0:
170,9,59669,6,0,L|113:26,1,48,10|0,0:2|0:0,0:0:0:0:
114,16,59966,2,0,P|104:79|159:111,1,136.000002593994,2|0,0:0|1:0,0:0:0:0:
277,90,60263,6,0,B|311:64|311:64|350:87,1,88.000002685547,6|0,1:2|0:0,0:0:0:0:
414,138,60485,2,0,P|399:181|389:243,1,88.000002685547,2|0,0:0|0:0,0:0:0:0:
301,233,60708,2,0,P|310:252|319:278,1,44.0000013427735,2|0,0:0|0:0,0:0:0:0:
400,344,60857,5,10,0:0:0:0:
461,292,61005,2,0,B|418:277|375:316|407:335|360:377|314:358,1,176.000005371094,0|0,1:0|0:0,0:0:0:0:
149,191,61451,6,0,L|205:175,1,48,6|0,1:2|0:0,0:0:0:0:
202,167,61748,2,0,P|248:206|234:266,1,128,2|0,0:0|1:0,0:0:0:0:
140,330,61970,5,0,1:0:0:0:
139,338,62045,2,0,L|92:327,1,48,10|0,0:0|0:0,0:0:0:0:
82,337,62342,2,0,P|41:294|62:232,1,128,2|0,0:0|0:0,0:0:0:0:
90,30,62639,6,0,P|67:89|1:95,1,132.00000402832,4|0,1:2|0:0,0:0:0:0:
5,96,62936,1,2,0:0:0:0:
202,167,63084,1,2,1:2:0:0:
202,167,63159,1,0,1:0:0:0:
202,167,63233,2,0,P|177:133|186:91,1,88.000002685547,8|2,0:0|1:2,0:0:0:0:
318,68,63530,2,0,P|343:102|334:144,1,88.000002685547,8|2,0:0|1:2,0:0:0:0:
163,328,63827,6,0,B|215:338|236:288|215:287|237:232|287:239,1,167.999994873047,6|8,1:2|0:0,0:0:0:0:
465,384,64421,2,0,P|430:366|382:354,1,83.9999974365235,0|0,1:2|1:0,0:0:0:0:
433,237,64718,2,0,P|471:256|512:267,1,83.9999974365235,8|0,0:0|0:0,0:0:0:0:
457,63,65015,6,0,P|399:80|381:138,1,125.999996154785,0|0,1:0|0:0,0:0:0:0:
381,138,65312,2,0,P|339:146|311:117,1,83.9999974365235,8|0,0:0|1:0,0:0:0:0:
234,287,65609,2,0,P|277:272|315:267,1,83.9999974365235,2|0,1:2|1:0,0:0:0:0:
174,124,65906,2,0,P|164:161|139:220,1,83.9999974365235,10|0,0:2|1:0,0:0:0:0:
78,372,66203,5,14,0:2:0:0:
0,304,66352,1,8,0:0:0:0:
57,223,66500,1,0,1:0:0:0:
57,223,66797,2,0,B|97:204|132:234|132:234|149:284|198:280,1,167.999994873047,14|0,0:0|1:0,0:0:0:0:
312,157,67243,1,8,0:0:0:0:
386,321,67391,6,0,P|392:279|406:240,1,83.9999974365235,6|8,1:2|0:0,0:0:0:0:
406,240,67614,1,8,0:0:0:0:
406,240,67688,1,8,0:0:0:0:
301,262,67837,1,8,0:0:0:0:
301,262,67911,1,8,0:0:0:0:
301,262,67985,1,10,0:0:0:0:
204,194,68134,1,10,0:0:0:0:
229,86,68282,1,10,0:0:0:0:
329,66,68431,1,10,0:0:0:0:
204,194,68579,6,0,B|155:187|155:187|113:129|113:129|66:122,1,167.999994873047,6|0,1:2|0:0,0:0:0:0:
11,178,68876,2,0,L|35:267,1,92.0000017547608,10|0,0:0|1:0,0:0:0:0:
34,266,69099,1,0,1:0:0:0:
34,266,69173,1,8,0:0:0:0:
222,284,69322,2,0,L|133:308,1,92.0000017547608,0|8,1:0|0:0,0:0:0:0:
343,60,69619,6,0,P|273:98|285:176,1,167.999994873047,6|0,1:2|0:0,0:0:0:0:
284,175,69916,2,0,L|329:187,2,46.0000008773804,2|0|8,1:2|0:0|0:0,0:0:0:0:
486,271,70213,1,2,1:2:0:0:
486,271,70287,1,0,1:0:0:0:
486,271,70362,2,0,L|397:246,1,92.0000017547608,10|0,0:0|1:0,0:0:0:0:
225,360,70659,6,0,B|209:340|209:340|214:318,1,48,8|0,0:0|0:0,0:0:0:0:
219,302,70956,2,0,B|272:276|309:315|309:315|312:346|329:359|359:361,1,167.999994873047,14|0,0:0|0:0,0:0:0:0:
430,347,71253,2,0,B|457:310|457:310|438:268,1,92.0000017547608,10|0,0:0|1:0,0:0:0:0:
365,245,71475,1,0,1:0:0:0:
358,252,71550,2,0,B|339:210|339:210|366:173,1,92.0000017547608,10|2,0:0|1:2,0:0:0:0:
436,9,71847,5,8,0:0:0:0:
444,17,71921,1,0,1:0:0:0:
458,32,71995,2,0,P|369:55|283:89,1,184.000003509522,6|8,1:2|0:3,0:0:0:0:
283,89,72367,1,8,0:3:0:0:
283,89,72441,2,0,B|302:131|302:131|274:167,1,92.0000017547608,8|8,0:3|0:3,0:0:0:0:
63,274,72738,5,8,0:3:0:0:
63,274,72886,1,8,0:3:0:0:
110,185,73035,1,8,0:3:0:0:
203,221,73183,1,8,0:3:0:0:
388,329,73332,6,0,P|320:341|259:373,1,138.000002632141,10|0,0:0|0:0,0:0:0:0:
259,372,73629,2,0,P|229:340|237:296,1,92.0000017547608,10|0,0:0|0:0,0:0:0:0:
237,296,73852,1,0,1:0:0:0:
237,296,73926,1,10,0:0:0:0:
203,221,74074,2,0,L|159:206,2,46.0000008773804,8|0|8,0:0|0:0|0:0,0:0:0:0:
262,140,74371,6,0,P|209:102|229:41,1,138.000002632141,6|0,1:2|0:0,0:0:0:0:
228,41,74669,2,0,L|315:70,1,92.0000017547608,6|0,1:2|0:0,0:0:0:0:
425,122,74966,1,10,0:0:0:0:
257,258,75114,2,0,B|300:210|351:224|339:268|389:272|419:232,1,184.000003509522,6|0,1:2|1:0,0:0:0:0:
418,232,75708,6,0,P|450:259|445:301,1,88.000002685547,10|10,0:0|0:0,0:0:0:0:
368,335,76005,2,0,P|336:307|341:265,1,88.000002685547,10|8,0:0|0:0,0:0:0:0:
399,148,76302,5,10,0:0:0:0:
469,84,76451,1,8,0:0:0:0:
428,0,76599,2,0,L|342:20,1,88.000002685547,10|0,0:0|1:0,0:0:0:0:
272,52,76822,5,0,1:0:0:0:
260,57,76896,2,0,B|250:87|250:87|273:111,1,64,10|0,0:0|0:0,0:0:0:0:
271,110,77490,2,0,B|282:81|282:81|259:57,1,64
78,363,78084,6,0,P|43:354|0:346,1,80,6|0,1:2|0:0,0:0:0:0:
154,305,78381,2,0,P|174:272|162:235,1,80,8|2,0:0|0:0,0:0:0:0:
161,234,78604,1,2,0:0:0:0:
161,234,78678,1,2,0:0:0:0:
261,344,78827,1,0,1:0:0:0:
313,282,78975,2,0,P|367:261|415:293,1,120,10|0,0:0|0:0,0:0:0:0:
415,293,79272,5,2,1:2:0:0:
512,200,79421,2,0,L|494:122,1,80,0|10,1:0|0:0,0:0:0:0:
494,122,79867,1,0,1:0:0:0:
407,173,80015,1,0,1:0:0:0:
339,107,80164,1,8,0:0:0:0:
407,45,80312,1,8,0:0:0:0:
308,214,80461,6,0,B|267:196|236:229|236:229|227:282|186:284,1,160,4|10,1:2|0:0,0:0:0:0:
133,205,80906,1,0,1:0:0:0:
133,205,80980,1,0,1:0:0:0:
133,205,81055,1,2,1:2:0:0:
105,346,81203,1,0,1:0:0:0:
30,319,81352,2,0,P|20:266|-3:194,1,120,8|0,0:0|0:0,0:0:0:0:
0,202,81649,5,2,1:2:0:0:
90,61,81797,2,0,P|52:74|14:84,1,80,0|8,1:0|0:0,0:0:0:0:
186,145,82094,1,0,1:0:0:0:
186,145,82169,1,0,1:0:0:0:
186,145,82243,2,0,L|231:129,3,40,8|0|0|0,0:0|1:0|1:0|1:0,0:0:0:0:
269,46,82540,2,0,P|261:21|254:-4,3,40,8|8|8|8,0:0|0:0|0:0|0:0,0:0:0:0:
350,102,82837,5,6,1:2:0:0:
512,32,82985,2,0,B|469:20|469:20|467:16|467:16|428:7,1,80,0|8,0:0|0:0,0:0:0:0:
406,187,83282,1,2,1:2:0:0:
406,187,83357,1,0,1:0:0:0:
406,187,83431,1,10,0:2:0:0:
504,139,83579,1,2,1:2:0:0:
506,249,83728,2,0,L|486:327,1,80,10|0,0:2|1:0,0:0:0:0:
486,326,83951,1,0,1:0:0:0:
486,326,84025,5,10,0:2:0:0:
313,302,84173,2,0,B|351:289|351:289|358:289|358:289|400:277,1,80,0|10,1:0|0:2,0:0:0:0:
276,202,84470,1,0,1:0:0:0:
211,328,84619,1,10,0:2:0:0:
142,261,84768,1,2,1:2:0:0:
0,311,84916,6,0,B|31:293|63:309|63:309|78:354|120:354,1,143.999995605469,10|0,0:0|1:0,0:0:0:0:
119,354,85213,5,14,0:0:0:0:
58,218,85362,2,0,L|81:128,1,80,0|8,1:0|0:0,0:0:0:0:
38,48,85659,1,0,1:0:0:0:
187,164,85807,1,10,0:0:0:0:
283,80,85956,1,2,1:2:0:0:
190,0,86104,1,10,0:0:0:0:
190,0,86401,6,0,L|179:41,1,40,12|8,0:0|0:3,0:0:0:0:
245,94,86550,2,0,L|282:80,3,40,8|8|8|8,0:3|0:3|0:3|0:3,0:0:0:0:
363,139,86847,1,8,0:0:0:0:
363,139,86921,1,8,0:3:0:0:
363,139,86995,2,0,L|351:190,1,40,8|8,0:3|0:3,0:0:0:0:
280,226,87144,2,0,L|294:272,1,40,8|8,0:3|0:3,0:0:0:0:
376,311,87292,6,0,B|415:293|415:293|476:315|476:315|456:294,1,128,12|8,0:0|0:3,0:0:0:0:
