osu file format v14

[General]
AudioFilename: audio.mp3
AudioLeadIn: 0
PreviewTime: 48916
Countdown: 0
SampleSet: Soft
StackLeniency: 0.7
Mode: 0
LetterboxInBreaks: 0
WidescreenStoryboard: 1

[Editor]
DistanceSpacing: 1
BeatDivisor: 4
GridSize: 32
TimelineZoom: 2

[Metadata]
Title:GO CRY GO (TV Size)
TitleUnicode:GO CRY GO (TV Size)
Artist:OxT
ArtistUnicode:OxT
Creator:NeKroMan4ik
Version:EASY
Source:オーバーロードⅡ
Tags:overlord ii 2nd op opening anime jrock rock japanese -mikanmymommy djulus irohas mugiwarasekai fuju airincat
BeatmapID:2951371
BeatmapSetID:1434136

[Difficulty]
HPDrainRate:2
CircleSize:3
OverallDifficulty:3
ApproachRate:4
SliderMultiplier:0.9
SliderTickRate:1

[Events]
//Background and Video events
0,0,"bg.jpg",0,0
Video,-350,"momongus.mp4"
//Break Periods
2,34338,39947
//Storyboard Layer 0 (Background)
//Storyboard Layer 1 (Fail)
//Storyboard Layer 2 (Pass)
//Storyboard Layer 3 (Foreground)
//Storyboard Layer 4 (Overlay)
//Storyboard Sound Samples

[TimingPoints]
265,297.029702970297,4,2,1,50,1,0
4571,-100,4,2,1,50,0,0
4943,-100,4,2,1,5,0,0
5030,297.029702970297,4,2,1,70,1,0
9485,-100,4,2,1,70,0,0
9708,-100,4,2,1,5,0,0
9782,-100,4,2,1,70,0,0
11861,-100,4,2,1,70,0,0
12084,-100,4,2,1,5,0,0
12158,-100,4,2,1,70,0,0
15129,297.029702970297,4,2,1,60,1,0
15129,-100,4,2,1,60,0,0
17728,-100,4,2,1,5,0,0
17802,-100,4,2,1,60,0,0
22257,-100,4,2,1,65,0,0
24039,-100,4,2,1,65,0,0
24633,-100,4,2,1,70,0,0
34138,-100,4,2,1,50,0,0
41267,-100,4,2,1,70,0,0
41713,-100,4,2,1,5,0,0
41787,-100,4,2,1,5,0,0
41861,-100,4,2,1,70,0,0
42307,-100,4,2,1,5,0,0
42381,-100,4,2,1,5,0,0
42455,-100,4,2,1,70,0,0
42678,-100,4,2,1,5,0,0
42752,-100,4,2,1,60,0,0
44831,-100,4,2,1,65,0,0
45054,-100,4,2,1,5,0,0
45129,-100,4,2,1,65,0,0
45277,-100,4,2,1,5,0,0
45426,-100,4,2,1,65,0,0
45649,-100,4,2,1,5,0,0
45724,-100,4,2,1,65,0,0
45872,-100,4,2,1,5,0,0
46020,-100,4,2,1,70,0,0
47059,-100,4,2,1,5,0,0
47208,-100,4,2,1,70,0,0
48990,-100,4,2,1,60,0,0
49570,297.029702970297,4,2,1,80,1,0
49570,-100,4,2,1,80,0,1
49792,-100,4,2,1,5,0,1
49867,-100,4,2,1,80,0,1
50164,-100,4,2,1,80,0,1
50386,-100,4,2,1,5,0,1
50461,-100,4,2,1,80,0,1
50758,-100,4,2,1,80,0,1
51129,-100,4,2,1,5,0,1
51203,-100,4,2,1,80,0,1
51277,-100,4,2,1,5,0,1
51352,-100,4,2,1,80,0,1
51946,-100,4,2,1,80,0,1
52168,-100,4,2,1,5,0,1
52243,-100,4,2,1,80,0,1
52540,-100,4,2,1,80,0,1
52762,-100,4,2,1,5,0,1
52837,-100,4,2,1,80,0,1
53134,-100,4,2,1,80,0,1
54322,-100,4,2,1,70,0,0
59074,-100,4,2,1,80,0,1
59296,-100,4,2,1,5,0,1
59371,-100,4,2,1,80,0,1
59668,-100,4,2,1,80,0,1
59890,-100,4,2,1,5,0,1
59965,-100,4,2,1,80,0,1
60262,-100,4,2,1,80,0,1
60411,-100,4,2,1,5,0,1
60485,-100,4,2,1,80,0,1
60633,-100,4,2,1,5,0,1
60707,-100,4,2,1,80,0,1
60781,-100,4,2,1,5,0,1
60856,-100,4,2,1,80,0,1
61450,-100,4,2,1,80,0,1
61672,-100,4,2,1,5,0,1
61747,-100,4,2,1,80,0,1
62044,-100,4,2,1,80,0,1
62266,-100,4,2,1,5,0,1
62341,-100,4,2,1,80,0,1
62638,-100,4,2,1,80,0,1
63827,-100,4,2,1,70,0,0
68579,-100,4,2,1,80,0,1
68802,-100,4,2,1,5,0,1
68876,-100,4,2,1,80,0,1
69842,-100,4,2,1,5,0,1
69916,-100,4,2,1,80,0,1
71995,-100,4,2,1,80,0,0
74409,-100,4,2,1,5,0,0
74669,-100,4,2,1,80,0,0
74706,-100,4,2,1,5,0,0
74966,-100,4,2,1,80,0,0
75040,-100,4,2,1,5,0,0
75114,-100,4,2,1,80,0,0
75708,-100,4,2,1,80,0,1
76896,-100,4,2,1,80,0,0
77193,-100,4,2,1,5,0,0
78084,-100,4,2,1,70,0,0
82837,-100,4,2,1,70,0,1
84916,-100,4,2,1,70,0,1
85139,-100,4,2,1,5,0,1
85213,-100,4,2,1,90,0,1
87292,-100,4,2,1,80,0,0
87589,-100,4,2,1,5,0,0

[Colours]
Combo1 : 201,126,126
Combo2 : 187,170,168
Combo3 : 196,172,194
Combo4 : 182,183,192

[HitObjects]
15,96,5030,6,0,P|27:34|144:28,1,180,4|2,1:2|0:0,0:0:0:0:
268,130,6218,2,0,L|466:104,1,180,2|2,1:2|1:2,0:0:0:0:
512,168,7109,1,10,0:0:0:0:
458,239,7406,6,0,P|401:284|412:401,1,180,4|2,1:2|0:0,0:0:0:0:
222,355,8594,2,0,L|122:372,1,90,0|10,1:2|0:0,0:0:0:0:
51,333,9188,2,0,P|38:294|56:234,1,90,0|14,1:0|0:0,0:0:0:0:
105,178,9782,5,4,1:2:0:0:
271,109,10376,2,0,L|261:60,2,45,2|2|10,1:2|1:2|0:2,0:0:0:0:
334,173,10970,2,0,L|320:269,1,90,0|10,1:0|0:0,0:0:0:0:
380,329,11564,2,0,L|387:386,2,45,2|2|10,1:2|0:0|0:0,0:0:0:0:
448,270,12158,6,0,B|476:148|476:148|445:96,1,180,8|8,0:0|0:3,0:0:0:0:
407,20,13049,1,8,0:3:0:0:
327,62,13346,2,0,P|277:67|233:74,1,90,12|2,0:0|1:2,0:0:0:0:
162,121,13940,1,8,0:0:0:0:
96,59,14237,1,10,0:0:0:0:
3,313,15129,6,0,P|79:308|108:210,1,180,4|0,1:2|1:0,0:0:0:0:
21,64,16317,2,0,P|69:14|141:21,1,135,2|2,1:2|0:0,0:0:0:0:
202,70,17059,1,2,1:2:0:0:
322,132,17505,6,0,P|364:112|411:120,1,90,2|10,1:2|0:0,0:0:0:0:
475,174,18099,2,0,P|495:216|487:263,1,90,2|10,1:2|0:0,0:0:0:0:
422,318,18693,2,0,B|344:337|371:284|280:311,2,135,2|2|10,1:2|0:0|0:0,0:0:0:0:
489,257,19881,6,0,P|499:168|513:68,1,180,6|2,1:2|1:2,0:0:0:0:
336,36,21069,2,0,P|278:55|200:66,1,135,2|2,1:2|0:0,0:0:0:0:
125,23,21812,1,2,1:2:0:0:
26,115,22257,6,0,P|82:184|66:290,1,180,2|2,1:2|1:2,0:0:0:0:
229,367,23445,2,0,B|310:349|310:349|351:384,2,135,8|8|8,0:3|0:3|0:0,0:0:0:0:
155,314,24633,6,0,P|164:267|182:133,1,180,12|8,0:0|0:0,0:0:0:0:
140,55,25525,1,10,0:0:0:0:
227,32,25822,2,0,P|298:38|349:-14,1,135,10|2,0:0|1:2,0:0:0:0:
432,7,26564,1,2,1:2:0:0:
511,115,27010,6,0,L|495:216,1,90,14|10,0:0|0:0,0:0:0:0:
512,293,27604,2,0,L|429:353,1,90,10|10,0:0|0:0,0:0:0:0:
358,384,28198,2,0,P|312:332|233:329,1,135,8|2,0:0|1:2,0:0:0:0:
169,363,28940,1,2,1:2:0:0:
66,275,29386,6,0,P|78:204|86:122,1,135,14|2,0:0|1:2,0:0:0:0:
176,42,30277,1,10,0:0:0:0:
249,93,30574,2,0,P|309:109|338:185,1,135,10|2,0:0|1:2,0:0:0:0:
375,257,31317,1,2,1:2:0:0:
492,323,31762,6,0,P|502:230|492:143,1,180,6|10,1:2|0:0,0:0:0:0:
429,82,32653,1,10,0:0:0:0:
351,127,32950,2,0,L|262:112,1,90,10|10,0:0|0:0,0:0:0:0:
197,174,33544,2,0,L|108:189,1,90,8|8,0:0|0:3,0:0:0:0:
31,141,34138,5,6,1:2:0:0:
253,166,41267,5,4,1:2:0:0:
162,321,41861,1,4,1:2:0:0:
6,231,42455,1,4,1:2:0:0:
51,153,42752,6,0,P|63:108|41:59,2,90,2|2|2,1:2|1:2|1:2,0:0:0:0:
110,220,43643,2,0,P|155:227|197:247,1,90,6|8,1:2|0:3,0:0:0:0:
263,305,44237,2,0,P|304:286|348:279,1,90,8|8,0:3|0:3,0:0:0:0:
431,313,44831,5,4,1:2:0:0:
378,141,45426,1,4,1:2:0:0:
500,8,46020,1,14,0:0:0:0:
224,239,47208,6,0,P|246:319|255:388,2,135,12|12|12,0:0|0:0|0:0,0:0:0:0:
155,181,48396,2,0,P|130:174|111:166,2,45,8|8|8,0:0|0:0|0:0,0:0:0:0:
385,48,49570,6,0,L|404:151,1,90,4|10,1:0|0:0,0:0:0:0:
467,197,50164,2,0,L|448:300,1,90,2|10,1:2|0:0,0:0:0:0:
373,332,50758,2,0,P|308:274|210:291,1,180,2|2,0:0|0:0,0:0:0:0:
54,352,51946,6,0,P|60:301|70:252,1,90,6|10,1:2|0:0,0:0:0:0:
19,187,52540,2,0,P|27:142|32:98,1,90,2|10,1:2|0:2,0:0:0:0:
94,32,53134,2,0,P|164:42|186:103,1,135,2|8,1:2|0:0,0:0:0:0:
241,167,53876,1,10,0:0:0:0:
334,265,54322,6,0,P|395:269|428:283,1,90,6|8,1:2|0:0,0:0:0:0:
498,233,54916,2,0,P|502:171|516:138,1,90,0|8,1:0|0:0,0:0:0:0:
466,69,55510,2,0,P|404:64|371:50,1,90,0|8,1:0|0:0,0:0:0:0:
302,101,56104,1,2,1:2:0:0:
223,57,56401,1,10,0:2:0:0:
146,103,56698,6,0,P|72:146|72:245,1,180,10|0,0:2|1:0,0:0:0:0:
177,378,57886,2,0,P|267:343|359:328,1,180,6|8,1:2|0:0,0:0:0:0:
505,239,59074,6,0,P|517:197|501:155,1,90,4|2,1:2|0:0,0:0:0:0:
428,102,59669,2,0,P|386:114|340:118,1,90,10|2,0:2|0:0,0:0:0:0:
256,85,60263,2,0,P|223:168|242:266,1,180,6|10,1:2|0:0,0:0:0:0:
112,384,61451,6,0,P|60:374|10:369,1,90,6|2,1:2|0:0,0:0:0:0:
0,283,62045,2,0,P|2:230|18:183,1,90,10|2,0:0|0:0,0:0:0:0:
67,123,62639,2,0,P|64:46|15:17,2,135,4|2|8,1:2|1:2|0:0,0:0:0:0:
131,186,63827,6,0,L|223:175,1,90,6|8,1:2|0:0,0:0:0:0:
294,123,64421,2,0,P|338:131|386:135,1,90,0|8,1:2|0:0,0:0:0:0:
456,187,65015,2,0,P|471:232|454:279,1,90,0|8,1:0|0:0,0:0:0:0:
388,326,65609,1,2,1:2:0:0:
304,294,65906,1,10,0:2:0:0:
230,345,66203,6,0,P|160:303|183:216,1,180,14|14,0:2|0:0,0:0:0:0:
238,48,67391,2,0,P|149:61|48:72,1,180,6|10,1:2|0:0,0:0:0:0:
0,138,68282,1,10,0:0:0:0:
54,210,68579,6,0,P|76:249|90:301,1,90,6|10,1:2|0:0,0:0:0:0:
159,347,69173,1,8,0:0:0:0:
276,286,69619,2,0,L|365:299,1,90,6|2,1:2|1:2,0:0:0:0:
444,256,70213,2,0,B|428:167|428:167|452:128,1,135,2|8,1:2|0:0,0:0:0:0:
433,41,70956,5,14,0:0:0:0:
352,2,71253,1,10,0:0:0:0:
284,61,71550,2,0,P|215:68|133:85,1,135,10|6,0:0|1:2,0:0:0:0:
102,206,72441,2,0,P|61:192|11:198,2,90,8|8|8,0:3|0:3|0:3,0:0:0:0:
154,278,73332,5,10,0:0:0:0:
228,227,73629,1,10,0:0:0:0:
310,263,73926,2,0,P|375:250|445:243,1,135,10|6,0:0|1:2,0:0:0:0:
510,182,74669,1,6,1:2:0:0:
457,108,74966,2,0,L|466:46,1,45,10|6,0:0|1:2,0:0:0:0:
288,20,75708,6,0,P|243:33|185:41,1,90,10|10,0:0|0:0,0:0:0:0:
126,90,76302,2,0,P|103:135|113:183,1,90,10|10,0:0|0:0,0:0:0:0:
168,240,76896,1,10,0:0:0:0:
168,240,78084,6,0,P|257:225|360:236,1,180,6|2,1:2|0:0,0:0:0:0:
484,117,79272,2,0,P|469:52|354:48,1,180,2|0,1:2|1:0,0:0:0:0:
307,102,80164,1,8,0:0:0:0:
349,181,80461,6,0,L|317:375,1,180,4|2,1:2|1:2,0:0:0:0:
140,379,81649,2,0,P|130:329|157:280,1,90,2|8,1:2|0:0,0:0:0:0:
185,214,82243,2,0,L|174:114,1,90,8|8,0:0|0:0,0:0:0:0:
121,52,82837,5,6,1:2:0:0:
300,44,83430,2,0,L|309:-10,2,45,10|2|10,0:2|1:2|0:2,0:0:0:0:
361,110,84025,2,0,P|405:98|449:113,1,90,10|10,0:2|0:2,0:0:0:0:
468,198,84619,2,0,L|522:189,2,45,10|2|10,0:2|1:2|0:0,0:0:0:0:
408,265,85213,6,0,P|360:253|311:249,1,90,14|8,0:0|0:0,0:0:0:0:
242,295,85807,2,0,P|197:299|153:310,1,90,10|10,0:0|0:0,0:0:0:0:
103,236,86401,2,0,P|39:234|-5:175,2,135,12|8|12,0:0|0:0|0:0,0:0:0:0:
