osu file format v14

[General]
AudioFilename: audio.mp3
AudioLeadIn: 0
PreviewTime: 48841
Countdown: 0
SampleSet: Soft
StackLeniency: 0.7
Mode: 0
LetterboxInBreaks: 0
WidescreenStoryboard: 1

[Editor]
DistanceSpacing: 1
BeatDivisor: 4
GridSize: 16
TimelineZoom: 2.2

[Metadata]
Title:GO CRY GO (TV Size)
TitleUnicode:GO CRY GO (TV Size)
Artist:OxT
ArtistUnicode:OxT
Creator:MajK00
Version:NORMAL
Source:オーバーロードⅡ
Tags:overlord ii 2nd op opening anime jrock rock japanese vanya2 -_Aqua AqUa_M1X AdeAAa Mizujin FreezingAnimenz peter petereu Masayoshi Ōishi Tom Hack Tom-H@ck oishi ooishi hotaru j-rock season male vocals vocalist EnuHQ hello new world
BeatmapID:4170416
BeatmapSetID:1957384

[Difficulty]
HPDrainRate:3.5
CircleSize:3.2
OverallDifficulty:4
ApproachRate:5.5
SliderMultiplier:0.9
SliderTickRate:1

[Events]
//Background and Video events
0,0,"bg.jpg",0,0
Video,-350,"video.mp4"
//Break Periods
//Storyboard Layer 0 (Background)
//Storyboard Layer 1 (Fail)
//Storyboard Layer 2 (Pass)
//Storyboard Layer 3 (Foreground)
//Storyboard Layer 4 (Overlay)
//Storyboard Sound Samples

[TimingPoints]
265,297.029702970297,4,2,1,50,1,0
4943,-100,4,2,1,5,0,0
5030,297.029702970297,4,2,1,70,1,0
9708,-100,4,2,1,5,0,0
9782,-100,4,2,1,70,0,0
13346,295.566502463054,4,2,1,70,1,0
15129,297.029702970297,4,2,1,55,1,0
17728,-100,4,2,1,5,0,0
17802,-100,4,2,1,55,0,0
22480,-100,4,2,1,5,0,0
22554,-100,4,2,1,55,0,0
23074,-100,4,2,1,5,0,0
23148,-100,4,2,1,55,0,0
24559,-100,4,2,1,5,0,0
24633,-90.9090909090909,4,2,1,65,0,0
34138,-111.111111111111,4,2,1,65,0,0
44831,-99.9999999999999,4,2,1,65,0,0
49064,-99.9999999999999,4,2,1,5,0,0
49213,-99.9999999999999,4,2,1,65,0,0
49287,-99.9999999999999,4,2,1,5,0,0
49435,-99.9999999999999,4,2,1,65,0,0
49510,-99.9999999999999,4,2,1,5,0,0
49570,297.029702970297,4,2,1,80,1,0
49570,-90.9090909090909,4,2,1,80,0,0
49792,-90.9090909090909,4,2,1,5,0,0
49867,-90.9090909090909,4,2,1,80,0,0
50386,-90.9090909090909,4,2,1,5,0,0
50461,-90.9090909090909,4,2,1,80,0,0
51129,-90.9090909090909,4,2,1,5,0,0
51203,-90.9090909090909,4,2,1,80,0,0
51277,-90.9090909090909,4,2,1,5,0,0
51352,-90.9090909090909,4,2,1,80,0,0
51574,-90.9090909090909,4,2,1,5,0,0
51649,-90.9090909090909,4,2,1,80,0,0
52169,-90.9090909090909,4,2,1,5,0,0
52243,-90.9090909090909,4,2,1,80,0,0
52763,-90.9090909090909,4,2,1,5,0,0
52837,-90.9090909090909,4,2,1,80,0,0
54322,-90.9090909090909,4,2,1,70,0,0
59297,-90.9090909090909,4,2,1,5,0,0
59371,-90.9090909090909,4,2,1,70,0,0
59891,-90.9090909090909,4,2,1,5,0,0
59966,-90.9090909090909,4,2,1,70,0,0
60411,-90.9090909090909,4,2,1,5,0,0
60485,-90.9090909090909,4,2,1,70,0,0
60634,-90.9090909090909,4,2,1,5,0,0
60708,-90.9090909090909,4,2,1,70,0,0
60782,-90.9090909090909,4,2,1,5,0,0
60857,-90.9090909090909,4,2,1,70,0,0
61079,-90.9090909090909,4,2,1,5,0,0
61154,-90.9090909090909,4,2,1,70,0,0
61673,-90.9090909090909,4,2,1,5,0,0
61748,-90.9090909090909,4,2,1,70,0,0
62268,-90.9090909090909,4,2,1,5,0,0
62342,-90.9090909090909,4,2,1,70,0,0
66723,-90.9090909090909,4,2,1,5,0,0
66797,-90.9090909090909,4,2,1,70,0,0
68579,-90.9090909090909,4,2,1,80,0,0
68802,-90.9090909090909,4,2,1,5,0,0
68876,-90.9090909090909,4,2,1,80,0,0
69842,-90.9090909090909,4,2,1,5,0,0
69916,-90.9090909090909,4,2,1,80,0,0
74446,-90.9090909090909,4,2,1,5,0,0
74669,-90.9090909090909,4,2,1,80,0,0
74743,-90.9090909090909,4,2,1,5,0,0
74966,-90.9090909090909,4,2,1,80,0,0
75040,-90.9090909090909,4,2,1,5,0,0
75114,-90.9090909090909,4,2,1,80,0,0
75337,-90.9090909090909,4,2,1,5,0,0
75411,-90.9090909090909,4,2,1,80,0,0
78084,-100,4,2,1,70,0,0
82837,-90.9090909090909,4,2,1,80,0,0
85213,298.507462686567,4,2,1,85,1,0
85213,-90.9090909090909,4,2,1,85,0,0
86407,-90.9090909090909,4,2,1,80,0,0
87601,-90.9090909090909,4,2,1,5,0,0

[Colours]
Combo1 : 181,106,106
Combo2 : 159,159,159
Combo3 : 255,117,117
Combo4 : 201,201,201

[HitObjects]
256,192,265,12,8,3829,0:0:0:0:
405,34,4720,5,4,1:3:0:0:
466,104,5030,2,0,L|448:192,1,90,4|8,1:2|0:0,0:0:0:0:
409,214,5475,1,0,1:0:0:0:
409,214,5624,2,0,L|391:302,1,89.9999999999999,0|8,1:2|0:0,0:0:0:0:
312,344,6218,2,0,L|294:255,1,89.9999999999999,0|8,1:2|0:0,0:0:0:0:
278,167,6812,2,0,L|215:154,1,45,0|4,1:2|0:3,0:0:0:0:
189,148,7109,1,8,0:0:0:0:
98,135,7406,6,0,P|55:141|31:178,1,90,4|8,1:2|0:0,0:0:0:0:
42,222,7851,1,0,1:0:0:0:
42,222,8000,2,0,L|59:310,1,90,0|8,1:0|0:0,0:0:0:0:
138,352,8594,2,0,L|159:242,1,90,0|8,1:0|0:0,0:0:0:0:
234,222,9188,2,0,L|242:177,1,45,0|8,1:0|0:3,0:0:0:0:
252,133,9485,1,12,0:0:0:0:
219,54,9782,5,6,1:2:0:0:
219,54,9930,2,0,L|307:36,1,90,2|8,0:0|0:3,0:0:0:0:
347,56,10376,2,0,L|409:68,1,45,2|2,1:2|1:2,0:0:0:0:
435,71,10673,1,10,0:0:0:0:
491,148,10970,5,2,1:2:0:0:
491,148,11119,2,0,P|467:185|424:194,1,90,2|8,1:2|0:3,0:0:0:0:
384,174,11564,2,0,L|321:186,1,45,2|2,1:2|1:2,0:0:0:0:
296,193,11861,1,10,0:0:0:0:
227,143,12158,5,2,1:2:0:0:
227,143,12306,2,0,L|101:118,1,90,10|0,0:3|1:0,0:0:0:0:
111,161,12752,2,0,L|32:176,1,45,10|4,0:3|0:3,0:0:0:0:
23,183,13049,2,0,L|10:245,1,45,10|4,0:3|0:3,0:0:0:0:
8,272,13346,5,6,1:2:0:0:
77,328,13641,1,8,0:0:0:0:
144,268,13937,2,0,L|222:283,1,45,10|10,0:0|0:0,0:0:0:0:
236,290,14232,1,10,0:0:0:0:
236,290,14380,1,8,0:0:0:0:
459,326,15129,6,0,P|495:302|498:259,2,90,6|8|0,1:2|0:0|1:0,0:0:0:0:
373,353,16020,2,0,L|364:308,1,45,10|2,0:0|1:2,0:0:0:0:
328,281,16317,2,0,L|346:186,1,90,2|8,1:2|0:0,0:0:0:0:
356,149,16762,1,2,0:0:0:0:
371,60,17059,2,0,L|415:51,2,45,2|10|2,0:0|0:0|1:2,0:0:0:0:
333,35,17505,5,2,1:2:0:0:
245,12,17802,1,10,0:0:0:0:
191,84,18099,1,2,1:2:0:0:
103,61,18396,1,10,0:0:0:0:
24,104,18693,2,0,L|15:59,2,45,2|2|8,1:2|1:2|0:0,0:0:0:0:
35,152,19138,1,2,0:0:0:0:
35,152,19287,2,0,L|16:246,1,90,0|8,1:0|0:0,0:0:0:0:
72,311,19881,6,0,P|118:264|182:277,1,135,6|8,1:2|0:3,0:0:0:0:
208,314,20475,2,0,L|270:301,1,45,2|0,1:2|0:0,0:0:0:0:
296,296,20772,1,10,0:0:0:0:
318,208,21069,2,0,L|336:113,1,90,2|8,1:2|0:0,0:0:0:0:
348,76,21515,1,2,0:0:0:0:
271,28,21812,2,0,P|215:20|183:54,1,90,2|0,0:0|1:0,0:0:0:0:
172,79,22257,5,2,1:2:0:0:
192,166,22554,1,10,0:0:0:0:
136,237,22851,1,2,1:2:0:0:
156,325,23148,1,10,0:0:0:0:
243,346,23445,2,0,L|305:358,1,45,10|8,0:3|0:3,0:0:0:0:
330,366,23742,1,10,0:3:0:0:
330,366,23891,2,0,L|312:277,1,90,10|0,0:3|1:0,0:0:0:0:
302,234,24336,1,12,1:2:0:0:
376,169,24633,6,0,P|416:195|464:186,2,99.0000030212403,14|8|8,1:2|0:0|0:0,0:0:0:0:
363,126,25376,1,0,1:0:0:0:
363,126,25525,2,0,L|353:77,1,49.5000015106202,10|2,0:0|1:2,0:0:0:0:
341,29,25822,2,0,P|300:2|252:11,1,99.0000030212403,10|8,0:0|0:0,0:0:0:0:
227,54,26267,1,2,1:2:0:0:
140,98,26564,1,2,1:2:0:0:
140,98,26713,2,0,L|152:160,1,49.5000015106202,10|2,0:0|1:2,0:0:0:0:
165,193,27010,5,14,0:0:0:0:
261,216,27307,1,10,0:0:0:0:
358,233,27604,2,0,L|406:223,1,49.5000015106202,10|0,0:0|1:2,0:0:0:0:
455,233,27901,1,10,0:0:0:0:
508,316,28198,2,0,L|459:325,1,49.5000015106202,10|2,0:0|1:2,0:0:0:0:
430,365,28494,1,10,0:0:0:0:
430,365,28643,2,0,L|332:383,1,99.0000030212403,2|0,1:2|1:2,0:0:0:0:
248,341,29237,5,2,1:2:0:0:
248,341,29386,2,0,L|268:228,1,99.0000030212403,12|10,0:0|0:0,0:0:0:0:
229,210,29831,2,0,L|210:112,1,99.0000030212403,2|0,1:2|1:0,0:0:0:0:
291,52,30426,1,2,1:2:0:0:
291,52,30574,2,0,L|339:62,2,49.5000015106202,10|2|10,0:0|1:2|0:0,0:0:0:0:
255,17,31020,1,2,1:2:0:0:
161,40,31317,1,2,1:2:0:0:
161,40,31465,2,0,L|113:49,1,49.5000015106202,10|2,0:0|1:2,0:0:0:0:
64,62,31762,5,14,0:0:0:0:
64,62,31911,1,10,0:0:0:0:
48,159,32208,2,0,L|0:149,2,49.5000015106202,10|10|10,0:0|0:0|0:0,0:0:0:0:
82,194,32653,2,0,L|94:256,1,49.5000015106202,10|10,0:0|0:0,0:0:0:0:
64,284,32950,5,10,0:0:0:0:
117,366,33247,2,0,L|165:356,1,49.5000015106202,10|10,0:0|0:0,0:0:0:0:
213,343,33544,2,0,L|225:280,1,49.5000015106202,10|8,0:0|0:0,0:0:0:0:
232,245,33841,1,10,0:0:0:0:
311,231,34138,6,0,L|341:71,1,161.999995056153,4|0,1:2|0:0,0:0:0:0:
189,19,35327,2,0,P|131:6|56:77,1,161.999995056153,8|0,0:3|0:0,0:0:0:0:
14,224,36515,2,0,L|173:193,1,161.999995056153,4|0,1:2|0:0,0:0:0:0:
286,77,37703,2,0,B|368:61|358:119|441:104,2,161.999995056153,2|0|10,0:3|0:0|0:3,0:0:0:0:
173,193,39485,1,0,0:0:0:0:
237,341,40079,2,0,L|316:325,1,80.9999975280763,2|8,1:2|0:3,0:0:0:0:
387,365,40673,2,0,L|466:380,1,80.9999975280763,4|8,0:3|0:3,0:0:0:0:
509,311,41267,5,4,1:2:0:0:
382,209,41861,1,4,1:2:0:0:
495,93,42455,1,10,0:0:0:0:
415,78,42752,2,0,L|399:-1,2,80.9999975280763,2|2|2,1:2|1:2|1:2,0:0:0:0:
342,114,43643,2,0,L|247:95,1,80.9999975280763,6|6,1:2|0:3,0:0:0:0:
241,134,44089,1,8,0:3:0:0:
241,134,44237,2,0,L|161:149,1,80.9999975280763,10|10,0:3|0:3,0:0:0:0:
71,158,44831,6,0,L|61:205,1,45,4|0,1:2|0:0,0:0:0:0:
54,246,45129,1,2,1:2:0:0:
143,259,45426,2,0,L|152:306,1,45,4|0,1:2|0:0,0:0:0:0:
162,347,45724,1,2,1:2:0:0:
247,320,46020,2,0,P|361:341|516:378,1,270,14|0,0:0|0:0,0:0:0:0:
496,287,47208,6,0,L|487:242,1,45,12|0,0:0|1:0,0:0:0:0:
443,233,47505,1,0,1:0:0:0:
443,233,47653,2,0,L|425:144,1,90,12|0,0:0|1:0,0:0:0:0:
419,99,48099,1,12,0:0:0:0:
330,82,48396,2,0,L|267:69,1,45,12|8,0:0|0:0,0:0:0:0:
246,65,48693,1,8,0:0:0:0:
246,65,48841,1,4,1:2:0:0:
16,143,49570,6,0,P|40:147|64:152,1,49.5000015106202,6|0,1:2|0:0,0:0:0:0:
113,161,49867,1,10,0:0:0:0:
130,258,50164,2,0,P|154:254|178:249,1,49.5000015106202,6|0,1:2|0:0,0:0:0:0:
227,240,50461,1,10,0:0:0:0:
312,289,50758,2,0,P|315:325|300:359,2,74.2500022659302,6|2|10,1:2|0:0|0:0,0:0:0:0:
335,245,51352,2,0,P|383:212|428:216,1,99.0000030212403,2|8,1:2|0:0,0:0:0:0:
501,154,51946,6,0,L|491:105,1,49.5000015106202,6|0,1:2|0:0,0:0:0:0:
480,56,52243,1,8,0:0:0:0:
392,102,52540,2,0,L|382:53,1,49.5000015106202,6|0,1:2|0:0,0:0:0:0:
371,4,52837,1,8,0:0:0:0:
275,31,53134,2,0,L|293:128,1,99.0000030212403,6|10,1:2|0:0,0:0:0:0:
268,170,53579,2,0,L|280:232,1,49.5000015106202,2|8,1:2|0:0,0:0:0:0:
290,266,53876,1,10,0:0:0:0:
348,352,54173,1,10,0:0:0:0:
348,352,54322,6,0,P|380:315|428:309,2,99.0000030212403,4|8|0,1:2|0:0|1:0,0:0:0:0:
298,357,55065,1,0,1:0:0:0:
298,357,55213,1,8,0:0:0:0:
207,317,55510,2,0,L|144:329,1,49.5000015106202,0|0,1:0|1:0,0:0:0:0:
109,335,55807,1,8,0:0:0:0:
51,254,56104,2,0,L|60:205,1,49.5000015106202,2|0,1:2|1:0,0:0:0:0:
105,184,56401,2,0,L|114:135,1,49.5000015106202,10|0,0:0|1:0,0:0:0:0:
123,86,56698,6,0,P|174:61|226:87,1,99.0000030212403,14|8,0:0|0:0,0:0:0:0:
242,112,57144,1,8,0:3:0:0:
242,112,57292,1,0,1:3:0:0:
316,46,57589,2,0,L|378:58,1,49.5000015106202,8|0,0:3|1:0,0:0:0:0:
398,91,57886,2,0,L|495:73,2,99.0000030212403,6|8|10,1:2|0:0|0:0,0:0:0:0:
385,141,58629,1,10,0:0:0:0:
385,141,58777,2,0,L|376:190,1,49.5000015106202,10|10,0:0|0:0,0:0:0:0:
396,235,59074,5,6,1:2:0:0:
493,249,59371,1,2,1:2:0:0:
479,347,59669,1,10,0:0:0:0:
381,332,59966,1,2,1:2:0:0:
284,311,60263,2,0,L|269:390,2,74.2500022659302,6|10|2,1:2|0:3|1:2,0:0:0:0:
250,274,60857,2,0,L|152:292,1,99.0000030212403,10|0,0:0|3:0,0:0:0:0:
54,305,61451,5,6,1:2:0:0:
73,208,61748,1,2,1:2:0:0:
40,114,62045,1,10,0:0:0:0:
119,54,62342,1,2,1:2:0:0:
188,125,62639,2,0,L|285:143,1,99.0000030212403,6|2,1:2|1:2,0:0:0:0:
332,156,63084,2,0,L|344:218,1,49.5000015106202,2|12,1:2|2:0,0:0:0:0:
350,253,63381,1,2,1:2:0:0:
449,283,63678,1,2,1:2:0:0:
449,283,63827,6,0,L|470:173,1,99.0000030212403,4|8,1:2|0:0,0:0:0:0:
490,89,64421,2,0,L|380:67,1,99.0000030212403,1|8,1:0|0:0,0:0:0:0:
313,9,65015,2,0,L|203:30,1,99.0000030212403,0|8,1:0|0:0,0:0:0:0:
119,50,65609,1,2,1:2:0:0:
29,6,65906,1,10,0:0:0:0:
3,101,66203,6,0,L|12:149,1,49.5000015106202,6|8,1:2|0:0,0:0:0:0:
19,198,66500,1,0,1:0:0:0:
112,166,66797,2,0,P|160:172|189:211,1,99.0000030212403,10|8,0:0|0:0,0:0:0:0:
195,264,67243,1,8,0:0:0:0:
195,264,67391,2,0,L|304:285,1,99.0000030212403,6|8,1:2|0:0,0:0:0:0:
387,308,67985,2,0,L|374:370,2,49.5000015106202,10|10|10,0:0|0:0|0:0,0:0:0:0:
415,268,68431,1,10,0:0:0:0:
415,268,68579,6,0,L|512:286,2,99.0000030212403,6|10|8,1:2|0:0|0:0,0:0:0:0:
395,222,69322,2,0,L|407:159,1,49.5000015106202,0|8,1:0|0:0,0:0:0:0:
416,125,69619,1,6,1:2:0:0:
319,147,69916,2,0,L|270:156,1,49.5000015106202,2|8,1:2|0:0,0:0:0:0:
226,173,70213,1,2,1:2:0:0:
226,173,70362,2,0,L|116:151,1,99.0000030212403,10|8,0:0|0:0,0:0:0:0:
33,126,70956,6,0,L|54:16,2,99.0000030212403,14|10|10,0:0|0:0|0:0,0:0:0:0:
7,167,71698,2,0,L|19:229,1,49.5000015106202,2|8,1:2|0:0,0:0:0:0:
34,261,71995,1,6,1:2:0:0:
72,351,72292,2,0,L|134:363,1,49.5000015106202,8|4,0:3|0:3,0:0:0:0:
172,376,72589,1,4,0:3:0:0:
172,376,72738,1,4,0:3:0:0:
230,295,73035,1,8,0:3:0:0:
327,279,73332,6,0,L|339:341,1,49.5000015106202,10|0,0:0|0:0,0:0:0:0:
348,375,73629,1,10,0:0:0:0:
442,338,73926,1,10,0:0:0:0:
442,338,74074,2,0,L|432:289,1,49.5000015106202,10|8,0:0|0:0,0:0:0:0:
421,240,74371,1,6,1:2:0:0:
480,160,74669,1,6,1:2:0:0:
423,85,74966,1,10,0:0:0:0:
423,85,75114,2,0,L|360:72,1,49.5000015106202,6|0,1:2|0:0,0:0:0:0:
326,64,75411,1,8,0:3:0:0:
228,81,75708,6,0,P|200:121|204:169,1,99.0000030212403,14|6,0:0|0:3,0:0:0:0:
243,207,76154,1,10,0:3:0:0:
243,207,76302,2,0,L|252:255,1,49.5000015106202,10|8,0:0|0:0,0:0:0:0:
296,278,76599,2,0,L|286:326,1,49.5000015106202,10|0,0:0|1:0,0:0:0:0:
275,374,76896,1,14,0:0:0:0:
503,143,78084,6,0,L|415:125,1,90,4|8,1:2|0:0,0:0:0:0:
397,89,78529,1,0,1:0:0:0:
397,89,78678,2,0,L|309:71,1,89.9999999999999,0|8,1:0|0:0,0:0:0:0:
221,50,79272,2,0,L|203:139,1,89.9999999999999,0|8,1:0|0:0,0:0:0:0:
277,189,79867,2,0,L|298:287,1,90,0|8,1:0|0:0,0:0:0:0:
310,324,80312,1,8,0:0:0:0:
310,324,80460,6,0,P|281:362|236:363,1,90,4|8,1:2|0:0,0:0:0:0:
202,355,80906,1,0,1:0:0:0:
202,355,81055,2,0,L|185:267,1,90,0|8,1:0|0:0,0:0:0:0:
96,254,81648,2,0,L|75:144,1,90,0|8,1:0|0:0,0:0:0:0:
2,119,82242,2,0,L|10:74,1,45,8|8,0:0|0:3,0:0:0:0:
23,31,82540,2,0,L|67:22,1,45,8|8,0:0|0:0,0:0:0:0:
118,10,82837,5,6,1:2:0:0:
118,10,82985,1,2,1:2:0:0:
188,87,83282,1,0,1:0:0:0:
188,87,83431,2,0,L|250:99,1,49.5000015106202,10|2,0:0|1:2,0:0:0:0:
284,109,83728,2,0,L|302:206,1,99.0000030212403,8|10,0:0|0:0,0:0:0:0:
312,254,84173,1,2,1:2:0:0:
335,355,84470,1,0,1:0:0:0:
335,355,84619,2,0,L|397:367,1,49.5000015106202,10|2,0:0|1:2,0:0:0:0:
433,366,84916,6,0,P|474:341|484:294,1,99.0000030212403,10|12,0:0|0:0,0:0:0:0:
465,247,85362,1,0,1:0:0:0:
428,160,85660,1,0,1:0:0:0:
428,160,85810,2,0,L|365:147,1,49.5000015106202,14|2,0:0|1:2,0:0:0:0:
359,104,86108,2,0,L|296:91,1,49.5000015106202,14|2,0:0|1:2,0:0:0:0:
266,86,86407,5,2,1:2:0:0:
266,86,86556,1,6,0:3:0:0:
202,162,86854,1,10,3:0:0:0:
202,162,87004,2,0,L|192:210,1,49.5000015106202,6|10,0:3|0:3,0:0:0:0:
181,258,87302,6,1,B|107:272|107:272|92:301,1,99.0000030212403,14|0,0:0|0:0,0:0:0:0:
