osu file format v14

[General]
AudioFilename: audio.mp3
AudioLeadIn: 0
PreviewTime: 48841
Countdown: 0
SampleSet: Soft
StackLeniency: 0.7
Mode: 0
LetterboxInBreaks: 0
WidescreenStoryboard: 1

[Editor]
DistanceSpacing: 0.6
BeatDivisor: 4
GridSize: 32
TimelineZoom: 2.2

[Metadata]
Title:GO CRY GO (TV Size)
TitleUnicode:GO CRY GO (TV Size)
Artist:OxT
ArtistUnicode:OxT
Creator:MajK00
Version:ANOTHER FT. ENU
Source:オーバーロードⅡ
Tags:overlord ii 2nd op opening anime jrock rock japanese vanya2 -_Aqua AqUa_M1X AdeAAa Mizujin FreezingAnimenz peter petereu Masayoshi Ōishi Tom Hack Tom-H@ck oishi ooishi hotaru j-rock season male vocals vocalist EnuHQ hello new world
BeatmapID:4171530
BeatmapSetID:1957384

[Difficulty]
HPDrainRate:5
CircleSize:3.6
OverallDifficulty:8.6
ApproachRate:9
SliderMultiplier:1.52
SliderTickRate:1

[Events]
//Background and Video events
0,0,"bg.jpg",0,0
Video,-350,"video.mp4"
//Break Periods
//Storyboard Layer 0 (Background)
//Storyboard Layer 1 (Fail)
//Storyboard Layer 2 (Pass)
//Storyboard Layer 3 (Foreground)
//Storyboard Layer 4 (Overlay)
//Storyboard Sound Samples

[TimingPoints]
265,297.029702970297,4,2,1,50,1,0
5030,297.029702970297,4,2,1,70,1,0
5030,-90.9090909090909,4,2,1,70,0,0
9930,-86.9565217391304,4,2,1,70,0,0
13346,295.566502463054,4,2,1,60,1,0
13346,-86.9565217391304,4,2,1,70,0,0
15129,297.029702970297,4,2,1,55,1,0
15129,-125,4,2,1,55,0,0
23594,-111.111111111111,4,2,1,55,0,0
24633,-99.9999999999999,4,2,1,65,0,0
34138,-200,4,2,1,65,0,0
41267,-142.857142857143,4,2,1,65,0,0
41861,-133.333333333333,4,2,1,65,0,0
43643,-125,4,2,1,65,0,0
44831,-90.9090909090909,4,2,1,65,0,0
46020,-333.333333333333,4,2,1,65,0,0
47208,-100,4,2,1,65,0,0
49570,297.029702970297,4,2,1,80,1,0
49570,-66.6666666666667,4,2,1,80,0,0
49792,-66.6666666666667,4,2,1,5,0,0
49867,-80,4,2,1,80,0,0
50164,-66.6666666666667,4,2,1,80,0,0
50386,-66.6666666666667,4,2,1,5,0,0
50461,-80,4,2,1,80,0,0
51946,-66.6666666666667,4,2,1,80,0,0
52168,-66.6666666666667,4,2,1,5,0,0
52243,-80,4,2,1,80,0,0
54322,-86.9565217391304,4,2,1,70,0,0
59074,-71.4285714285714,4,2,1,70,0,0
59296,-71.4285714285714,4,2,1,5,0,0
59371,-86.9565217391304,4,2,1,70,0,0
59966,-86.9565217391304,4,2,1,70,0,0
61451,-71.4285714285714,4,2,1,70,0,0
61673,-71.4285714285714,4,2,1,5,0,0
61748,-86.9565217391304,4,2,1,70,0,0
66797,-86.9565217391304,4,2,1,70,0,0
67391,-80,4,2,1,70,0,0
68579,-80,4,2,1,80,0,0
68801,-80,4,2,1,5,0,0
68876,-80,4,2,1,80,0,0
78084,-90.9090909090909,4,2,1,70,0,0
82837,-90.9090909090909,4,2,1,80,0,0
82985,-86.9565217391304,4,2,1,80,0,0
85213,298.507462686567,4,2,1,85,1,0
85213,-86.9565217391304,4,2,1,85,0,0
86407,-86.9565217391304,4,2,1,80,0,0
87600,-86.9565217391304,4,2,1,5,0,0

[Colours]
Combo1 : 181,106,106
Combo2 : 159,159,159
Combo3 : 255,117,117
Combo4 : 201,201,201

[HitObjects]
256,192,265,12,8,3829,2:0:0:0:
510,337,4571,5,0,1:0:0:0:
510,337,4646,1,0,1:0:0:0:
510,337,4720,2,0,L|496:263,1,76,4|0,1:3|2:0,2:0:0:0:
274,380,5030,6,1,B|334:368|334:368|361:329|361:329|421:317,1,167.2,4|8,1:2|2:0,2:0:0:0:
315,225,5475,1,0,1:0:0:0:
196,318,5624,2,0,L|177:223,1,83.6,0|4,1:2|2:3,2:0:0:0:
332,143,5921,2,0,L|315:224,1,83.6,8|0,2:0|2:0,2:0:0:0:
112,135,6218,5,0,1:2:0:0:
79,303,6366,2,0,L|60:397,1,83.6,0|8,1:2|2:0,2:0:0:0:
0,231,6663,1,4,0:3:0:0:
0,231,6737,1,8,2:3:0:0:
0,231,6812,2,0,L|83:216,1,83.6,0|4,1:2|2:3,2:0:0:0:
174,73,7109,2,0,L|268:91,1,83.6,8|0,2:0|1:2,2:0:0:0:
43,17,7406,6,0,P|42:97|112:135,1,167.2,4|8,1:2|2:0,2:0:0:0:
243,5,7851,1,0,1:0:0:0:
271,173,8000,2,0,L|286:255,1,83.6,0|4,1:0|2:3,2:0:0:0:
367,106,8297,2,0,L|351:23,1,83.6,8|0,2:0|2:0,2:0:0:0:
503,109,8594,5,0,1:0:0:0:
382,206,8742,1,0,1:0:0:0:
470,300,8891,2,0,L|488:205,1,83.6,8|0,2:0|2:0,2:0:0:0:
366,353,9188,5,0,1:0:0:0:
286,255,9336,1,8,2:3:0:0:
286,255,9411,1,8,2:3:0:0:
286,255,9485,2,0,P|244:250|208:269,1,83.6,12|0,2:0|2:0,2:0:0:0:
367,106,9782,5,6,1:2:0:0:
240,23,9930,2,0,L|256:108,1,87.4,2|8,2:0|2:0,2:0:0:0:
189,179,10228,1,8,2:3:0:0:
189,179,10302,1,4,2:3:0:0:
189,179,10376,1,2,1:2:0:0:
47,42,10525,1,2,1:2:0:0:
134,16,10673,2,0,P|135:59|118:99,1,87.4,10|0,2:0|2:0,2:0:0:0:
115,303,10970,5,2,1:2:0:0:
4,187,11119,2,0,L|113:208,1,87.4,2|8,1:2|2:0,2:0:0:0:
189,179,11416,1,8,2:3:0:0:
189,179,11490,1,4,2:3:0:0:
189,179,11564,1,2,1:2:0:0:
265,294,11713,1,2,1:2:0:0:
100,384,11861,2,0,P|95:341|114:302,1,87.4,10|0,2:0|1:0,2:0:0:0:
353,321,12158,6,0,L|181:354,1,174.8,2|4,1:2|1:3,2:0:0:0:
269,207,12604,1,0,1:0:0:0:
360,331,12752,1,10,2:3:0:0:
393,245,12901,1,4,2:3:0:0:
287,122,13049,2,0,L|265:231,1,87.4,10|4,2:3|2:3,2:0:0:0:
400,33,13346,6,0,L|485:16,1,87.4,6|0,1:2|1:0,2:0:0:0:
385,134,13641,1,8,2:0:0:0:
206,22,13789,1,8,2:0:0:0:
206,22,13863,1,8,2:0:0:0:
206,22,13937,2,0,L|187:116,1,87.4,10|10,2:0|2:0,2:0:0:0:
154,302,14232,1,10,2:0:0:0:
348,271,14380,1,8,2:0:0:0:
0,221,15129,6,0,L|119:197,1,121.6,6|8,1:2|2:0,2:0:0:0:
212,264,15574,1,8,2:3:0:0:
212,264,15648,1,8,2:3:0:0:
212,264,15723,2,0,L|228:186,1,60.8,0|0,1:0|2:0,2:0:0:0:
136,106,16020,1,10,2:0:0:0:
136,106,16168,1,2,1:2:0:0:
264,1,16317,6,0,P|293:50|352:51,1,121.6,2|8,1:2|2:0,2:0:0:0:
448,0,16762,2,0,P|442:29|436:59,1,60.8,2|0,2:0|1:0,2:0:0:0:
380,137,17059,1,2,2:0:0:0:
512,107,17208,1,10,2:0:0:0:
512,107,17356,1,2,1:2:0:0:
386,230,17505,6,0,P|355:229|326:208,1,60.8,2|0,1:2|2:0,2:0:0:0:
465,185,17802,2,0,L|476:244,1,60.8,10|8,2:0|2:3,2:0:0:0:
501,261,18025,1,8,2:3:0:0:
501,261,18099,2,0,L|512:320,1,60.8,2|0,1:2|2:0,2:0:0:0:
419,384,18396,2,0,L|407:324,1,60.8,10|0,2:0|2:0,2:0:0:0:
330,213,18693,5,2,1:2:0:0:
257,274,18841,1,2,1:2:0:0:
394,319,18990,1,8,2:0:0:0:
271,384,19138,2,0,L|247:264,1,121.6,2|0,2:0|1:0,2:0:0:0:
318,153,19584,2,0,L|329:212,1,60.8,8|0,2:0|1:0,2:0:0:0:
164,307,19881,6,0,P|144:251|87:223,1,121.6,6|8,1:2|2:0,2:0:0:0:
65,369,20327,1,8,2:3:0:0:
65,369,20401,1,8,2:3:0:0:
65,369,20475,2,0,L|76:309,1,60.8,2|0,1:2|2:0,2:0:0:0:
0,181,20772,2,0,L|11:241,1,60.8,10|2,2:0|1:2,2:0:0:0:
199,144,21069,6,0,L|79:120,1,121.6,2|8,1:2|2:0,2:0:0:0:
28,26,21515,2,0,L|106:41,1,60.8,2|0,2:0|1:0,2:0:0:0:
219,0,21812,2,0,L|234:78,1,60.8,2|8,2:0|2:0,2:0:0:0:
314,183,22109,5,0,1:0:0:0:
314,183,22183,1,0,1:0:0:0:
314,183,22257,2,0,B|298:261|298:261|248:280,1,121.6,2|10,1:2|2:0,2:0:0:0:
383,367,22703,1,0,2:0:0:0:
383,367,22777,1,8,2:3:0:0:
383,367,22851,2,0,L|407:241,1,121.6,2|10,1:2|2:0,2:0:0:0:
440,125,23297,1,8,2:3:0:0:
339,28,23445,5,10,2:3:0:0:
339,28,23520,1,8,2:3:0:0:
339,28,23594,2,0,L|345:61,1,34.2,8|4,2:3|2:3,2:0:0:0:
254,104,23742,1,10,2:3:0:0:
254,104,23817,1,8,2:3:0:0:
254,104,23891,2,0,L|247:137,5,34.2,10|4|8|4|0|0,2:3|2:3|2:3|2:3|1:0|1:0,2:0:0:0:
224,236,24336,1,12,1:2:0:0:
224,236,24633,6,1,B|169:226|169:226|131:257|71:254,1,152,14|8,1:2|2:0,2:0:0:0:
175,328,25079,1,0,1:0:0:0:
29,384,25228,2,0,P|23:346|14:309,1,76.0000000000001,8|0,2:0|1:0,2:0:0:0:
101,158,25525,5,10,2:0:0:0:
0,80,25673,1,2,1:2:0:0:
0,80,25747,1,0,1:0:0:0:
0,80,25822,2,0,P|0:117|13:153,1,76.0000000000001,10|0,2:0|1:0,2:0:0:0:
81,31,26119,1,8,2:0:0:0:
175,143,26267,2,0,L|80:161,1,76.0000000000001,2|8,1:2|2:0,2:0:0:0:
275,89,26564,5,2,1:2:0:0:
224,236,26713,1,10,2:0:0:0:
341,338,26861,1,2,1:2:0:0:
341,338,26935,1,0,1:0:0:0:
341,338,27010,2,0,B|413:353|419:285|495:300,1,152,14|10,2:0|2:0,2:0:0:0:
374,221,27455,1,0,1:0:0:0:
510,144,27604,2,0,P|499:180|472:206,1,76.0000000000001,10|0,2:0|1:2,2:0:0:0:
347,112,27901,2,0,L|441:130,1,76.0000000000001,10|0,2:0|1:0,2:0:0:0:
264,227,28198,5,10,2:0:0:0:
341,338,28346,1,2,1:2:0:0:
264,227,28495,1,10,2:0:0:0:
172,373,28643,1,2,1:2:0:0:
172,373,28718,1,8,2:3:0:0:
172,373,28792,2,0,L|246:358,1,76.0000000000001,8|0,2:0|1:2,2:0:0:0:
134,237,29089,1,8,2:0:0:0:
192,163,29237,5,2,1:2:0:0:
84,311,29386,2,0,L|-10:292,1,76.0000000000001,12|2,2:0|1:2,2:0:0:0:
134,237,29683,1,10,2:0:0:0:
22,196,29831,1,2,1:2:0:0:
192,163,29980,2,0,L|354:132,1,152,8|8,2:0|2:0,2:0:0:0:
457,266,30426,5,2,1:2:0:0:
457,266,30500,1,0,1:0:0:0:
457,266,30574,2,0,P|421:255|395:228,1,76.0000000000001,10|2,2:0|1:2,2:0:0:0:
489,101,30871,1,10,2:0:0:0:
327,60,31020,2,0,L|341:134,1,76.0000000000001,2|8,1:2|2:0,2:0:0:0:
350,366,31317,5,2,1:2:0:0:
394,227,31465,1,10,2:0:0:0:
436,352,31614,1,2,1:2:0:0:
194,285,31762,5,14,2:0:0:0:
275,380,31911,2,0,L|350:365,1,76.0000000000001,10|8,2:0|2:0,2:0:0:0:
155,101,32208,5,10,2:0:0:0:
74,233,32356,2,0,L|0:219,1,76.0000000000001,10|10,2:0|2:0,2:0:0:0:
182,299,32653,2,0,L|256:285,1,76.0000000000001,10|10,2:0|2:0,2:0:0:0:
155,101,32950,5,10,2:0:0:0:
74,233,33099,1,10,2:0:0:0:
250,197,33247,1,10,2:0:0:0:
68,138,33396,1,10,2:0:0:0:
318,32,33544,6,0,L|300:126,1,76.0000000000001,10|8,2:0|2:0,2:0:0:0:
264,122,33767,1,8,2:3:0:0:
264,122,33841,2,0,L|246:216,1,76.0000000000001,10|8,2:0|2:3,2:0:0:0:
335,241,34064,5,0,1:0:0:0:
335,241,34138,2,1,P|369:202|468:212,1,152,4|0,1:2|2:0,2:0:0:0:
491,384,35327,6,0,L|512:272,2,114,8|8|4,2:3|2:3|2:3,2:0:0:0:
278,352,36515,6,0,B|227:304|167:326|167:326|150:367,1,152,4|0,1:2|2:0,2:0:0:0:
302,218,37703,6,0,L|271:60,1,152,2|0,2:3|2:0,2:0:0:0:
208,0,38445,6,0,L|201:37,2,38,4|4|4,2:3|2:3|2:3,2:0:0:0:
178,117,38891,6,0,P|113:112|51:184,1,152,10|0,2:3|2:0,2:0:0:0:
0,330,40079,6,0,L|74:315,1,76,2|8,1:2|2:3,2:0:0:0:
179,384,40673,2,0,L|253:369,1,76,4|8,2:3|2:3,2:0:0:0:
330,351,41119,1,8,2:3:0:0:
228,267,41267,6,0,L|252:141,1,106.4,4|0,1:2|2:0,2:0:0:0:
373,33,41861,6,0,L|350:149,1,114,4|0,1:2|2:0,2:0:0:0:
140,310,42455,5,10,2:0:0:0:
320,237,42752,6,0,P|386:250|411:313,2,114,2|2|2,1:2|1:2|1:2,2:0:0:0:
151,189,43643,6,0,B|107:181|107:181|86:154|86:154|42:147,1,121.6,6|6,1:2|2:3,2:0:0:0:
166,98,44089,1,8,2:3:0:0:
166,98,44163,1,8,2:3:0:0:
166,98,44237,2,0,L|154:38,1,60.8,10|8,2:3|2:3,2:0:0:0:
56,0,44534,2,0,L|67:59,1,60.8,10|4,2:3|2:3,2:0:0:0:
261,139,44831,6,0,L|384:115,1,125.4,4|0,1:2|2:0,2:0:0:0:
384,115,45129,1,2,1:2:0:0:
140,305,45426,6,0,L|16:281,1,125.4,4|0,1:2|2:0,2:0:0:0:
17,281,45723,1,2,1:2:0:0:
512,384,46020,6,0,P|494:298|424:270,1,159.6,14|0,2:0|2:0,2:0:0:0:
325,384,47208,6,0,L|343:289,1,76,12|0,2:0|1:0,2:0:0:0:
366,179,47505,1,0,1:0:0:0:
242,301,47653,6,0,L|223:206,1,76,12|0,2:0|1:0,2:0:0:0:
201,96,47950,1,0,1:0:0:0:
401,11,48099,6,0,L|382:105,1,76,12|0,2:0|1:0,2:0:0:0:
111,141,48396,5,12,2:0:0:0:
290,51,48544,1,8,2:0:0:0:
366,179,48693,1,8,2:0:0:0:
209,2,48841,5,4,1:2:0:0:
208,8,49570,6,1,P|182:90|145:166,1,171,6|0,1:2|2:0,2:0:0:0:
247,175,49867,2,0,P|264:125|287:77,1,95,10|8,2:0|2:3,2:0:0:0:
434,9,50164,2,1,P|504:51|512:133,1,171,6|0,1:2|2:0,2:0:0:0:
379,81,50461,2,0,P|392:125|430:153,1,95,10|0,2:0|2:3,2:0:0:0:
355,276,50758,6,0,B|420:247|420:247|497:276,2,142.5,6|2|10,1:2|2:0|2:0,2:0:0:0:
273,382,51352,2,0,P|259:336|237:294,1,95,2|0,1:2|2:0,2:0:0:0:
83,254,51649,1,8,2:0:0:0:
164,384,51797,5,0,1:0:0:0:
164,384,51871,1,0,1:0:0:0:
164,384,51946,2,0,P|140:301|102:225,1,171,6|0,1:2|2:0,2:0:0:0:
47,168,52243,2,0,P|64:118|87:70,1,95,8|0,2:0|2:0,2:0:0:0:
159,104,52466,1,8,2:3:0:0:
159,104,52540,2,0,P|176:54|199:6,1,95,6|0,1:2|2:0,2:0:0:0:
309,112,52837,2,0,P|352:92|397:77,1,95,8|0,2:0|2:0,2:0:0:0:
512,47,53134,5,6,1:2:0:0:
436,167,53282,1,0,1:0:0:0:
512,269,53431,2,0,P|492:312|477:357,1,95,10|2,2:0|1:2,2:0:0:0:
472,384,53654,1,8,2:0:0:0:
472,384,53728,1,8,2:0:0:0:
358,304,53876,1,10,2:0:0:0:
247,384,54025,1,8,2:0:0:0:
139,325,54173,1,10,2:0:0:0:
223,136,54322,6,0,P|259:215|225:294,2,174.8,4|8|0,1:2|2:0|1:0,2:0:0:0:
59,268,55065,1,0,1:0:0:0:
144,209,55213,2,0,L|55:244,1,87.4,8|0,2:0|2:0,2:0:0:0:
118,85,55510,6,0,P|154:105|199:117,1,87.4,0|0,1:0|1:0,2:0:0:0:
334,5,55807,2,0,P|355:47|334:92,1,87.4,8|0,2:0|1:0,2:0:0:0:
221,24,56104,1,2,1:2:0:0:
221,24,56253,1,0,1:0:0:0:
336,185,56401,2,0,P|375:166|417:152,1,87.4,10|0,2:0|1:0,2:0:0:0:
467,261,56698,6,0,P|428:280|386:294,1,87.4,14|8,2:0|2:0,2:0:0:0:
330,351,56921,1,8,2:0:0:0:
330,351,56995,2,0,P|291:332|249:318,1,87.4,8|8,2:0|2:3,2:0:0:0:
59,235,57292,1,0,1:3:0:0:
147,384,57441,1,8,2:3:0:0:
147,384,57515,1,8,2:3:0:0:
147,384,57589,2,0,P|126:342|147:297,1,87.4,8|0,2:3|1:0,2:0:0:0:
221,204,57886,6,0,P|202:165|188:123,1,87.4,6|0,1:2|1:0,2:0:0:0:
180,100,58109,1,8,2:0:0:0:
180,100,58183,1,8,2:0:0:0:
366,158,58332,1,8,2:0:0:0:
271,88,58480,1,10,2:0:0:0:
359,0,58629,1,10,2:0:0:0:
447,88,58777,1,10,2:0:0:0:
359,176,58926,1,10,2:0:0:0:
512,315,59074,6,1,P|430:341|354:378,1,159.6,6|0,1:2|2:0,2:0:0:0:
344,276,59371,2,0,P|386:262|426:244,1,87.4,2|0,1:2|2:0,2:0:0:0:
512,138,59669,1,10,2:0:0:0:
415,55,59817,1,0,1:0:0:0:
415,55,59891,1,0,1:0:0:0:
415,55,59966,2,0,P|394:97|415:142,1,87.4,2|0,1:2|2:0,2:0:0:0:
259,0,60263,6,0,L|137:48,2,131.1,6|10|2,1:2|2:3|1:2,2:0:0:0:
387,97,60857,2,0,P|302:120|224:158,1,174.800003334045,6|0,1:2|2:0,2:0:0:0:
0,64,61451,6,0,P|24:147|62:223,1,159.599995129395,6|0,1:2|2:0,2:0:0:0:
110,286,61748,2,0,P|93:336|70:384,1,87.4,2|8,1:2|2:3,2:0:0:0:
175,384,61970,1,4,2:3:0:0:
175,384,62045,2,0,P|192:334|215:286,1,87.4,10|0,2:0|2:0,2:0:0:0:
252,223,62342,1,2,1:2:0:0:
512,319,62639,6,0,B|439:340|439:340|420:366|420:366|350:385,1,174.8,6|2,1:2|1:2,2:0:0:0:
270,245,63084,1,2,1:2:0:0:
211,330,63233,2,0,L|246:241,1,87.4,12|2,2:0|1:2,2:0:0:0:
348,124,63530,2,0,P|360:164|379:205,1,87.4,12|2,2:0|1:2,2:0:0:0:
211,131,63827,6,1,P|134:167|49:197,2,174.8,4|8|1,1:2|2:0|1:0,2:0:0:0:
397,31,64570,1,0,1:0:0:0:
338,116,64718,2,0,L|373:27,1,87.4,8|0,2:0|2:0,2:0:0:0:
481,161,65015,6,0,P|442:237|419:319,1,174.8,0|8,1:0|2:0,2:0:0:0:
259,256,65461,1,0,1:0:0:0:
300,355,65609,2,0,P|288:312|268:273,1,87.4,2|0,1:2|2:0,2:0:0:0:
139,354,65906,2,0,P|119:316|108:274,1,87.4,10|0,2:0|2:0,2:0:0:0:
16,192,66203,5,6,1:2:0:0:
91,89,66352,1,8,2:0:0:0:
0,0,66500,1,0,1:0:0:0:
166,153,66649,5,0,1:0:0:0:
166,153,66723,1,0,1:0:0:0:
166,153,66797,2,0,P|204:135|246:119,1,87.4,10|0,2:0|2:0,2:0:0:0:
310,199,67094,1,8,2:0:0:0:
453,120,67243,1,8,2:0:0:0:
307,0,67391,6,0,L|345:92,1,95,6|0,1:2|1:0,2:0:0:0:
358,117,67614,1,8,2:3:0:0:
358,117,67688,1,8,2:0:0:0:
477,37,67837,1,8,2:0:0:0:
396,196,67985,2,0,P|439:210|488:236,1,95,10|10,2:0|2:0,2:0:0:0:
377,384,68282,1,10,2:0:0:0:
511,247,68431,1,10,2:0:0:0:
296,134,68579,6,0,P|267:197|295:260,1,142.5,6|0,1:2|2:0,2:0:0:0:
250,326,68876,2,0,P|206:340|157:366,1,95,10|0,2:0|1:0,2:0:0:0:
8,276,69173,1,10,2:0:0:0:
120,249,69322,2,0,P|77:270|32:285,1,95,2|8,1:2|2:0,2:0:0:0:
151,123,69619,6,1,B|260:136|228:175|327:193,1,190,6|2,1:2|1:2,2:0:0:0:
385,140,70065,1,8,2:0:0:0:
512,285,70213,1,2,1:2:0:0:
512,285,70287,1,0,1:0:0:0:
512,285,70362,2,0,P|490:327|475:372,1,95,10|0,2:0|1:0,2:0:0:0:
293,384,70659,2,0,P|315:342|330:297,1,95,8|0,2:0|1:0,2:0:0:0:
170,372,70956,6,0,B|104:363|104:363|72:317|72:317|0:302,1,190,14|10,2:0|2:0,2:0:0:0:
121,207,71401,1,0,1:0:0:0:
1,120,71550,1,10,2:0:0:0:
136,222,71698,2,0,P|151:175|172:134,1,95,2|8,1:2|2:0,2:0:0:0:
290,12,71995,6,0,P|380:30|425:111,1,190,6|8,1:2|2:3,2:0:0:0:
432,138,72367,1,8,2:3:0:0:
432,138,72441,1,4,2:3:0:0:
358,232,72589,1,4,2:3:0:0:
439,309,72738,1,4,2:3:0:0:
504,219,72886,1,4,2:3:0:0:
419,330,73035,2,0,P|374:346|331:366,1,95,8|8,2:3|2:3,2:0:0:0:
176,274,73332,5,10,2:0:0:0:
0,384,73629,5,8,2:0:0:0:
142,180,73926,5,10,2:0:0:0:
142,180,74074,5,10,2:0:0:0:
0,26,74371,5,6,1:2:0:0:
142,180,74669,5,6,1:2:0:0:
365,31,74966,5,10,2:0:0:0:
365,31,75114,5,6,1:2:0:0:
483,172,75411,6,0,P|501:214|485:258,1,95,8|0,2:3|2:0,2:0:0:0:
383,331,75708,6,0,P|431:347|471:366,1,95,14|2,2:0|1:2,2:0:0:0:
365,224,76005,2,0,P|322:244|277:259,1,95,6|10,2:3|2:3,2:0:0:0:
66,306,76302,1,10,2:0:0:0:
223,183,76451,1,8,2:0:0:0:
176,363,76599,1,10,2:0:0:0:
6,208,76748,5,0,1:0:0:0:
6,208,76822,1,0,1:0:0:0:
6,208,76896,1,14,2:0:0:0:
362,6,78084,6,0,B|422:18|422:18|449:57|449:57|509:69,1,167.2,4|8,1:2|2:0,2:0:0:0:
419,194,78530,1,0,1:0:0:0:
512,176,78678,2,0,L|426:209,1,83.6,0|8,1:0|2:3,2:0:0:0:
321,119,78975,2,0,P|308:158|290:196,1,83.6,8|0,2:0|2:0,2:0:0:0:
376,335,79272,5,0,1:0:0:0:
258,278,79421,2,0,L|180:247,1,83.6,0|8,1:2|2:0,2:0:0:0:
22,177,79718,1,4,0:3:0:0:
22,177,79792,1,8,2:3:0:0:
22,177,79867,2,0,P|7:216|17:257,1,83.6,0|0,1:0|1:0,2:0:0:0:
126,153,80164,2,0,P|135:112|120:74,1,83.6,8|8,2:0|2:0,2:0:0:0:
278,0,80461,6,0,P|305:78|341:154,1,167.2,4|8,1:2|2:0,2:0:0:0:
501,72,80906,1,0,1:0:0:0:
444,190,81055,2,0,L|413:267,1,83.6,0|4,1:0|2:3,2:0:0:0:
312,356,81352,2,0,P|299:315|281:278,1,83.6,8|0,2:0|2:0,2:0:0:0:
119,235,81649,5,0,1:0:0:0:
205,338,81797,1,0,1:0:0:0:
289,172,81946,2,0,P|251:190|211:202,1,83.6,8|0,2:0|1:0,2:0:0:0:
90,76,82243,2,0,L|74:114,3,41.8,8|8|8|4,2:0|2:0|2:3|2:3,2:0:0:0:
41,186,82540,1,8,2:0:0:0:
41,186,82614,1,8,2:0:0:0:
41,186,82688,2,0,L|25:224,1,41.8,8|8,2:0|2:0,2:0:0:0:
140,303,82837,5,6,1:2:0:0:
1,355,82985,2,0,B|59:337|59:337|83:296|83:296|150:280,1,174.8,2|0,1:2|1:0,2:0:0:0:
303,227,83431,1,10,2:0:0:0:
244,355,83579,1,2,1:2:0:0:
409,235,83728,2,0,P|390:197|378:154,1,87.4,8|0,2:0|1:0,2:0:0:0:
372,127,83951,5,0,1:0:0:0:
372,127,84025,1,10,2:0:0:0:
209,181,84173,2,0,P|245:101|269:17,1,174.8,2|0,1:2|1:0,2:0:0:0:
114,88,84619,1,10,2:0:0:0:
2,0,84768,1,2,1:2:0:0:
87,168,84916,2,0,P|74:209|55:249,1,87.4,10|0,2:0|1:0,2:0:0:0:
159,352,85213,6,0,P|117:365|77:384,1,87.4,12|0,2:0|1:0,2:0:0:0:
181,230,85511,2,0,P|220:248|262:262,1,87.4,8|0,2:0|1:0,2:0:0:0:
413,191,85810,1,14,2:0:0:0:
349,326,85959,1,2,1:2:0:0:
508,237,86108,1,14,0:0:0:0:
443,93,86257,1,2,1:2:0:0:
249,161,86407,5,2,1:2:0:0:
413,205,86556,2,0,P|342:172|251:139,1,174.800003334045,6|10,2:3|3:0,2:0:0:0:
49,0,87004,1,6,2:3:0:0:
71,27,87078,1,4,2:3:0:0:
82,61,87153,1,10,2:3:0:0:
79,97,87227,1,8,2:3:0:0:
63,128,87302,6,1,B|121:110|121:110|145:69|145:69|212:53,1,174.8,14|0,2:0|2:0,2:0:0:0:
