osu file format v14

[General]
AudioFilename: audio.mp3
AudioLeadIn: 0
PreviewTime: 50772
Countdown: 0
SampleSet: Soft
StackLeniency: 0.6
Mode: 0
LetterboxInBreaks: 0
WidescreenStoryboard: 1

[Editor]
Bookmarks: 17856,47554
DistanceSpacing: 1.6
BeatDivisor: 4
GridSize: 8
TimelineZoom: 2

[Metadata]
Title:Clattanoia (TV Size)
TitleUnicode:Clattanoia (TV Size)
Artist:OxT
ArtistUnicode:OxT
Creator:fieryrage
Version:KUKI'S EXTREME
Source:オーバーロード
Tags:overlord anime opening op 大石昌良 masayoshi oishi 大嶋文博 tomohiro oshima tom-h@ck tom hack hello new world japanese english rock browiec dashyy- flask erisu mayuzumi fuyuko kuki1537 glaceon
BeatmapID:3071981
BeatmapSetID:1476842

[Difficulty]
HPDrainRate:5
CircleSize:3.8
OverallDifficulty:9.3
ApproachRate:9.4
SliderMultiplier:1.8
SliderTickRate:1

[Events]
//Background and Video events
0,0,"yep.jpg",0,0
Video,10,"dude dat 2015 anime cgi.mp4"
//Break Periods
2,38266,42121
//Storyboard Layer 0 (Background)
//Storyboard Layer 1 (Fail)
//Storyboard Layer 2 (Pass)
//Storyboard Layer 3 (Foreground)
//Storyboard Layer 4 (Overlay)
//Storyboard Sound Samples

[TimingPoints]
192,300,4,2,5,75,1,0
192,-100,4,2,5,75,0,0
642,324.324324324324,4,2,5,75,1,0
642,-100,4,2,5,75,0,0
1128,300,4,2,5,75,1,0
1128,-100,4,2,5,75,0,0
1278,315.789473684211,4,2,5,80,1,0
1278,-125,4,2,5,80,0,0
1593,320.855614973262,4,2,1,60,1,0
1593,-100,4,2,1,60,0,0
2395,279.06976744186,4,2,1,60,1,0
2395,-100,4,2,1,60,0,0
2534,319.148936170213,4,2,1,85,1,0
2534,-82.9875518672199,4,2,1,85,0,0
2693,319.148936170213,4,2,1,85,1,0
2693,-83.3333333333333,4,2,1,85,0,0
3331,315.789473684211,4,2,1,85,1,0
3331,-83.3333333333333,4,2,1,85,0,0
3804,-83.3333333333333,4,2,5,85,0,0
3962,317.460317460317,4,2,1,85,1,0
3962,-83.3333333333333,4,2,1,85,0,0
5073,320.855614973262,4,2,1,85,1,0
5073,-83.3333333333333,4,2,1,85,0,0
5233,320.855614973262,4,2,1,85,1,0
5233,-83.3333333333333,4,2,1,85,0,0
5874,315.789473684211,4,2,1,85,1,0
5874,-83.3333333333333,4,2,1,85,0,0
6347,-83.3333333333333,4,2,5,85,0,0
6505,315.789473684211,4,2,1,85,1,0
6505,-83.3333333333333,4,2,1,85,0,0
7768,-100,4,2,1,80,0,0
8083,313.31592689295,4,2,5,80,1,0
8083,-83.3333333333333,4,2,5,80,0,0
9022,315.789473684211,4,2,5,80,1,0
9022,-83.3333333333333,4,2,5,80,0,0
11548,317.460317460317,4,2,5,80,1,0
11548,-83.3333333333333,4,2,5,80,0,0
12182,314.13612565445,4,2,5,80,1,0
12182,-83.3333333333333,4,2,5,80,0,0
12810,314.13612565445,4,2,5,80,1,0
12810,-83.3333333333333,4,2,5,80,0,0
14066,315.789473684211,4,2,5,80,1,0
14066,-83.3333333333333,4,2,5,80,0,0
16908,317.460317460317,4,2,5,70,1,0
16908,-83.3333333333333,4,2,5,70,0,0
17066,-83.3333333333333,4,2,5,75,0,0
17384,-83.3333333333333,4,2,5,70,0,0
17542,314.96062992126,4,2,5,75,1,0
17542,-83.3333333333333,4,2,5,75,0,0
17699,-83.3333333333333,4,2,5,70,0,0
17856,317.460317460317,4,2,5,80,1,0
17856,-125,4,2,5,80,0,0
18014,-125,4,2,1,70,0,0
19125,315.789473684211,4,2,1,70,1,0
19125,-125,4,2,1,70,0,0
21967,324.324324324324,4,2,1,70,1,0
21967,-125,4,2,1,70,0,0
22291,310.077519379845,4,2,1,75,1,0
22291,-125,4,2,1,75,0,0
22446,-125,4,2,5,75,0,0
22911,314.13612565445,4,2,5,75,1,0
22911,-125,4,2,5,75,0,0
23068,-125,4,2,1,70,0,0
24167,319.148936170213,4,2,1,70,1,0
24167,-125,4,2,1,70,0,0
25284,-123.456790123457,4,2,1,70,0,0
25443,315.789473684211,4,2,1,70,1,0
25443,-125,4,2,1,70,0,0
26074,312.5,4,2,1,70,1,0
26074,-125,4,2,1,70,0,0
26699,307.692307692308,4,2,1,75,1,0
26699,-100,4,2,1,75,0,0
27160,315.789473684211,4,2,1,75,1,0
27160,-100,4,2,1,75,0,0
27475,333.333333333333,4,2,1,75,1,0
27475,-100,4,2,1,75,0,0
27808,300,4,2,1,75,1,0
27808,-100,4,2,1,75,0,0
27958,317.460317460317,4,2,5,80,1,0
27958,-105.263157894737,4,2,5,80,0,0
28116,-105.263157894737,4,2,1,75,0,0
29227,315.789473684211,4,2,1,75,1,0
29227,-105.263157894737,4,2,1,75,0,0
32384,310.880829015544,4,2,1,80,1,0
32384,-105.263157894737,4,2,1,80,0,0
32539,-105.263157894737,4,2,5,80,0,0
33005,322.58064516129,4,2,5,80,1,0
33005,-105.263157894737,4,2,5,80,0,0
33166,-105.263157894737,4,2,1,75,0,0
33972,312.5,4,2,1,75,1,0
33972,-105.263157894737,4,2,1,75,0,0
34284,315.789473684211,4,2,1,75,1,0
34284,-105.263157894737,4,2,1,75,0,0
37757,309.278350515464,4,2,1,75,1,0
37757,-105.263157894737,4,2,1,75,0,0
38066,324.324324324324,3,2,1,80,1,0
38066,-125,3,2,1,80,0,0
38228,-125,3,2,1,70,0,0
39038,315.789473684211,3,2,1,70,1,0
39038,-125,4,2,1,70,0,0
39985,317.460317460317,3,2,1,70,1,0
39985,-125,4,2,1,70,0,0
40937,314.13612565445,3,2,1,70,1,0
40937,-125,4,2,1,70,0,0
42507,309.278350515464,3,2,1,70,1,0
42507,-125,3,2,1,70,0,0
42661,-125,3,2,1,75,0,0
43125,313.31592689295,3,2,1,75,1,0
43125,-125,3,2,1,75,0,0
43751,315.789473684211,3,2,1,75,1,0
43751,-111.111111111111,3,2,1,75,0,0
44382,319.148936170213,3,2,1,75,1,0
44382,-111.111111111111,3,2,1,75,0,0
45020,314.96062992126,3,2,1,75,1,0
45020,-111.111111111111,3,2,1,75,0,0
45649,314.96062992126,4,2,1,75,1,0
45649,-111.111111111111,3,2,1,75,0,0
46278,323.450134770889,3,2,1,75,1,0
46278,-111.111111111111,3,2,1,75,0,0
46601,313.31592689295,3,2,1,75,1,0
46601,-111.111111111111,3,2,1,75,0,0
47227,327.868852459016,3,2,1,75,1,0
47227,-111.111111111111,3,2,1,75,0,0
47554,317.460317460317,6,2,1,80,1,0
47554,-100,6,2,1,80,0,0
47792,-100,6,2,2,5,0,0
47871,-100,6,2,1,80,0,0
48109,-100,6,2,2,5,0,0
48188,315.789473684211,6,2,1,80,1,0
48188,-100,4,2,1,80,0,0
48424,-100,6,2,2,5,0,0
48503,-100,6,2,1,80,0,0
48740,-100,6,2,2,5,0,0
48819,314.13612565445,6,2,1,80,1,0
48819,-100,4,2,1,80,0,0
49054,-100,6,2,2,5,0,0
49133,-100,6,2,1,80,0,0
49368,-100,6,2,2,5,0,0
49447,316.622691292876,4,2,1,75,1,0
49447,-100,4,2,1,75,0,0
49605,-100,4,2,5,75,0,0
50555,-125,4,2,5,80,0,0
50871,329.67032967033,4,2,1,70,1,0
50871,-100,4,2,1,70,0,0
51035,315.789473684211,4,2,1,70,1,0
51035,-100,4,2,1,70,0,0
51666,279.06976744186,4,2,1,70,1,0
51666,-100,4,2,1,70,0,0
51805,322.58064516129,4,2,1,85,1,0
51805,-83.3333333333333,4,2,1,85,0,0
51966,322.58064516129,4,2,1,85,1,0
51966,-83.3333333333333,4,2,1,85,0,0
52288,315.789473684211,4,2,1,85,1,0
52288,-83.3333333333333,4,2,1,85,0,0
53077,-83.3333333333333,4,2,5,85,0,0
53235,315.789473684211,4,2,1,85,1,0
53235,-83.3333333333333,4,2,1,85,0,0
55603,-83.3333333333333,4,2,5,85,0,0
55761,-83.3333333333333,4,2,1,85,0,0
58603,312.5,4,2,1,85,1,0
58603,-83.3333333333333,4,2,1,85,0,0
59384,315.789473684211,4,2,1,85,1,0
59384,-83.0564784053156,4,2,1,85,0,0
59541,315.789473684211,4,2,1,85,1,0
59541,-83.3333333333333,4,2,1,85,0,0
60172,306.122448979592,4,2,1,85,1,0
60172,-83.3333333333333,4,2,1,85,0,0
60478,324.324324324324,4,2,1,85,1,0
60478,-83.3333333333333,4,2,1,85,0,0
60802,315.789473684211,4,2,1,85,1,0
60802,-83.3333333333333,4,2,1,85,0,0
61433,-83.3333333333333,4,2,1,85,0,0
61907,320.855614973262,4,2,1,85,1,0
61907,-83.3333333333333,4,2,1,85,0,0
62067,320.855614973262,4,2,1,85,1,0
62067,-83.3333333333333,4,2,1,85,0,0
62708,315.789473684211,4,2,1,85,1,0
62708,-83.3333333333333,4,2,1,85,0,0
63181,-83.3333333333333,4,2,5,85,0,0
63339,315.789473684211,4,2,1,85,1,0
63339,-83.3333333333333,4,2,1,85,0,0
65707,-83.3333333333333,4,2,5,85,0,0
65865,-83.3333333333333,4,2,1,85,0,0
68707,313.31592689295,4,2,1,85,1,0
68707,-83.3333333333333,4,2,1,85,0,0
69960,318.302387267905,4,2,1,85,1,0
69960,-83.3333333333333,4,2,1,85,0,0
70755,315.789473684211,4,2,1,85,1,0
70755,-83.3333333333333,4,2,1,85,0,0
70912,315.789473684211,4,2,1,85,1,0
70912,-83.3333333333333,4,2,1,85,0,0
71227,306.122448979592,4,2,1,85,1,0
71227,-83.3333333333333,4,2,1,85,0,0
71533,324.324324324324,4,2,1,80,1,0
71533,-83.3333333333333,4,2,1,80,0,0
71695,-83.3333333333333,4,2,1,75,0,0
71857,-83.3333333333333,4,2,1,70,0,0
72019,317.460317460317,4,2,1,85,1,0
72019,-83.0564784053156,4,2,1,85,0,0
72177,317.460317460317,4,2,1,85,1,0
72177,-83.3333333333333,4,2,1,85,0,0
74557,314.13612565445,4,2,1,85,1,0
74557,-83.3333333333333,4,2,1,85,0,0
74714,314.13612565445,4,2,5,85,1,0
74714,-83.3333333333333,4,2,5,85,0,0
75656,315.789473684211,4,2,5,85,1,0
75656,-83.3333333333333,4,2,5,85,0,0
76603,311.688311688312,4,2,1,85,1,0
76603,-83.3333333333333,4,2,1,85,0,0
77070,315.789473684211,4,2,1,85,1,0
77070,-83.0564784053156,4,2,1,85,0,0
77227,315.789473684211,4,2,1,85,1,0
77227,-83.3333333333333,4,2,1,85,0,0
81016,322.58064516129,4,2,1,90,1,0
81016,-83.3333333333333,4,2,1,90,0,0
81661,309.278350515464,4,2,1,90,1,0
81661,-100,4,2,1,90,0,0
82124,319.148936170213,4,2,1,90,1,1
82124,-83.0564784053156,4,2,1,90,0,1
82283,319.148936170213,4,2,5,85,1,1
82283,-83.3333333333333,4,2,5,85,0,1
82921,314.96062992126,4,2,5,85,1,1
82921,-83.3333333333333,4,2,5,85,0,1
83550,315.789473684211,4,2,5,85,1,1
83550,-83.3333333333333,4,2,5,85,0,1
84813,314.13612565445,4,2,5,85,1,1
84813,-83.3333333333333,4,2,5,85,0,1
86697,309.278350515464,4,2,5,85,1,1
86697,-83.3333333333333,4,2,5,85,0,1
87083,375,4,2,5,85,1,1
87083,-83.3333333333333,4,2,5,85,0,1
87176,315.789473684211,4,2,5,90,1,0
87176,-199.880071956826,4,2,5,90,0,0
87333,315.789473684211,4,2,2,5,1,0
87333,-200,4,2,2,5,0,0
88596,-200,4,2,0,35,0,0

[Colours]
Combo1 : 202,202,202
Combo2 : 217,60,55
Combo3 : 160,64,213
Combo4 : 230,134,240

[HitObjects]
134,136,192,5,10,0:0:0:0:
134,136,267,1,8,0:3:0:0:
134,136,342,2,0,L|142:188,3,45,10|8|0|0,0:3|1:3|1:2|1:2,0:0:0:0:
311,273,642,5,10,0:0:0:0:
311,273,723,1,8,0:3:0:0:
311,273,804,2,0,L|319:221,1,45,10|8,0:3|1:3,0:0:0:0:
245,109,966,2,0,L|286:141,1,45,2|0,1:2|1:2,0:0:0:0:
420,133,1128,2,0,L|370:152,1,45,10|0,0:0|0:0,0:0:0:0:
226,212,1278,6,0,B|147:189|167:255|76:235,1,144,6|2,1:2|0:0,0:0:0:0:
87,37,2534,6,0,B|120:21|144:-7|144:-7|122:149,1,215.999993408203,6|0,1:2|1:2,0:0:0:0:
28,280,3012,2,0,P|75:269|137:283,1,107.999996704102,10|0,0:0|0:0,0:0:0:0:
342,320,3331,1,2,1:2:0:0:
140,153,3488,1,0,1:2:0:0:
226,384,3646,1,10,0:0:0:0:
343,160,3804,1,2,0:0:0:0:
343,160,3883,1,2,0:0:0:0:
343,160,3962,6,0,B|488:138|488:138|453:149|432:185,1,215.999993408203,2|8,1:2|0:0,0:0:0:0:
244,281,4438,1,0,0:0:0:0:
363,58,4596,1,2,1:2:0:0:
444,308,4755,1,2,1:2:0:0:
251,102,4914,1,8,0:0:0:0:
251,102,4993,1,0,1:2:0:0:
251,102,5073,6,0,B|168:92|168:92|127:118|127:118|41:107,1,215.999993408203,6|0,1:2|1:2,0:0:0:0:
125,354,5553,2,0,L|140:247,1,107.999996704102,10|0,0:0|0:0,0:0:0:0:
193,6,5874,1,2,1:2:0:0:
260,265,6031,1,0,1:2:0:0:
43,107,6189,1,10,0:0:0:0:
323,33,6347,1,2,0:0:0:0:
323,33,6426,1,2,0:0:0:0:
323,33,6505,6,0,B|375:5|375:5|431:79|377:155,1,215.999993408203,2|8,1:2|0:0,0:0:0:0:
311,343,6978,1,0,1:2:0:0:
197,109,7136,1,10,0:0:0:0:
197,109,7215,1,8,0:0:0:0:
197,109,7294,2,0,L|260:100,1,53.9999983520508,10|8,0:0|0:0,0:0:0:0:
400,241,7452,2,0,L|337:232,1,53.9999983520508,8|8,0:0|0:0,0:0:0:0:
106,310,7610,6,0,B|217:283|201:377|314:342,1,215.999993408203,6|0,1:2|1:2,0:0:0:0:
478,168,8083,1,8,0:0:0:0:
235,232,8239,1,2,0:0:0:0:
460,345,8396,1,2,1:2:0:0:
287,140,8552,2,0,P|232:128|177:143,1,107.999996704102,2|8,1:2|0:0,0:0:0:0:
343,366,8866,5,2,0:0:0:0:
387,123,9022,1,2,1:2:0:0:
237,329,9179,2,0,P|182:341|127:326,1,107.999996704102,2|8,1:2|0:0,0:0:0:0:
32,124,9495,1,2,1:2:0:0:
32,124,9574,1,0,1:2:0:0:
32,124,9653,1,0,1:2:0:0:
235,232,9811,2,0,P|290:244|345:229,1,107.999996704102,2|8,1:2|0:0,0:0:0:0:
176,5,10127,6,0,B|115:54|115:54|139:195,1,215.999993408203,6|2,1:2|1:2,0:0:0:0:
218,372,10600,1,8,0:0:0:0:
287,140,10758,1,2,0:0:0:0:
80,279,10916,1,2,1:2:0:0:
356,338,11074,2,0,L|338:229,1,107.999996704102,2|8,1:2|0:0,0:0:0:0:
174,45,11390,5,2,0:0:0:0:
250,281,11548,1,2,1:2:0:0:
348,52,11706,2,0,P|401:40|469:59,1,107.999996704102,2|8,1:2|0:0,0:0:0:0:
502,286,12024,1,2,1:2:0:0:
502,286,12103,1,0,1:2:0:0:
502,286,12182,1,0,1:2:0:0:
316,141,12339,2,0,L|209:156,1,107.999996704102,2|8,1:2|0:0,0:0:0:0:
83,346,12653,6,0,B|198:305|174:408|298:370,1,215.999993408203,6|2,1:2|1:2,0:0:0:0:
482,155,13124,1,8,0:0:0:0:
231,263,13281,1,2,0:0:0:0:
510,324,13438,1,2,1:2:0:0:
347,111,13595,2,0,L|364:224,1,107.999996704102,2|8,1:2|0:0,0:0:0:0:
232,354,13909,5,2,0:0:0:0:
164,127,14066,1,2,1:2:0:0:
313,309,14223,2,0,P|373:320|421:308,1,107.999996704102,2|8,1:2|0:0,0:0:0:0:
446,62,14539,1,2,1:2:0:0:
446,62,14618,1,0,1:2:0:0:
446,62,14697,1,0,1:2:0:0:
264,223,14855,2,0,P|204:234|156:222,1,107.999996704102,2|8,1:2|0:0,0:0:0:0:
32,45,15171,6,0,B|65:29|89:1|89:1|67:157,1,215.999993408203,6|2,1:2|1:2,0:0:0:0:
231,360,15644,1,8,0:0:0:0:
169,127,15802,1,2,0:0:0:0:
57,344,15960,1,2,1:2:0:0:
247,204,16118,2,0,P|304:191|370:210,1,107.999996704102,2|8,1:2|0:0,0:0:0:0:
349,373,16434,5,2,0:0:0:0:
143,227,16592,1,2,1:2:0:0:
381,134,16750,1,10,0:0:0:0:
218,375,16908,5,8,0:3:0:0:
218,375,16987,1,8,0:0:0:0:
218,375,17066,2,0,P|226:349|229:322,1,53.9999983520508,10|8,0:0|0:0,0:0:0:0:
373,228,17225,1,8,0:3:0:0:
373,228,17304,1,0,1:2:0:0:
373,228,17384,2,0,P|381:254|384:281,1,53.9999983520508,10|8,0:3|0:0,0:0:0:0:
226,219,17542,5,8,0:0:0:0:
234,199,17620,1,8,0:3:0:0:
242,178,17699,1,8,1:3:0:0:
252,158,17778,1,8,1:3:0:0:
261,138,17856,6,0,B|184:117|200:181|116:161,1,144,6|10,1:2|0:0,0:0:0:0:
0,73,18332,1,2,0:0:0:0:
136,0,18490,2,0,P|143:42|133:82,1,72,2|0,1:2|1:2,0:0:0:0:
34,225,18808,2,0,P|28:189|35:154,1,72,10|0,0:0|0:0,0:0:0:0:
95,315,19125,6,0,L|12:326,1,72,2|2,1:2|0:0,0:0:0:0:
124,193,19440,1,10,0:0:0:0:
200,338,19598,1,2,0:0:0:0:
234,158,19756,1,2,1:2:0:0:
114,295,19914,1,2,1:2:0:0:
290,230,20072,2,0,P|330:222|374:234,1,72,8|4,0:0|0:3,0:0:0:0:
339,384,20388,6,0,L|326:298,1,72,2|0,1:2|0:0,0:0:0:0:
465,200,20703,2,0,L|454:271,1,72,10|0,0:0|0:0,0:0:0:0:
325,144,21019,1,2,1:2:0:0:
483,106,21177,1,2,1:2:0:0:
360,227,21335,2,0,P|320:235|276:223,1,72,8|2,0:0|0:0,0:0:0:0:
137,131,21651,5,2,1:2:0:0:
195,280,21809,1,6,1:3:0:0:
230,100,21967,1,8,0:0:0:0:
125,223,22129,1,6,0:3:0:0:
103,46,22291,1,2,1:2:0:0:
213,191,22446,1,4,1:3:0:0:
258,11,22601,2,0,P|300:3|340:14,1,72,10|6,0:0|0:3,0:0:0:0:
443,187,22911,6,0,B|388:180|388:180|357:198|357:198|280:187,1,144,6|10,1:2|0:0,0:0:0:0:
194,107,23382,1,2,0:0:0:0:
265,266,23539,1,2,1:2:0:0:
334,108,23696,1,2,1:2:0:0:
190,201,23853,2,0,P|152:209|115:203,1,72,8|0,0:0|0:0,0:0:0:0:
28,48,24167,5,2,1:2:0:0:
194,107,24326,1,2,1:2:0:0:
11,64,24486,1,10,0:0:0:0:
181,8,24645,2,0,L|271:-3,1,72,2|0,0:0|1:2,0:0:0:0:
303,160,24964,2,0,P|293:118|303:79,1,72,2|8,1:2|0:0,0:0:0:0:
442,1,25284,6,0,B|485:35|485:35|470:130,1,144,6|2,0:3|0:0,0:0:0:0:
436,283,25758,1,10,0:0:0:0:
382,122,25916,1,2,0:0:0:0:
342,303,26074,1,2,1:2:0:0:
428,194,26230,1,0,1:2:0:0:
481,360,26386,2,0,L|406:371,1,72,12|2,0:0|1:2,0:0:0:0:
259,215,26699,5,8,0:0:0:0:
259,215,26775,1,8,0:3:0:0:
259,215,26852,2,0,L|244:313,1,90,2|2,1:2|1:2,0:0:0:0:
54,384,27160,1,10,0:0:0:0:
54,384,27238,1,8,0:3:0:0:
54,384,27317,2,0,L|40:295,1,90,10|0,1:3|1:2,0:0:0:0:
210,84,27641,1,8,0:0:0:0:
0,205,27808,1,8,0:3:0:0:
0,205,27883,1,8,0:3:0:0:
0,205,27958,6,0,B|65:196|65:196|99:220|99:220|175:210,1,170.999995433807,6|10,1:2|0:0,0:0:0:0:
298,108,28434,1,2,0:0:0:0:
113,38,28592,2,0,L|126:127,1,85.4999977169037,2|0,1:2|1:2,0:0:0:0:
236,280,28910,1,10,0:0:0:0:
298,108,29069,1,2,0:0:0:0:
366,285,29227,6,0,P|420:294|466:278,1,85.4999977169037,2|2,1:2|1:2,0:0:0:0:
372,41,29542,1,10,0:0:0:0:
304,219,29700,1,2,0:0:0:0:
242,0,29858,1,2,1:2:0:0:
391,174,30016,1,2,1:2:0:0:
170,131,30174,1,8,0:0:0:0:
391,23,30332,1,0,0:0:0:0:
213,217,30490,6,0,P|168:227|121:214,1,85.4999977169037,2|0,1:2|0:0,0:0:0:0:
222,50,30805,2,0,P|253:83|265:131,1,85.4999977169037,10|0,0:0|0:0,0:0:0:0:
241,305,31121,1,2,1:2:0:0:
170,131,31279,2,0,P|125:121|78:134,1,85.4999977169037,2|8,1:2|0:0,0:0:0:0:
0,324,31595,1,2,0:0:0:0:
130,218,31753,6,0,L|145:317,1,85.4999977169037,2|2,1:2|1:2,0:0:0:0:
328,384,32069,2,0,L|340:299,1,85.4999977169037,10|2,0:0|0:0,0:0:0:0:
374,97,32384,1,2,1:2:0:0:
241,305,32539,1,0,1:2:0:0:
480,243,32694,1,10,0:0:0:0:
250,111,32850,1,10,0:3:0:0:
250,111,32928,1,8,1:3:0:0:
250,111,33005,6,0,B|220:106|198:79|198:79|216:196,1,170.999995433807,6|10,1:2|0:0,0:0:0:0:
328,384,33488,1,2,0:0:0:0:
398,191,33650,1,2,1:2:0:0:
241,305,33811,1,2,1:2:0:0:
447,379,33972,2,0,L|433:289,1,85.4999977169037,8|2,0:0|0:0,0:0:0:0:
412,97,34284,5,2,1:2:0:0:
327,264,34441,1,2,1:2:0:0:
276,83,34599,1,10,0:0:0:0:
416,212,34757,2,0,P|461:220|505:211,1,85.4999977169037,2|0,0:0|1:2,0:0:0:0:
409,1,35073,1,2,1:2:0:0:
305,177,35231,1,10,0:0:0:0:
511,102,35389,1,2,0:0:0:0:
307,0,35547,6,0,L|217:13,1,85.4999977169037,2|0,1:2|0:0,0:0:0:0:
117,148,35862,2,0,L|207:161,1,85.4999977169037,10|0,0:0|0:0,0:0:0:0:
359,258,36178,1,2,1:2:0:0:
270,91,36336,1,0,1:2:0:0:
213,265,36494,1,10,0:0:0:0:
372,128,36652,1,0,1:2:0:0:
372,128,36731,1,0,1:2:0:0:
372,128,36810,6,0,P|416:118|459:129,1,85.4999977169037,10|2,0:0|1:2,0:0:0:0:
339,345,37126,1,14,0:0:0:0:
270,91,37284,1,8,0:3:0:0:
270,91,37362,1,8,0:3:0:0:
270,91,37441,1,10,0:0:0:0:
454,227,37599,1,8,0:3:0:0:
213,265,37757,1,8,1:3:0:0:
372,128,37911,1,8,0:3:0:0:
339,345,38066,5,6,1:2:0:0:
170,215,42661,5,10,0:3:0:0:
220,67,42816,2,0,L|233:153,1,72,10|2,0:3|0:0,0:0:0:0:
176,303,43125,1,10,0:3:0:0:
109,144,43281,1,10,0:3:0:0:
255,252,43438,1,2,1:2:0:0:
90,269,43594,1,2,1:2:0:0:
263,160,43751,6,0,P|317:153|424:129,2,161.999995056153,6|2|2,1:2|0:0|0:0,0:0:0:0:
135,4,44541,1,0,1:2:0:0:
135,4,44701,2,0,B|115:38|87:53|87:53|110:150,1,161.999995056153,14|0,0:0|1:2,0:0:0:0:
169,330,45177,1,10,0:3:0:0:
22,196,45334,2,0,L|10:278,1,80.9999975280763,10|8,0:3|1:3,0:0:0:0:
258,282,45649,6,0,P|225:247|107:249,1,161.999995056153,6|2,1:2|1:2,0:0:0:0:
294,377,46121,1,2,0:0:0:0:
328,196,46278,1,2,1:2:0:0:
169,330,46439,1,2,1:2:0:0:
411,319,46601,2,0,B|402:260|402:260|423:222|423:222|413:154,1,161.999995056153,10|0,0:0|1:2,0:0:0:0:
397,55,47070,1,0,1:2:0:0:
328,196,47227,1,10,0:0:0:0:
507,88,47390,1,2,0:0:0:0:
305,12,47554,6,0,P|269:60|184:80,1,135,6|0,1:3|0:0,0:0:0:0:
99,89,47871,2,0,P|134:138|127:225,1,135,6|0,1:3|0:0,0:0:0:0:
110,308,48188,2,0,P|167:291|248:324,1,135,6|0,1:3|0:0,0:0:0:0:
322,366,48503,6,0,B|343:303|343:303|311:240,1,135,14|0,1:3|0:0,0:0:0:0:
217,98,48819,2,0,B|261:147|261:147|331:151,1,135,14|0,1:3|0:0,0:0:0:0:
501,141,49133,2,0,B|435:154|435:154|397:213,1,135,14|0,1:3|0:0,0:0:0:0:
236,314,49447,5,10,1:3:0:0:
492,242,49605,1,10,1:3:0:0:
492,242,49921,5,8,1:3:0:0:
210,173,50080,1,10,1:3:0:0:
210,173,50396,5,8,1:3:0:0:
415,377,50555,2,0,P|399:293|383:221,1,144,14|2,0:0|0:0,0:0:0:0:
393,63,51805,6,0,B|448:28|448:28|499:104|450:174,1,215.999993408203,6|0,1:2|1:2,0:0:0:0:
353,368,52288,2,0,L|336:258,1,107.999996704102,10|0,0:0|0:0,0:0:0:0:
301,46,52603,1,2,1:2:0:0:
218,286,52761,1,0,1:2:0:0:
453,169,52919,1,10,0:0:0:0:
184,95,53077,1,2,0:0:0:0:
184,95,53156,1,2,0:0:0:0:
184,95,53235,6,0,B|39:80|39:80|79:88|97:125,1,215.999993408203,2|8,1:2|0:0,0:0:0:0:
155,345,53708,1,0,0:0:0:0:
278,137,53866,1,2,1:2:0:0:
24,222,54024,1,2,1:2:0:0:
292,337,54182,1,8,0:0:0:0:
292,337,54261,1,0,1:2:0:0:
292,337,54340,6,0,B|374:328|374:328|418:360|418:360|510:351,1,215.999993408203,6|0,1:2|1:2,0:0:0:0:
472,124,54813,2,0,P|412:108|358:123,1,107.999996704102,10|0,0:0|0:0,0:0:0:0:
206,271,55129,1,2,1:2:0:0:
303,48,55287,1,0,1:2:0:0:
376,281,55445,1,10,0:0:0:0:
183,74,55603,1,2,0:0:0:0:
183,74,55682,1,2,0:0:0:0:
183,74,55761,6,0,B|147:69|118:37|118:37|140:191,1,215.999993408203,2|8,1:2|0:0,0:0:0:0:
108,384,56235,1,0,0:0:0:0:
41,146,56392,1,2,1:2:0:0:
208,367,56550,1,2,1:2:0:0:
269,113,56708,1,8,0:0:0:0:
0,250,56866,6,0,B|115:213|92:311|217:272,1,215.999993408203,6|0,1:2|1:2,0:0:0:0:
390,97,57340,2,0,P|334:84|285:95,1,107.999996704102,8|0,0:0|0:0,0:0:0:0:
363,314,57656,1,2,1:2:0:0:
491,85,57813,1,2,1:2:0:0:
213,177,57971,1,8,0:0:0:0:
455,378,58129,6,0,B|465:297|465:297|444:249|444:249|454:163,1,215.999993408203,6|0,1:2|1:2,0:0:0:0:
289,0,58603,2,0,P|300:56|287:106,1,107.999996704102,8|0,0:0|0:0,0:0:0:0:
89,276,58915,1,2,1:2:0:0:
201,45,59071,1,2,1:2:0:0:
257,295,59228,1,8,0:0:0:0:
109,0,59384,6,0,B|84:33|46:46|46:46|74:185,1,215.999993408203,6|0,1:2|1:2,0:0:0:0:
250,384,59856,5,10,0:0:0:0:
199,121,60014,1,0,1:2:0:0:
347,341,60172,5,10,0:0:0:0:
398,78,60325,1,2,1:2:0:0:
257,295,60478,5,8,0:0:0:0:
206,32,60640,1,2,1:2:0:0:
206,32,60721,1,0,1:2:0:0:
206,32,60802,6,0,L|278:42,1,53.9999983520508,8|8,0:0|0:0,0:0:0:0:
346,150,60959,2,0,L|272:164,1,53.9999983520508,2|0,1:2|1:2,0:0:0:0:
179,237,61117,5,10,0:3:0:0:
171,252,61196,1,8,0:3:0:0:
166,268,61275,1,0,1:2:0:0:
166,285,61354,1,0,1:2:0:0:
171,301,61433,5,10,0:3:0:0:
214,298,61512,1,8,0:3:0:0:
257,295,61591,1,2,1:2:0:0:
300,292,61670,1,0,1:2:0:0:
343,288,61749,2,0,L|335:227,1,53.9999983520508,8|0,0:0|0:0,0:0:0:0:
396,54,61907,6,0,B|421:87|459:100|459:100|431:239,1,215.999993408203,6|0,1:2|1:2,0:0:0:0:
222,131,62387,2,0,P|278:118|331:133,1,107.999996704102,10|0,0:0|0:0,0:0:0:0:
218,384,62708,1,2,1:2:0:0:
125,155,62865,1,0,1:2:0:0:
343,288,63023,1,10,0:0:0:0:
99,346,63181,1,2,0:0:0:0:
99,346,63260,1,2,0:0:0:0:
99,346,63339,6,0,B|51:377|51:377|-5:305|45:221,1,215.999993408203,2|8,1:2|0:0,0:0:0:0:
252,45,63812,1,0,0:0:0:0:
143,261,63970,1,2,1:2:0:0:
79,27,64128,1,2,1:2:0:0:
252,219,64286,1,8,0:0:0:0:
252,219,64365,1,0,1:2:0:0:
252,219,64444,6,0,B|366:190|346:285|458:249,1,215.999993408203,6|0,1:2|1:2,0:0:0:0:
363,22,64917,2,0,P|347:80|358:126,1,107.999996704102,10|0,0:0|0:0,0:0:0:0:
392,349,65233,1,2,1:2:0:0:
456,132,65391,1,0,1:2:0:0:
290,317,65549,1,10,0:0:0:0:
247,96,65707,1,2,0:0:0:0:
247,96,65786,1,2,0:0:0:0:
247,96,65865,6,0,B|160:86|160:86|124:109|124:109|31:98,1,215.999993408203,2|8,1:2|0:0,0:0:0:0:
202,352,66339,1,2,0:0:0:0:
357,125,66496,1,2,1:2:0:0:
86,209,66654,1,2,1:2:0:0:
366,258,66812,1,8,0:0:0:0:
160,40,66970,6,0,L|191:263,1,215.999993408203,6|0,1:2|1:2,0:0:0:0:
305,340,67444,1,8,0:0:0:0:
86,209,67602,1,2,0:0:0:0:
357,125,67760,1,2,1:2:0:0:
115,298,67917,1,2,1:2:0:0:
396,358,68075,1,8,0:0:0:0:
308,25,68233,6,0,B|283:58|245:71|245:71|268:207,1,215.999993408203,6|0,1:2|1:2,0:0:0:0:
450,277,68707,2,0,P|390:262|337:277,1,107.999996704102,8|0,0:0|0:0,0:0:0:0:
181,384,69020,1,2,1:2:0:0:
165,119,69176,2,0,L|184:235,1,107.999996704102,2|8,1:2|0:0,0:0:0:0:
503,178,69490,6,0,B|444:166|415:120|415:120|376:161|317:161,1,215.999993408203,6|2,1:2|1:2,0:0:0:0:
100,279,69960,1,10,0:0:0:0:
225,35,70119,1,2,0:0:0:0:
357,297,70278,2,0,P|303:310|253:296,1,107.999996704102,2|0,1:2|1:2,0:0:0:0:
52,171,70596,1,10,0:0:0:0:
334,54,70755,6,0,L|318:163,1,107.999996704102,6|0,1:2|0:0,0:0:0:0:
213,382,71069,1,14,0:0:0:0:
144,91,71227,1,12,0:0:0:0:
357,297,71380,1,0,1:2:0:0:
45,322,71533,5,8,0:0:0:0:
45,322,71614,1,8,0:3:0:0:
45,322,71695,2,0,L|36:260,1,53.9999983520508,8|8,0:3|0:3,0:0:0:0:
217,171,71857,2,0,L|209:224,1,53.9999983520508,0|0,1:3|1:3,0:0:0:0:
57,38,72019,6,0,B|169:2|151:97|267:58,1,215.999993408203,6|2,1:2|1:2,0:0:0:0:
420,225,72494,5,10,0:0:0:0:
98,129,72653,1,2,1:2:0:0:
417,46,72811,5,10,0:0:0:0:
170,283,72970,1,0,1:2:0:0:
292,0,73129,5,10,0:0:0:0:
366,326,73288,1,2,1:2:0:0:
206,63,73446,5,8,0:0:0:0:
154,380,73605,1,2,1:2:0:0:
310,109,73764,5,10,0:0:0:0:
62,315,73923,1,2,1:2:0:0:
372,195,74081,5,10,0:0:0:0:
62,92,74240,1,0,1:2:0:0:
260,351,74399,1,10,0:0:0:0:
298,12,74557,6,0,P|361:-5|441:122,1,215.999993408203,6|2,1:2|1:2,0:0:0:0:
382,384,75028,5,8,0:0:0:0:
310,109,75185,1,2,1:2:0:0:
114,346,75342,5,10,0:0:0:0:
189,68,75499,1,2,1:2:0:0:
363,303,75656,5,8,0:0:0:0:
298,12,75813,2,0,L|289:70,1,53.9999983520508,2|0,1:2|1:2,0:0:0:0:
237,379,75971,5,10,0:0:0:0:
402,122,76129,1,2,1:2:0:0:
122,255,76287,5,10,0:0:0:0:
458,269,76445,1,2,1:2:0:0:
189,68,76603,5,10,0:0:0:0:
353,328,76758,1,2,1:2:0:0:
406,21,76914,1,8,0:0:0:0:
212,268,77070,6,0,B|127:258|127:258|91:285|91:285|-1:275,1,215.999993408203,6|2,1:2|1:2,0:0:0:0:
106,0,77542,5,10,0:0:0:0:
353,207,77700,1,2,1:2:0:0:
37,190,77858,5,10,0:0:0:0:
286,1,78016,1,0,1:2:0:0:
226,333,78174,5,10,0:0:0:0:
125,19,78332,1,2,1:2:0:0:
104,373,78490,5,8,0:0:0:0:
217,66,78648,1,2,1:2:0:0:
338,352,78805,5,10,0:0:0:0:
37,190,78963,1,2,1:2:0:0:
361,63,79121,5,10,0:0:0:0:
207,349,79279,1,0,1:2:0:0:
144,0,79437,5,10,0:0:0:0:
417,257,79595,1,0,1:2:0:0:
417,257,79674,1,0,1:2:0:0:
417,257,79753,5,14,0:0:0:0:
32,309,79911,1,0,0:0:0:0:
434,240,80069,5,8,0:0:0:0:
37,190,80227,1,0,1:2:0:0:
342,382,80384,5,10,0:0:0:0:
217,66,80542,1,0,1:2:0:0:
362,364,80700,5,8,0:0:0:0:
342,12,80858,1,0,1:2:0:0:
185,379,81016,6,0,L|167:268,1,107.999996704102,14|0,0:0|1:2,0:0:0:0:
417,122,81338,2,0,L|399:233,1,107.999996704102,14|0,0:0|1:2,0:0:0:0:
116,39,81661,5,10,0:0:0:0:
274,322,81815,1,10,0:0:0:0:
342,12,81970,1,8,0:0:0:0:
152,267,82124,6,0,B|82:239|10:255|10:255|51:242|71:209,1,215.999993408203,6|2,1:2|1:2,0:0:0:0:
116,39,82602,5,8,1:2:0:0:
116,39,82681,1,0,1:2:0:0:
116,39,82761,2,0,P|84:51|55:56,1,53.9999983520508,2|0,1:2|1:2,0:0:0:0:
225,182,82921,5,10,1:2:0:0:
225,182,82999,1,0,1:2:0:0:
225,182,83078,2,0,P|193:170|164:165,1,53.9999983520508,2|0,1:2|1:2,0:0:0:0:
342,12,83235,5,8,1:2:0:0:
342,12,83314,1,0,1:2:0:0:
342,12,83393,2,0,P|310:24|281:29,1,53.9999983520508,2|0,1:2|1:2,0:0:0:0:
506,187,83550,5,10,1:2:0:0:
479,167,83628,1,0,1:2:0:0:
447,166,83707,1,2,1:2:0:0:
419,181,83786,1,0,1:2:0:0:
403,209,83865,1,8,1:2:0:0:
405,242,83944,1,0,1:2:0:0:
425,267,84023,1,2,1:2:0:0:
455,278,84102,1,0,1:2:0:0:
486,272,84181,5,10,1:2:0:0:
442,239,84260,1,0,1:2:0:0:
389,235,84339,1,2,1:2:0:0:
340,261,84418,1,0,1:2:0:0:
315,309,84497,1,8,1:2:0:0:
289,357,84576,1,0,1:2:0:0:
240,384,84655,1,2,1:2:0:0:
186,379,84734,1,0,1:2:0:0:
143,347,84813,5,10,1:2:0:0:
149,304,84891,1,0,1:2:0:0:
155,260,84970,1,2,1:2:0:0:
161,217,85048,1,0,1:2:0:0:
167,173,85127,1,8,1:2:0:0:
173,130,85205,1,0,1:2:0:0:
179,87,85284,1,2,1:2:0:0:
185,44,85362,1,0,1:2:0:0:
191,1,85441,6,0,L|124:11,1,53.9999983520508,10|0,1:2|1:2,0:0:0:0:
316,94,85598,2,0,L|369:101,1,53.9999983520508,2|0,1:2|1:2,0:0:0:0:
167,173,85755,2,0,L|100:183,1,53.9999983520508,10|0,1:2|1:2,0:0:0:0:
340,261,85912,2,0,L|393:268,1,53.9999983520508,2|0,1:2|1:2,0:0:0:0:
143,347,86069,5,10,1:2:0:0:
90,359,86148,1,0,1:2:0:0:
40,340,86226,1,2,1:2:0:0:
6,299,86305,1,0,1:2:0:0:
2,245,86383,1,8,1:2:0:0:
26,196,86462,1,0,1:2:0:0:
74,170,86540,1,2,1:2:0:0:
128,173,86619,1,0,1:2:0:0:
172,205,86697,5,8,0:0:0:0:
210,253,86774,5,8,0:3:0:0:
272,274,86851,5,10,0:0:0:0:
341,253,86928,5,8,0:3:0:0:
382,185,87006,5,8,0:3:0:0:
367,102,87083,5,8,0:0:0:0:
288,54,87176,6,0,B|226:82|169:51|169:51|138:75|138:75|71:40|1:72|1:72|52:64|97:96,1,405,6|2,1:2|0:0,0:0:0:0:
