osu file format v14

[General]
AudioFilename: audio.mp3
AudioLeadIn: 0
PreviewTime: 50772
Countdown: 0
SampleSet: Soft
StackLeniency: 0.6
Mode: 0
LetterboxInBreaks: 0
WidescreenStoryboard: 1

[Editor]
Bookmarks: 17856,47554
DistanceSpacing: 1
BeatDivisor: 4
GridSize: 16
TimelineZoom: 2

[Metadata]
Title:Clattanoia (TV Size)
TitleUnicode:Clattanoia (TV Size)
Artist:OxT
ArtistUnicode:OxT
Creator:fieryrage
Version:GLACEON'S NORMAL
Source:オーバーロード
Tags:overlord anime opening op 大石昌良 masayoshi oishi 大嶋文博 tomohiro oshima tom-h@ck tom hack hello new world japanese english rock browiec dashyy- flask erisu mayuzumi fuyuko kuki1537 glaceon
BeatmapID:3080318
BeatmapSetID:1476842

[Difficulty]
HPDrainRate:3
CircleSize:3
OverallDifficulty:4
ApproachRate:5.5
SliderMultiplier:0.999999999999999
SliderTickRate:1

[Events]
//Background and Video events
0,0,"yep.jpg",0,0
Video,10,"dude dat 2015 anime cgi.mp4"
//Break Periods
2,40185,41536
//Storyboard Layer 0 (Background)
//Storyboard Layer 1 (Fail)
//Storyboard Layer 2 (Pass)
//Storyboard Layer 3 (Foreground)
//Storyboard Layer 4 (Overlay)
//Storyboard Sound Samples

[TimingPoints]
192,300,4,2,5,75,1,0
192,-100,4,2,5,75,0,0
642,324.324324324324,4,2,5,75,1,0
642,-100,4,2,5,75,0,0
1128,300,4,2,5,75,1,0
1128,-100,4,2,5,75,0,0
1278,315.789473684211,4,2,5,80,1,0
1278,-100,4,2,5,80,0,0
1593,320.855614973262,4,2,1,60,1,0
1593,-100,4,2,1,60,0,0
2395,279.06976744186,4,2,1,60,1,0
2395,-100,4,2,1,60,0,0
2534,319.148936170213,4,2,1,85,1,1
2534,-100,4,2,1,85,0,1
2693,319.148936170213,4,2,1,85,1,1
2693,-100,4,2,1,85,0,1
3331,315.789473684211,4,2,1,85,1,1
3331,-100,4,2,1,85,0,1
3962,317.460317460317,4,2,1,85,1,1
3962,-100,4,2,1,85,0,1
5073,320.855614973262,4,2,1,85,1,1
5073,-99.8003992015968,4,2,1,85,0,1
5233,320.855614973262,4,2,1,85,1,1
5233,-100,4,2,1,85,0,1
5874,315.789473684211,4,2,1,85,1,1
5874,-100,4,2,1,85,0,1
6505,315.789473684211,4,2,1,85,1,1
6505,-100,4,2,1,85,0,1
7610,-100,4,2,1,85,0,0
7768,-100,4,2,1,80,0,0
8083,313.31592689295,4,2,5,80,1,0
8083,-100,4,2,5,80,0,0
9022,315.789473684211,4,2,5,80,1,0
9022,-100,4,2,5,80,0,0
11548,317.460317460317,4,2,5,80,1,0
11548,-100,4,2,5,80,0,0
12182,314.13612565445,4,2,5,80,1,0
12182,-100,4,2,5,80,0,0
12810,314.13612565445,4,2,5,80,1,0
12810,-100,4,2,5,80,0,0
14066,315.789473684211,4,2,5,80,1,0
14066,-100,4,2,5,80,0,0
16908,317.460317460317,4,2,5,70,1,0
16908,-100,4,2,5,70,0,0
17066,-100,4,2,5,75,0,0
17384,-100,4,2,5,70,0,0
17542,314.96062992126,4,2,5,75,1,0
17542,-100,4,2,5,75,0,0
17699,-100,4,2,5,70,0,0
17856,317.460317460317,4,2,5,80,1,0
17856,-111.111111111111,4,2,5,80,0,0
18014,-111.111111111111,4,2,1,70,0,0
19125,315.789473684211,4,2,1,70,1,0
19125,-111.111111111111,4,2,1,70,0,0
21967,324.324324324324,4,2,1,70,1,0
21967,-111.111111111111,4,2,1,70,0,0
22291,310.077519379845,4,2,1,75,1,0
22291,-111.111111111111,4,2,1,75,0,0
22446,-111.111111111111,4,2,5,75,0,0
22911,314.13612565445,4,2,5,75,1,0
22911,-111.111111111111,4,2,5,75,0,0
23068,-111.111111111111,4,2,1,70,0,0
24167,319.148936170213,4,2,1,70,1,0
24167,-111.111111111111,4,2,1,70,0,0
25284,-109.89010989011,4,2,1,70,0,0
25443,315.789473684211,4,2,1,70,1,0
25443,-111.111111111111,4,2,1,70,0,0
26074,312.5,4,2,1,70,1,0
26074,-111.111111111111,4,2,1,70,0,0
26699,307.692307692308,4,2,1,75,1,0
26699,-100,4,2,1,75,0,0
27160,315.789473684211,4,2,1,75,1,0
27160,-100,4,2,1,75,0,0
27475,333.333333333333,4,2,1,75,1,0
27475,-100,4,2,1,75,0,0
27808,300,4,2,1,75,1,0
27808,-100,4,2,1,75,0,0
27958,317.460317460317,4,2,5,80,1,0
27958,-105.263157894737,4,2,5,80,0,0
28116,-105.263157894737,4,2,1,75,0,0
29227,315.789473684211,4,2,1,75,1,0
29227,-105.263157894737,4,2,1,75,0,0
32384,310.880829015544,4,2,1,80,1,0
32384,-105.263157894737,4,2,1,80,0,0
32539,-105.263157894737,4,2,5,80,0,0
33005,322.58064516129,4,2,5,80,1,0
33005,-105.263157894737,4,2,5,80,0,0
33166,-105.263157894737,4,2,1,75,0,0
33972,312.5,4,2,1,75,1,0
33972,-105.263157894737,4,2,1,75,0,0
34284,315.789473684211,4,2,1,75,1,0
34284,-105.263157894737,4,2,1,75,0,0
37757,309.278350515464,4,2,1,75,1,0
37757,-105.263157894737,4,2,1,75,0,0
38066,324.324324324324,3,2,1,80,1,0
38066,-105.263157894737,4,2,1,80,0,0
38228,-100,3,2,1,70,0,0
39038,315.789473684211,3,2,1,70,1,0
39038,-100,4,2,1,70,0,0
39985,317.460317460317,3,2,1,70,1,0
39985,-100,4,2,1,70,0,0
40937,314.13612565445,3,2,1,70,1,0
40937,-100,4,2,1,70,0,0
42507,309.278350515464,3,2,1,70,1,0
42507,-111.111111111111,3,2,1,70,0,0
42661,-111.111111111111,3,2,1,75,0,0
43125,313.31592689295,3,2,1,75,1,0
43125,-111.111111111111,3,2,1,75,0,0
43751,315.789473684211,3,2,1,75,1,0
43751,-111.111111111111,3,2,1,75,0,0
44382,319.148936170213,3,2,1,75,1,0
44382,-111.111111111111,3,2,1,75,0,0
44701,-110.132158590308,3,2,1,75,0,0
45020,314.96062992126,3,2,1,75,1,0
45020,-111.111111111111,3,2,1,75,0,0
45649,314.96062992126,4,2,1,75,1,0
45649,-111.111111111111,3,2,1,75,0,0
46278,323.450134770889,3,2,1,75,1,0
46278,-111.111111111111,3,2,1,75,0,0
46601,313.31592689295,3,2,1,75,1,0
46601,-111.111111111111,3,2,1,75,0,0
47227,327.868852459016,3,2,1,75,1,0
47227,-111.111111111111,3,2,1,75,0,0
47554,317.460317460317,6,2,1,80,1,0
47554,-105.263157894737,3,2,1,80,0,0
48188,315.789473684211,6,2,1,80,1,0
48188,-105.263157894737,3,2,1,80,0,0
48819,314.13612565445,6,2,1,80,1,0
48819,-105.263157894737,3,2,1,80,0,0
49447,316.622691292876,4,2,1,75,1,0
49447,-105.263157894737,3,2,1,75,0,0
49605,-105.263157894737,4,2,5,75,0,0
50555,-105.263157894737,4,2,5,80,0,0
50871,329.67032967033,4,2,1,70,1,0
50871,-100,4,2,1,70,0,0
51035,315.789473684211,4,2,1,70,1,0
51035,-100,4,2,1,70,0,0
51666,279.06976744186,4,2,1,70,1,0
51666,-100,4,2,1,70,0,0
51805,322.58064516129,4,2,1,85,1,1
51805,-100,4,2,1,85,0,1
51966,322.58064516129,4,2,1,85,1,1
51966,-100,4,2,1,85,0,1
52288,315.789473684211,4,2,1,85,1,1
52288,-100,4,2,1,85,0,1
53235,315.789473684211,4,2,1,85,1,1
53235,-100,4,2,1,85,0,1
58603,312.5,4,2,1,85,1,1
58603,-100,4,2,1,85,0,1
59384,315.789473684211,4,2,1,85,1,1
59384,-99.7008973080758,4,2,1,85,0,1
59541,315.789473684211,4,2,1,85,1,1
59541,-100,4,2,1,85,0,1
60172,306.122448979592,4,2,1,85,1,1
60172,-100,4,2,1,85,0,1
60478,324.324324324324,4,2,1,85,1,1
60478,-100,4,2,1,85,0,1
60640,-98.6193293885601,4,2,1,85,0,1
60802,315.789473684211,4,2,1,85,1,1
60802,-100,4,2,1,85,0,1
61907,320.855614973262,4,2,1,85,1,1
61907,-99.7008973080758,4,2,1,85,0,1
62067,320.855614973262,4,2,1,85,1,1
62067,-100,4,2,1,85,0,1
62708,315.789473684211,4,2,1,85,1,1
62708,-100,4,2,1,85,0,1
63339,315.789473684211,4,2,1,85,1,1
63339,-100,4,2,1,85,0,1
68707,313.31592689295,4,2,1,85,1,1
68707,-100,4,2,1,85,0,1
69960,318.302387267905,4,2,1,85,1,1
69960,-100,4,2,1,85,0,1
70755,315.789473684211,4,2,1,85,1,1
70755,-99.7008973080758,4,2,1,85,0,1
70912,315.789473684211,4,2,1,85,1,1
70912,-100,4,2,1,85,0,1
71227,306.122448979592,4,2,1,85,1,1
71227,-100,4,2,1,85,0,1
71533,324.324324324324,4,2,1,80,1,1
71533,-100,4,2,1,80,0,1
71695,-100,4,2,1,75,0,1
71857,-100,4,2,1,70,0,1
72019,317.460317460317,4,2,1,85,1,0
72019,-99.8003992015968,4,2,1,85,0,0
72177,317.460317460317,4,2,1,85,1,0
72177,-100,4,2,1,85,0,0
74557,314.13612565445,4,2,1,85,1,0
74557,-100,4,2,1,85,0,0
74714,314.13612565445,4,2,5,85,1,0
74714,-100,4,2,5,85,0,0
75656,315.789473684211,4,2,5,85,1,0
75656,-100,4,2,5,85,0,0
76603,311.688311688312,4,2,1,85,1,0
76603,-100,4,2,1,85,0,0
77070,315.789473684211,4,2,1,85,1,0
77070,-99.7008973080758,4,2,1,85,0,0
77227,315.789473684211,4,2,1,85,1,0
77227,-100,4,2,1,85,0,0
81016,322.58064516129,4,2,1,90,1,0
81016,-100,4,2,1,90,0,0
81661,309.278350515464,4,2,1,90,1,0
81661,-100,4,2,1,90,0,0
82124,319.148936170213,4,2,1,90,1,1
82124,-99.8003992015968,4,2,1,90,0,1
82283,319.148936170213,4,2,5,85,1,1
82283,-100,4,2,5,85,0,1
82921,314.96062992126,4,2,5,85,1,1
82921,-100,4,2,5,85,0,1
83550,315.789473684211,4,2,5,85,1,1
83550,-100,4,2,5,85,0,1
84813,314.13612565445,4,2,5,85,1,1
84813,-100,4,2,5,85,0,1
86697,309.278350515464,4,2,5,85,1,1
86697,-100,4,2,5,85,0,1
87083,375,4,2,5,85,1,1
87083,-100,4,2,5,85,0,1
87176,315.789473684211,4,2,5,90,1,0
87176,-100,4,2,5,90,0,0
87333,315.789473684211,4,2,2,5,1,0
87333,-100,4,2,2,5,0,0
88596,-100,4,2,0,35,0,0

[Colours]
Combo1 : 202,202,202
Combo2 : 217,60,55
Combo3 : 160,64,213
Combo4 : 230,134,240

[HitObjects]
169,71,192,5,10,0:0:0:0:
169,71,342,2,0,L|169:187,1,99.9999999999999,10|10,0:3|0:0,0:0:0:0:
168,220,804,1,10,0:3:0:0:
245,295,1128,1,10,0:0:0:0:
245,295,1278,1,6,1:2:0:0:
245,295,2534,6,0,P|268:253|226:146,1,150,6|10,1:2|0:0,0:0:0:0:
170,87,3331,2,0,L|65:87,1,99.9999999999999,2|10,1:2|0:0,0:0:0:0:
46,183,3962,2,0,L|146:183,1,99.9999999999999,2|8,1:2|0:0,0:0:0:0:
242,159,4596,1,2,1:2:0:0:
242,159,4755,1,2,1:2:0:0:
317,222,5073,6,0,P|376:253|455:209,1,150,6|10,1:2|0:0,0:0:0:0:
492,130,5874,2,0,L|492:20,1,99.9999999999999,2|10,1:2|0:0,0:0:0:0:
391,29,6505,2,0,L|391:129,1,99.9999999999999,2|8,1:2|0:0,0:0:0:0:
447,220,7136,1,10,0:0:0:0:
447,220,7294,2,0,L|447:280,1,50,10|8,0:0|0:0,0:0:0:0:
412,306,7610,6,0,P|363:290|309:312,1,99.9999999999999,6|0,1:2|1:2,0:0:0:0:
221,331,8239,2,0,L|221:386,2,50,2|2|2,0:0|1:2|1:2,0:0:0:0:
160,251,8866,2,0,L|160:201,2,50,2|2|2,0:0|1:2|1:2,0:0:0:0:
82,313,9495,1,2,1:2:0:0:
5,248,9811,1,2,1:2:0:0:
44,155,10127,6,0,P|29:107|45:61,1,99.9999999999999,6|2,1:2|1:2,0:0:0:0:
144,49,10758,2,0,L|144:-1,2,50,2|2|2,0:0|1:2|1:2,0:0:0:0:
214,119,11390,2,0,L|214:169,2,50,2|2|2,0:0|1:2|1:2,0:0:0:0:
290,53,12024,1,2,1:2:0:0:
375,105,12339,1,2,1:2:0:0:
355,203,12653,6,0,P|370:249|356:296,1,99.9999999999999,6|2,1:2|1:2,0:0:0:0:
276,356,13281,2,0,L|209:356,2,50,2|2|2,0:0|1:2|1:2,0:0:0:0:
356,296,13909,2,0,L|406:296,2,50,2|2|2,0:0|1:2|1:2,0:0:0:0:
294,216,14539,1,2,1:2:0:0:
204,261,14855,1,2,1:2:0:0:
126,197,15171,6,0,L|126:88,1,99.9999999999999,6|2,1:2|1:2,0:0:0:0:
214,49,15802,2,0,L|214:-9,2,50,2|2|2,0:0|1:2|1:2,0:0:0:0:
283,121,16434,2,0,L|283:171,2,50,2|2|10,0:0|1:2|0:0,0:0:0:0:
357,54,17066,2,0,L|409:54,1,50,10|8,0:0|0:3,0:0:0:0:
450,80,17384,1,10,0:3:0:0:
479,175,17699,1,8,1:3:0:0:
479,175,17856,6,0,L|479:273,1,89.999997253418,6|10,1:2|0:0,0:0:0:0:
412,325,18490,2,0,P|366:338|323:321,1,89.999997253418,2|10,1:2|0:0,0:0:0:0:
270,254,19125,1,2,1:2:0:0:
186,287,19440,1,10,0:0:0:0:
126,227,19756,1,2,1:2:0:0:
126,227,19914,2,0,P|113:181|130:138,1,89.999997253418,2|4,1:2|0:3,0:0:0:0:
158,110,20388,6,0,L|260:110,2,89.999997253418,2|10|2,1:2|0:0|1:2,0:0:0:0:
122,82,21177,1,2,1:2:0:0:
37,104,21493,1,2,0:0:0:0:
37,104,21651,2,0,L|37:210,1,89.999997253418,2|8,1:2|0:0,0:0:0:0:
68,283,22291,2,0,P|139:307|194:276,1,134.999995880127,2|6,1:2|0:3,0:0:0:0:
223,253,22911,5,6,1:2:0:0:
303,292,23225,1,10,0:0:0:0:
362,224,23539,1,2,1:2:0:0:
362,224,23696,2,0,L|362:126,1,89.999997253418,2|0,1:2|0:0,0:0:0:0:
384,95,24167,1,2,1:2:0:0:
474,73,24486,1,10,0:0:0:0:
474,73,24645,2,0,L|474:163,1,89.999997253418,2|2,0:0|1:2,0:0:0:0:
471,253,25284,6,0,P|416:278|339:236,1,134.999995880127,6|10,0:3|0:0,0:0:0:0:
287,187,26074,2,0,L|287:125,2,44.999998626709,2|0|12,1:2|1:2|0:0,0:0:0:0:
213,245,26699,2,0,L|111:245,1,99.9999999999999,8|2,0:0|1:2,0:0:0:0:
72,218,27160,2,0,P|59:164|86:111,1,99.9999999999999,10|0,0:0|1:2,0:0:0:0:
112,92,27641,2,0,L|168:92,1,50,8|8,0:0|0:3,0:0:0:0:
203,109,27958,5,6,1:2:0:0:
270,41,28275,1,10,0:0:0:0:
355,82,28592,2,0,P|400:68|457:91,1,94.9999974632263,2|10,1:2|0:0,0:0:0:0:
476,116,29069,1,2,0:0:0:0:
476,116,29227,2,0,L|476:210,1,94.9999974632263,2|10,1:2|0:0,0:0:0:0:
421,289,29858,1,2,1:2:0:0:
421,289,30016,2,0,P|376:303|319:280,1,94.9999974632263,2|0,1:2|0:0,0:0:0:0:
301,252,30490,6,0,L|194:252,2,94.9999974632263,2|10|2,1:2|0:0|1:2,0:0:0:0:
341,227,31279,1,2,1:2:0:0:
348,136,31595,1,2,0:0:0:0:
348,136,31753,2,0,L|410:136,2,47.4999987316131,2|2|10,1:2|1:2|0:0,0:0:0:0:
252,116,32384,2,0,L|141:116,1,94.9999974632263,2|10,1:2|0:0,0:0:0:0:
121,94,32850,1,10,0:3:0:0:
121,94,33005,6,0,P|105:136|125:194,1,94.9999974632263,6|10,1:2|0:0,0:0:0:0:
179,254,33650,2,0,L|229:254,1,47.4999987316131,2|2,1:2|1:2,0:0:0:0:
307,199,34128,1,2,0:0:0:0:
307,199,34284,2,0,L|416:199,1,94.9999974632263,2|10,1:2|0:0,0:0:0:0:
445,218,34757,1,2,0:0:0:0:
464,310,35073,2,0,L|519:310,2,47.4999987316131,2|10|2,1:2|0:0|0:0,0:0:0:0:
427,340,35547,5,2,1:2:0:0:
342,296,35862,1,10,0:0:0:0:
277,365,36178,1,2,1:2:0:0:
189,328,36494,1,10,0:0:0:0:
192,233,36810,2,0,L|192:163,1,47.4999987316131,10|2,0:0|1:2,0:0:0:0:
213,143,37126,1,14,0:0:0:0:
161,63,37441,2,0,P|116:52|62:71,1,94.9999974632263,10|8,0:0|1:3,0:0:0:0:
22,142,38066,5,6,1:2:0:0:
256,192,38228,12,2,39985,0:0:0:0:
344,291,42661,6,0,L|344:229,1,44.999998626709,10|10,0:3|0:3,0:0:0:0:
403,179,43125,2,0,L|465:179,2,44.999998626709,10|10|2,0:3|0:3|1:2,0:0:0:0:
370,148,43594,1,2,1:2:0:0:
370,148,43751,6,0,B|334:160|292:149|292:149|274:165|274:165|240:151|193:162,1,179.999994506836,6|2,1:2|0:0,0:0:0:0:
136,225,44701,2,0,P|110:170|187:79,1,179.999994506836,14|10,0:0|0:3,0:0:0:0:
259,63,45649,6,0,L|360:63,2,89.999997253418,6|2|2,1:2|1:2|1:2,0:0:0:0:
240,153,46601,2,0,L|422:153,1,179.999994506836,10|10,0:0|0:0,0:0:0:0:
476,233,47554,6,0,P|488:279|470:327,2,94.9999974632263,6|6|6,1:3|1:3|1:3,0:0:0:0:
420,153,48503,2,0,P|408:107|426:59,1,94.9999974632263,14|14,1:3|1:3,0:0:0:0:
505,111,49133,1,14,1:3:0:0:
496,204,49447,6,0,L|496:258,1,47.4999987316131,10|10,1:3|1:3,0:0:0:0:
411,294,49921,2,0,L|411:246,1,47.4999987316131,8|10,1:3|1:3,0:0:0:0:
336,196,50396,1,8,1:3:0:0:
336,196,50555,1,14,0:0:0:0:
336,196,51805,6,0,P|291:170|197:201,1,150,6|10,1:2|0:0,0:0:0:0:
135,270,52603,2,0,L|21:270,1,99.9999999999999,2|10,1:2|0:0,0:0:0:0:
7,174,53235,2,0,L|107:174,1,99.9999999999999,2|8,1:2|0:0,0:0:0:0:
175,101,53866,1,2,1:2:0:0:
175,101,54024,1,2,1:2:0:0:
262,149,54340,6,0,B|314:124|314:124|410:147,1,150,6|10,1:2|0:0,0:0:0:0:
473,216,55129,2,0,P|488:252|466:315,1,99.9999999999999,2|10,1:2|0:0,0:0:0:0:
381,351,55761,2,0,P|345:366|282:344,1,99.9999999999999,2|8,1:2|0:0,0:0:0:0:
224,280,56392,2,0,L|224:222,1,50,2|2,1:2|1:2,0:0:0:0:
259,195,56708,1,8,0:0:0:0:
259,195,56866,6,0,L|259:82,1,99.9999999999999,6|0,1:2|1:2,0:0:0:0:
236,49,57340,1,8,0:0:0:0:
144,7,57656,2,0,L|77:7,1,50,2|2,1:2|1:2,0:0:0:0:
56,38,57971,1,8,0:0:0:0:
56,38,58129,2,0,L|56:138,1,99.9999999999999,6|0,1:2|1:2,0:0:0:0:
83,181,58603,1,8,0:0:0:0:
22,260,58915,2,0,L|22:319,1,50,2|2,1:2|1:2,0:0:0:0:
50,351,59228,1,8,0:0:0:0:
50,351,59384,6,0,L|206:351,1,150,6|10,1:2|0:0,0:0:0:0:
281,287,60172,2,0,L|281:227,1,50,10|2,0:0|1:2,0:0:0:0:
258,202,60478,1,8,0:0:0:0:
258,202,60640,2,0,P|243:166|265:103,1,99.9999999999999,2|2,1:2|1:2,0:0:0:0:
299,82,61117,1,10,0:3:0:0:
396,61,61433,2,0,L|396:130,1,50,10|2,0:3|1:2,0:0:0:0:
438,148,61749,1,8,0:0:0:0:
438,148,61907,6,0,B|416:188|416:188|436:303,1,150,6|10,1:2|0:0,0:0:0:0:
338,325,62708,2,0,P|291:308|245:323,1,99.9999999999999,2|10,1:2|0:0,0:0:0:0:
146,336,63339,2,0,P|99:351|53:334,1,99.9999999999999,2|8,1:2|0:0,0:0:0:0:
22,245,63970,1,2,1:2:0:0:
22,245,64128,1,2,1:2:0:0:
103,186,64444,6,0,B|158:185|158:185|184:203|184:203|256:203,1,150,6|10,1:2|0:0,0:0:0:0:
347,203,65233,2,0,P|363:156|348:110,1,99.9999999999999,2|10,1:2|0:0,0:0:0:0:
265,53,65865,2,0,L|163:53,1,99.9999999999999,2|8,1:2|0:0,0:0:0:0:
64,56,66496,2,0,L|64:112,1,50,2|2,1:2|1:2,0:0:0:0:
89,155,66812,1,8,0:0:0:0:
89,155,66970,6,0,P|72:201|87:247,1,99.9999999999999,6|0,1:2|1:2,0:0:0:0:
121,285,67444,1,8,0:0:0:0:
215,252,67760,2,0,L|276:252,1,50,2|2,1:2|1:2,0:0:0:0:
316,273,68075,1,8,0:0:0:0:
316,273,68233,2,0,P|332:226|317:180,1,99.9999999999999,6|0,1:2|1:2,0:0:0:0:
281,144,68707,1,8,0:0:0:0:
330,57,69020,2,0,L|389:57,1,50,2|2,1:2|1:2,0:0:0:0:
432,48,69333,1,8,0:0:0:0:
432,48,69490,6,0,L|432:158,1,99.9999999999999,6|2,1:2|1:2,0:0:0:0:
465,183,69960,1,10,0:0:0:0:
415,270,70278,1,2,1:2:0:0:
325,238,70596,1,10,0:0:0:0:
325,238,70755,2,0,L|225:238,1,99.9999999999999,6|14,1:2|0:0,0:0:0:0:
180,264,71227,1,12,0:0:0:0:
103,208,71533,2,0,L|52:208,2,50,8|8|0,0:0|0:3|1:3,0:0:0:0:
145,180,72019,6,0,L|145:80,1,99.9999999999999,6|2,1:2|1:2,0:0:0:0:
167,35,72494,1,10,0:0:0:0:
246,95,72811,1,10,0:0:0:0:
328,37,73129,1,10,0:0:0:0:
328,37,73288,2,0,P|374:21|420:38,1,99.9999999999999,2|2,1:2|1:2,0:0:0:0:
455,73,73764,2,0,L|455:122,1,50,10|2,0:0|1:2,0:0:0:0:
432,167,74081,1,10,0:0:0:0:
479,261,74399,1,10,0:0:0:0:
479,261,74557,6,0,P|432:276|386:259,1,99.9999999999999,6|2,1:2|1:2,0:0:0:0:
347,228,75028,1,8,0:0:0:0:
293,143,75342,1,10,0:0:0:0:
200,179,75656,2,0,L|200:244,1,50,8|2,0:0|1:2,0:0:0:0:
219,275,75971,1,10,0:0:0:0:
139,335,76287,1,10,0:0:0:0:
58,273,76603,2,0,L|2:273,2,50,10|2|8,0:0|1:2|0:0,0:0:0:0:
91,236,77070,6,0,P|107:189|92:143,1,99.9999999999999,6|2,1:2|1:2,0:0:0:0:
58,106,77542,1,10,0:0:0:0:
123,30,77858,1,10,0:0:0:0:
219,71,78174,1,10,0:0:0:0:
219,71,78332,2,0,L|335:71,1,99.9999999999999,2|2,1:2|1:2,0:0:0:0:
359,41,78805,2,0,L|421:40,1,50,10|2,0:0|1:2,0:0:0:0:
450,69,79121,1,10,0:0:0:0:
484,163,79437,1,10,0:0:0:0:
397,213,79753,6,0,L|297:213,1,99.9999999999999,14|8,0:0|0:0,0:0:0:0:
234,134,80384,2,0,L|134:134,1,99.9999999999999,10|8,0:0|0:0,0:0:0:0:
53,189,81016,1,14,0:0:0:0:
71,286,81338,1,14,0:0:0:0:
172,308,81661,2,0,L|172:371,2,50,10|10|8,0:0|0:0|0:0,0:0:0:0:
209,277,82124,6,0,P|269:264|318:290,1,99.9999999999999,6|2,1:2|1:2,0:0:0:0:
401,313,82761,1,2,1:2:0:0:
401,313,82921,2,0,L|401:256,1,50,10|2,1:2|1:2,0:0:0:0:
429,222,83235,1,8,1:2:0:0:
379,135,83550,2,0,L|269:135,1,99.9999999999999,10|8,1:2|1:2,0:0:0:0:
238,161,84023,1,2,1:2:0:0:
238,161,84181,2,0,L|169:161,1,50,10|2,1:2|1:2,0:0:0:0:
143,137,84497,1,8,1:2:0:0:
54,185,84813,6,0,P|41:125|67:76,1,99.9999999999999,10|8,1:2|1:2,0:0:0:0:
90,56,85284,1,2,1:2:0:0:
90,56,85441,2,0,L|152:56,1,50,10|2,1:2|1:2,0:0:0:0:
185,35,85755,1,10,1:2:0:0:
273,80,86069,2,0,L|375:80,1,99.9999999999999,10|8,1:2|1:2,0:0:0:0:
420,63,86540,1,2,1:2:0:0:
481,142,86851,2,0,L|481:202,1,50,10|8,0:0|0:3,0:0:0:0:
456,240,87176,1,6,1:2:0:0:
256,192,87333,12,2,88596,0:0:0:0:
