osu file format v14

[General]
AudioFilename: audio.mp3
AudioLeadIn: 0
PreviewTime: 50772
Countdown: 0
SampleSet: Soft
StackLeniency: 0.4
Mode: 0
LetterboxInBreaks: 0
WidescreenStoryboard: 1

[Editor]
Bookmarks: 17856,47554
DistanceSpacing: 1.3
BeatDivisor: 4
GridSize: 8
TimelineZoom: 1.6

[Metadata]
Title:Clattanoia (TV Size)
TitleUnicode:Clattanoia (TV Size)
Artist:OxT
ArtistUnicode:OxT
Creator:fieryrage
Version:FLASK'S HARD
Source:オーバーロード
Tags:overlord anime opening op 大石昌良 masayoshi oishi 大嶋文博 tomohiro oshima tom-h@ck tom hack hello new world japanese english rock browiec dashyy- flask erisu mayuzumi fuyuko kuki1537 glaceon
BeatmapID:3051946
BeatmapSetID:1476842

[Difficulty]
HPDrainRate:5
CircleSize:3.7
OverallDifficulty:7
ApproachRate:8
SliderMultiplier:1.4
SliderTickRate:1

[Events]
//Background and Video events
0,0,"yep.jpg",0,0
Video,10,"dude dat 2015 anime cgi.mp4"
//Break Periods
//Storyboard Layer 0 (Background)
//Storyboard Layer 1 (Fail)
//Storyboard Layer 2 (Pass)
//Storyboard Layer 3 (Foreground)
//Storyboard Layer 4 (Overlay)
//Storyboard Sound Samples

[TimingPoints]
192,300,4,2,5,75,1,0
192,-100,4,2,5,75,0,0
642,324.324324324324,4,2,5,75,1,0
642,-100,4,2,5,75,0,0
1128,300,4,2,5,75,1,0
1128,-100,4,2,5,75,0,0
1278,315.789473684211,4,2,5,80,1,0
1278,-100,4,2,5,80,0,0
1593,320.855614973262,4,2,1,60,1,0
1593,-100,4,2,1,60,0,0
2395,279.06976744186,4,2,1,60,1,0
2395,-100,4,2,1,60,0,0
2534,319.148936170213,4,2,1,85,1,1
2534,-99.8003992015968,4,2,1,85,0,1
2693,319.148936170213,4,2,1,85,1,1
2693,-100,4,2,1,85,0,1
3331,315.789473684211,4,2,1,85,1,1
3331,-100,4,2,1,85,0,1
3804,-100,4,2,1,85,0,1
3962,317.460317460317,4,2,1,85,1,1
3962,-100,4,2,1,85,0,1
5073,320.855614973262,4,2,1,85,1,1
5073,-100,4,2,1,85,0,1
5233,320.855614973262,4,2,1,85,1,1
5233,-100,4,2,1,85,0,1
5874,315.789473684211,4,2,1,85,1,1
5874,-100,4,2,1,85,0,1
6347,-100,4,2,1,85,0,1
6505,315.789473684211,4,2,1,85,1,1
6505,-100,4,2,1,85,0,1
7531,-100,4,2,1,85,0,0
7610,-100,4,2,1,85,0,1
7768,-100,4,2,1,80,0,1
8083,313.31592689295,4,2,5,80,1,1
8083,-100,4,2,5,80,0,1
9022,315.789473684211,4,2,5,80,1,1
9022,-100,4,2,5,80,0,1
11548,317.460317460317,4,2,5,80,1,1
11548,-100,4,2,5,80,0,1
12182,314.13612565445,4,2,5,80,1,1
12182,-100,4,2,5,80,0,1
12810,314.13612565445,4,2,5,80,1,1
12810,-100,4,2,5,80,0,1
14066,315.789473684211,4,2,5,80,1,1
14066,-100,4,2,5,80,0,1
16908,317.460317460317,4,2,5,70,1,1
16908,-100,4,2,5,70,0,1
17066,-100,4,2,5,75,0,1
17384,-100,4,2,5,70,0,1
17542,314.96062992126,4,2,5,75,1,1
17542,-100,4,2,5,75,0,1
17699,-100,4,2,5,70,0,1
17856,317.460317460317,4,2,5,80,1,0
17856,-100,4,2,5,80,0,0
18014,-100,4,2,1,70,0,0
18173,-100,4,2,1,70,0,0
18490,-100,4,2,1,70,0,0
19125,315.789473684211,4,2,1,70,1,0
19125,-100,4,2,1,70,0,0
21967,324.324324324324,4,2,1,70,1,0
21967,-100,4,2,1,70,0,0
22291,310.077519379845,4,2,1,75,1,0
22291,-100,4,2,1,75,0,0
22446,-100,4,2,5,75,0,0
22911,314.13612565445,4,2,5,75,1,0
22911,-100,4,2,5,75,0,0
23068,-100,4,2,1,70,0,0
24167,319.148936170213,4,2,1,70,1,0
24167,-100,4,2,1,70,0,0
25284,-98.8142292490118,4,2,1,70,0,0
25443,315.789473684211,4,2,1,70,1,0
25443,-100,4,2,1,70,0,0
26074,312.5,4,2,1,70,1,0
26074,-100,4,2,1,70,0,0
26699,307.692307692308,4,2,1,75,1,0
26699,-100,4,2,1,75,0,0
27160,315.789473684211,4,2,1,75,1,0
27160,-100,4,2,1,75,0,0
27475,333.333333333333,4,2,1,75,1,0
27475,-100,4,2,1,75,0,0
27808,300,4,2,1,75,1,0
27808,-100,4,2,1,75,0,0
27958,317.460317460317,4,2,5,80,1,0
27958,-100,4,2,5,80,0,0
28116,-100,4,2,1,75,0,0
29227,315.789473684211,4,2,1,75,1,0
29227,-100,4,2,1,75,0,0
30332,-100,4,2,5,75,0,0
30490,-100,4,2,1,75,0,0
32384,310.880829015544,4,2,1,80,1,0
32384,-100,4,2,1,80,0,0
32539,-100,4,2,5,80,0,0
33005,322.58064516129,4,2,5,80,1,0
33005,-100,4,2,5,80,0,0
33166,-100,4,2,1,75,0,0
33972,312.5,4,2,1,75,1,0
33972,-100,4,2,1,75,0,0
34284,315.789473684211,4,2,1,75,1,0
34284,-100,4,2,1,75,0,0
35547,-100,4,2,1,75,0,0
36099,-100,4,2,1,75,0,0
36178,-100,4,2,1,75,0,0
36494,-100,4,2,1,75,0,0
37757,309.278350515464,4,2,1,75,1,0
37757,-100,4,2,1,75,0,0
38066,324.324324324324,3,2,1,80,1,0
38066,-100,4,2,1,80,0,0
38228,-100,3,2,1,70,0,0
39038,315.789473684211,3,2,1,70,1,0
39038,-133.333333333333,4,2,1,70,0,0
39985,317.460317460317,3,2,1,70,1,0
39985,-133.333333333333,4,2,1,70,0,0
40937,314.13612565445,3,2,1,70,1,0
40937,-133.333333333333,4,2,1,70,0,0
42507,309.278350515464,3,2,1,70,1,0
42507,-133.333333333333,4,2,1,70,0,0
42661,-133.333333333333,4,2,1,75,0,0
43125,313.31592689295,3,2,1,75,1,0
43125,-133.333333333333,4,2,1,75,0,0
43751,315.789473684211,3,2,1,75,1,0
43751,-111.111111111111,4,2,1,75,0,0
44382,319.148936170213,3,2,1,75,1,0
44382,-111.111111111111,4,2,1,75,0,0
44701,-111.111111111111,4,2,1,75,0,0
45020,314.96062992126,3,2,1,75,1,0
45020,-111.111111111111,4,2,1,75,0,0
45177,-111.111111111111,4,2,1,75,0,0
45649,314.96062992126,4,2,1,75,1,0
45649,-111.111111111111,4,2,1,75,0,0
46278,323.450134770889,3,2,1,75,1,0
46278,-111.111111111111,4,2,1,75,0,0
46601,313.31592689295,3,2,1,75,1,0
46601,-111.111111111111,4,2,1,75,0,0
47227,327.868852459016,3,2,1,75,1,0
47227,-111.111111111111,4,2,1,75,0,0
47554,317.460317460317,6,2,1,80,1,0
47554,-100,4,2,1,80,0,0
48188,315.789473684211,6,2,1,80,1,0
48188,-100,4,2,1,80,0,0
48819,314.13612565445,6,2,1,80,1,0
48819,-100,4,2,1,80,0,0
49447,316.622691292876,4,2,1,75,1,0
49447,-100,4,2,1,75,0,0
49605,-100,4,2,5,75,0,0
49842,-100,4,2,5,75,0,0
49921,-100,4,2,5,75,0,0
50317,-100,4,2,5,75,0,0
50396,-100,4,2,5,75,0,0
50555,-83.3333333333333,4,2,5,80,0,0
50788,-100,4,2,5,80,0,0
50871,329.67032967033,4,2,1,70,1,0
50871,-100,4,2,1,70,0,0
51035,315.789473684211,4,2,1,70,1,0
51035,-100,4,2,1,70,0,0
51666,279.06976744186,4,2,1,70,1,0
51666,-100,4,2,1,70,0,0
51805,322.58064516129,4,2,1,85,1,1
51805,-100,4,2,1,85,0,1
51966,322.58064516129,4,2,1,85,1,1
51966,-100,4,2,1,85,0,1
52288,315.789473684211,4,2,1,85,1,1
52288,-100,4,2,1,85,0,1
53077,-100,4,2,1,85,0,1
53235,315.789473684211,4,2,1,85,1,1
53235,-100,4,2,1,85,0,1
55603,-100,4,2,1,85,0,1
55761,-100,4,2,1,85,0,1
58603,312.5,4,2,1,85,1,1
58603,-100,4,2,1,85,0,1
59384,315.789473684211,4,2,1,85,1,1
59384,-99.7008973080758,4,2,1,85,0,1
59541,315.789473684211,4,2,1,85,1,1
59541,-100,4,2,1,85,0,1
59619,-100,4,2,1,85,0,1
59698,-100,4,2,1,85,0,1
60172,306.122448979592,4,2,1,85,1,1
60172,-100,4,2,1,85,0,1
60478,324.324324324324,4,2,1,85,1,1
60478,-100,4,2,1,85,0,1
60802,315.789473684211,4,2,1,85,1,1
60802,-100,4,2,1,85,0,1
61433,-100,4,2,1,85,0,0
61907,320.855614973262,4,2,1,85,1,1
61907,-100,4,2,1,85,0,1
62067,320.855614973262,4,2,1,85,1,1
62067,-100,4,2,1,85,0,1
62708,315.789473684211,4,2,1,85,1,1
62708,-100,4,2,1,85,0,1
63181,-100,4,2,1,85,0,1
63339,315.789473684211,4,2,1,85,1,1
63339,-100,4,2,1,85,0,1
65707,-100,4,2,1,85,0,1
65865,-100,4,2,1,85,0,1
68707,313.31592689295,4,2,1,85,1,1
68707,-100,4,2,1,85,0,1
69725,-100,4,2,1,85,0,1
69803,-100,4,2,1,85,0,1
69960,318.302387267905,4,2,1,85,1,1
69960,-100,4,2,1,85,0,1
70755,315.789473684211,4,2,1,85,1,1
70755,-99.7008973080758,4,2,1,85,0,1
70912,315.789473684211,4,2,1,85,1,1
70912,-100,4,2,1,85,0,1
71227,306.122448979592,4,2,1,85,1,1
71227,-100,4,2,1,85,0,1
71533,324.324324324324,4,2,1,80,1,0
71533,-100,4,2,1,80,0,0
71695,-100,4,2,1,75,0,0
71857,-100,4,2,1,70,0,0
72019,317.460317460317,4,2,1,85,1,1
72019,-99.8003992015968,4,2,1,85,0,1
72177,317.460317460317,4,2,1,85,1,1
72177,-100,4,2,1,85,0,1
74557,314.13612565445,4,2,1,85,1,1
74557,-100,4,2,1,85,0,1
74714,314.13612565445,4,2,5,85,1,1
74714,-100,4,2,5,85,0,1
75656,315.789473684211,4,2,5,85,1,1
75656,-100,4,2,5,85,0,1
76603,311.688311688312,4,2,1,85,1,1
76603,-100,4,2,1,85,0,1
77070,315.789473684211,4,2,1,85,1,1
77070,-99.7008973080758,4,2,1,85,0,1
77227,315.789473684211,4,2,1,85,1,1
77227,-100,4,2,1,85,0,1
81016,322.58064516129,4,2,1,90,1,1
81016,-100,4,2,1,90,0,1
81661,309.278350515464,4,2,1,90,1,0
81661,-100,4,2,1,90,0,0
82124,319.148936170213,4,2,1,90,1,1
82124,-99.8003992015968,4,2,1,90,0,1
82283,319.148936170213,4,2,5,85,1,1
82283,-100,4,2,5,85,0,1
82602,-100,4,2,5,85,0,1
82921,314.96062992126,4,2,5,85,1,1
82921,-100,4,2,5,85,0,1
83550,315.789473684211,4,2,5,85,1,1
83550,-100,4,2,5,85,0,1
84813,314.13612565445,4,2,5,85,1,1
84813,-100,4,2,5,85,0,1
86697,309.278350515464,4,2,5,85,1,1
86697,-100,4,2,5,85,0,1
87083,375,4,2,5,85,1,1
87083,-100,4,2,5,85,0,1
87176,315.789473684211,4,2,5,90,1,0
87176,-100,4,2,5,90,0,0
87254,-100,4,2,5,90,0,0
87333,315.789473684211,4,2,2,5,1,0
87333,-100,4,2,2,5,0,0
88596,-100,4,2,0,35,0,0
88675,-100,4,2,0,35,0,0

[Colours]
Combo1 : 202,202,202
Combo2 : 217,60,55
Combo3 : 160,64,213
Combo4 : 230,134,240

[HitObjects]
57,67,192,5,10,0:0:0:0:
110,140,342,2,0,L|93:225,1,70,10|0,0:3|1:2,0:0:0:0:
36,268,642,1,10,0:0:0:0:
92,339,804,2,0,L|172:331,2,70,10|2|10,0:3|1:2|0:0,0:0:0:0:
177,244,1278,6,0,B|253:259|211:302|310:314,1,140,6|2,1:2|0:0,0:0:0:0:
294,311,2534,6,0,P|299:242|356:198,1,140,6|0,1:2|1:2,0:0:0:0:
428,246,3012,2,0,L|514:233,1,70,10|0,0:0|0:0,0:0:0:0:
460,151,3331,2,0,B|482:106|482:106|457:54,1,105,2|0,1:2|0:0,0:0:0:0:
468,46,3646,2,0,L|389:28,1,70,10|0,0:0|0:0,0:0:0:0:
318,71,3962,6,0,B|259:77|259:77|243:64|243:64|181:71,2,140,2|8|2,1:2|0:0|1:2,0:0:0:0:
355,153,4755,2,0,L|332:228,1,70,2|8,1:2|0:0,0:0:0:0:
348,351,5073,6,0,P|296:369|226:326,1,140,6|0,1:2|1:2,0:0:0:0:
159,268,5553,2,0,L|76:278,1,70,10|0,0:0|0:0,0:0:0:0:
25,343,5874,2,0,B|51:292|51:292|31:237,1,105,2|0,1:2|0:0,0:0:0:0:
21,241,6189,2,0,L|39:163,1,70,10|0,0:0|0:0,0:0:0:0:
118,130,6505,6,0,L|101:-16,2,140,2|8|10,1:2|0:0|0:0,0:0:0:0:
179,196,7294,1,10,0:0:0:0:
179,196,7373,1,8,0:0:0:0:
179,196,7452,1,8,0:0:0:0:
274,103,7610,6,0,P|316:93|380:155,1,140,6|0,1:2|1:2,0:0:0:0:
463,192,8083,1,8,0:0:0:0:
457,101,8239,2,0,L|470:27,2,70,2|2|2,0:0|1:2|1:2,0:0:0:0:
379,148,8709,1,8,0:0:0:0:
382,239,8866,6,0,L|397:308,2,70,2|2|2,0:0|1:2|1:2,0:0:0:0:
301,196,9337,1,8,0:0:0:0:
236,259,9495,2,0,P|200:266|169:258,1,70,2|0,1:2|0:0,0:0:0:0:
148,168,9811,2,0,P|184:161|215:169,1,70,2|8,1:2|0:0,0:0:0:0:
294,60,10127,6,0,P|279:20|186:2,1,140,6|2,1:2|1:2,0:0:0:0:
145,77,10600,1,8,0:0:0:0:
70,24,10758,2,0,L|-2:9,2,70,2|2|2,0:0|1:2|1:2,0:0:0:0:
62,115,11232,1,8,0:0:0:0:
134,170,11390,6,0,L|206:155,2,70,2|2|2,0:0|1:2|1:2,0:0:0:0:
76,241,11865,1,8,0:0:0:0:
29,319,12024,2,0,L|-14:309,2,35,2|0|0,1:2|1:2|1:2,0:0:0:0:
106,365,12339,2,0,B|144:358|144:358|169:329,1,70,2|8,1:2|0:0,0:0:0:0:
231,219,12653,6,0,B|283:227|283:227|295:239|295:239|383:255,1,140,6|2,1:2|1:2,0:0:0:0:
423,320,13124,1,8,0:0:0:0:
456,235,13281,2,0,L|476:159,2,70,2|2|2,0:0|1:2|1:2,0:0:0:0:
391,170,13752,1,8,0:0:0:0:
331,101,13909,6,0,L|312:21,2,70,2|2|2,0:0|1:2|1:2,0:0:0:0:
420,84,14381,1,8,0:0:0:0:
478,153,14539,2,0,P|477:195|462:226,1,70,2|0,1:2|1:2,0:0:0:0:
477,311,14855,2,0,P|440:331|405:333,1,70,2|8,1:2|0:0,0:0:0:0:
282,367,15171,6,0,P|232:339|203:257,1,140,6|2,1:2|1:2,0:0:0:0:
266,200,15644,1,8,0:0:0:0:
212,126,15802,2,0,L|230:53,2,70,2|2|2,0:0|1:2|1:2,0:0:0:0:
132,172,16276,1,8,0:0:0:0:
122,262,16434,6,0,L|48:244,1,70,2|2,0:0|1:2,0:0:0:0:
4,322,16750,1,10,0:0:0:0:
88,355,16908,1,8,0:3:0:0:
88,355,16987,1,8,0:0:0:0:
88,355,17066,1,10,0:0:0:0:
175,331,17225,6,0,P|212:326|249:352,1,70,8|10,0:3|0:3,0:0:0:0:
251,348,17463,1,8,0:0:0:0:
264,345,17542,1,8,0:0:0:0:
277,341,17620,1,8,0:3:0:0:
290,338,17699,1,8,1:3:0:0:
388,250,17856,5,6,1:2:0:0:
450,315,18014,1,2,0:0:0:0:
450,315,18173,2,0,P|474:284|478:248,1,70,10|2,0:0|0:0,0:0:0:0:
436,173,18490,2,0,L|430:62,1,105,2|0,1:2|0:0,0:0:0:0:
422,56,18808,2,0,P|380:52|356:69,1,70,10|0,0:0|0:0,0:0:0:0:
296,134,19125,6,0,P|250:126|211:81,1,105,2|0,1:2|0:0,0:0:0:0:
214,70,19440,1,10,0:0:0:0:
179,146,19598,1,2,0:0:0:0:
235,208,19756,2,0,L|221:283,1,70,2|2,1:2|1:2,0:0:0:0:
142,306,20072,2,0,L|159:383,1,70,8|4,0:0|0:3,0:0:0:0:
51,280,20388,6,0,B|66:221|66:221|59:208|59:208|76:137,2,140,2|10|2,1:2|0:0|1:2,0:0:0:0:
83,365,21177,2,0,P|121:374|161:356,1,70,2|8,1:2|0:0,0:0:0:0:
172,276,21493,1,2,0:0:0:0:
285,344,21651,6,0,L|361:334,1,70,2|6,1:2|1:3,0:0:0:0:
357,245,21967,2,0,L|281:255,1,70,8|6,0:0|0:3,0:0:0:0:
214,203,22291,2,0,B|184:119|235:161|204:56,2,140,2|10|6,1:2|0:0|1:2,0:0:0:0:
143,260,23068,5,2,0:0:0:0:
64,213,23225,1,10,0:0:0:0:
64,213,23382,1,2,0:0:0:0:
113,136,23539,2,0,L|197:149,1,70,2|2,1:2|1:2,0:0:0:0:
257,96,23853,1,8,0:0:0:0:
257,96,24167,6,0,L|246:26,2,70,2|2|10,1:2|1:2|0:0,0:0:0:0:
329,149,24645,1,2,0:0:0:0:
329,149,24964,2,0,P|369:148|392:124,1,70,2|8,1:2|0:0,0:0:0:0:
440,52,25284,6,0,P|470:88|468:180,1,140,6|2,0:3|0:0,0:0:0:0:
400,232,25758,1,10,0:0:0:0:
400,232,25916,1,2,0:0:0:0:
462,299,26074,2,0,L|310:273,1,140,2|12,1:2|0:0,0:0:0:0:
260,340,26542,1,2,1:2:0:0:
177,297,26699,6,0,L|134:310,2,35,8|8|2,0:0|0:3|1:2,0:0:0:0:
242,234,27006,1,2,1:2:0:0:
317,187,27160,2,0,L|361:201,2,35,10|8|10,0:0|0:3|1:3,0:0:0:0:
252,124,27475,1,0,1:2:0:0:
195,53,27641,2,0,L|116:67,1,70,8|8,0:0|0:3,0:0:0:0:
112,68,27883,1,8,0:3:0:0:
98,70,27958,5,6,1:2:0:0:
129,154,28116,1,2,0:0:0:0:
52,203,28275,2,0,L|65:277,1,70,10|2,0:0|0:0,0:0:0:0:
101,355,28592,2,0,P|154:359|200:311,1,105,2|0,1:2|0:0,0:0:0:0:
207,330,28910,2,0,L|291:351,1,70,10|2,0:0|0:0,0:0:0:0:
360,379,29227,6,0,L|381:295,1,70,2|2,1:2|1:2,0:0:0:0:
332,231,29542,1,10,0:0:0:0:
403,173,29700,1,2,0:0:0:0:
453,249,29858,2,0,P|488:244|518:209,2,70,2|2|8,1:2|1:2|0:0,0:0:0:0:
403,173,30332,1,2,0:0:0:0:
403,173,30411,1,2,0:0:0:0:
403,173,30490,6,0,L|290:185,1,105,2|0,1:2|0:0,0:0:0:0:
289,194,30805,2,0,B|270:161|270:161|283:127,1,70,10|0,0:0|0:0,0:0:0:0:
300,41,31121,1,2,1:2:0:0:
379,84,31279,2,0,L|461:99,1,70,2|8,1:2|0:0,0:0:0:0:
512,30,31595,1,2,0:0:0:0:
501,165,31753,6,0,P|506:205|495:235,1,70,2|2,1:2|1:2,0:0:0:0:
405,239,32069,2,0,P|400:199|411:169,1,70,10|2,0:0|0:0,0:0:0:0:
447,319,32384,2,0,B|377:327|377:327|366:334|366:334|306:341,1,140,2|10,1:2|0:0,0:0:0:0:
225,375,32850,1,10,0:3:0:0:
225,375,32928,1,8,1:3:0:0:
225,375,33005,5,6,1:2:0:0:
169,302,33166,1,2,0:0:0:0:
254,270,33327,2,0,L|241:194,1,70,10|2,0:0|0:0,0:0:0:0:
285,120,33650,2,0,L|360:140,2,70,2|2|8,1:2|1:2|0:0,0:0:0:0:
217,58,34128,5,2,0:0:0:0:
217,58,34284,2,0,L|141:69,1,70,2|2,1:2|1:2,0:0:0:0:
93,141,34599,2,0,L|17:130,2,70,10|2|0,0:0|0:0|1:2,0:0:0:0:
158,204,35073,1,2,1:2:0:0:
101,275,35231,2,0,L|115:353,1,70,10|2,0:0|0:0,0:0:0:0:
200,371,35547,6,0,P|245:367|270:309,1,105,2|0,1:2|0:0,0:0:0:0:
285,323,35862,2,0,P|330:319|355:261,1,105,10|0,0:0|0:0,0:0:0:0:
365,259,36178,2,0,P|320:255|295:197,1,105,2|0,1:2|0:0,0:0:0:0:
280,211,36494,2,0,P|235:207|210:149,1,105,10|0,0:0|1:2,0:0:0:0:
205,144,36810,5,10,0:0:0:0:
239,59,36968,1,2,1:2:0:0:
325,86,37126,2,0,L|402:72,1,70,14|8,0:0|0:3,0:0:0:0:
407,72,37362,1,8,0:3:0:0:
420,70,37441,1,10,0:0:0:0:
496,119,37599,1,8,0:3:0:0:
447,198,37757,2,0,L|457:271,1,70,8|8,1:3|0:3,0:0:0:0:
369,260,38066,5,6,1:2:0:0:
213,353,38390,1,2,0:0:0:0:
210,171,38714,1,2,0:0:0:0:
369,260,39038,6,0,P|439:241|459:164,1,157.500006008148,2|2,0:0|0:0,0:0:0:0:
382,181,39669,1,2,0:0:0:0:
382,181,39985,6,0,L|364:66,1,105.000004005432,2|2,0:0|0:0,0:0:0:0:
284,135,40461,1,0,0:0:0:0:
284,135,40619,2,0,L|294:200,1,52.5000020027161,2|0,0:0|0:0,0:0:0:0:
296,315,40937,6,0,B|195:284|238:357|142:320,1,157.500006008148,2|0,0:0|0:0,0:0:0:0:
80,365,41565,2,0,P|57:343|52:320,1,52.5000020027161,2|0,0:0|0:0,0:0:0:0:
0,226,41879,6,0,L|16:160,2,52.5000020027161,2|2|0,0:0|0:0|0:0,0:0:0:0:
88,119,42350,2,0,L|99:171,1,52.5000020027161,2|0,0:0|0:0,0:0:0:0:
112,254,42661,1,10,0:3:0:0:
112,254,42816,2,0,P|168:248|192:192,1,105.000004005432,10|10,0:3|0:3,0:0:0:0:
248,155,43281,2,0,L|239:88,2,52.5000020027161,10|2|2,0:3|1:2|1:2,0:0:0:0:
319,193,43751,6,0,P|353:192|378:170,1,62.9999980773926,6|0,1:2|0:0,0:0:0:0:
456,182,44066,2,0,P|472:152|465:119,1,62.9999980773926,2|0,0:0|0:0,0:0:0:0:
486,44,44382,1,2,0:0:0:0:
486,44,44701,6,0,L|356:30,1,125.999996154785,14|0,0:0|1:2,0:0:0:0:
307,92,45177,1,10,0:3:0:0:
230,63,45334,1,10,0:3:0:0:
230,63,45649,6,0,L|219:-1,2,62.9999980773926,6|2|2,1:2|0:0|1:2,0:0:0:0:
169,118,46121,1,2,0:0:0:0:
213,183,46278,2,0,L|200:255,1,62.9999980773926,2|2,1:2|1:2,0:0:0:0:
133,287,46601,6,0,P|188:277|254:333,1,125.999996154785,10|0,0:0|1:2,0:0:0:0:
244,313,47227,2,0,L|322:301,1,62.9999980773926,10|2,0:0|0:0,0:0:0:0:
437,347,47554,5,6,1:3:0:0:
488,172,47871,1,6,1:3:0:0:
337,69,48188,1,6,1:3:0:0:
193,181,48503,1,14,1:3:0:0:
254,352,48819,1,14,1:3:0:0:
360,205,49133,1,14,1:3:0:0:
360,205,49447,5,10,1:3:0:0:
288,149,49605,1,10,1:3:0:0:
288,149,49921,5,8,1:3:0:0:
208,193,50080,1,10,1:3:0:0:
208,193,50396,5,8,1:3:0:0:
114,95,50555,2,0,B|82:131|90:189|97:185|103:180|115:222|88:268,1,167.999994873047,14|2,0:0|0:0,0:0:0:0:
25,305,51035,6,0,P|77:297|122:349,1,105,2|0,0:0|0:0,0:0:0:0:
126,351,51350,2,0,L|203:337,2,70,2|2|2,0:0|0:0|0:0,0:0:0:0:
274,370,51805,6,0,P|272:299|213:253,1,140,6|0,1:2|1:2,0:0:0:0:
131,244,52288,2,0,L|136:164,1,70,10|0,0:0|0:0,0:0:0:0:
105,88,52603,2,0,B|156:78|156:78|208:110,1,105,2|0,1:2|0:0,0:0:0:0:
208,118,52919,2,0,L|290:106,1,70,10|0,0:0|0:0,0:0:0:0:
352,160,53235,6,0,P|401:161|456:82,1,140,2|8,1:2|0:0,0:0:0:0:
415,13,53708,1,0,0:0:0:0:
290,55,53866,1,2,1:2:0:0:
290,55,54024,2,0,L|205:42,1,70,2|8,1:2|0:0,0:0:0:0:
115,124,54340,6,0,B|128:193|128:193|123:205|123:205|136:271,1,140,6|0,1:2|1:2,0:0:0:0:
121,350,54813,2,0,P|161:351|194:328,1,70,10|0,0:0|0:0,0:0:0:0:
236,260,55129,2,0,L|345:284,1,105,2|0,1:2|0:0,0:0:0:0:
350,291,55445,2,0,B|371:262|371:262|363:225,1,70,10|0,0:0|0:0,0:0:0:0:
439,177,55761,6,0,L|460:33,1,140,2|8,1:2|0:0,0:0:0:0:
369,21,56235,1,0,0:0:0:0:
361,111,56392,2,0,P|325:104|284:38,1,105,2|2,1:2|0:0,0:0:0:0:
282,39,56708,1,8,0:0:0:0:
246,168,56866,6,0,L|266:315,1,140,6|0,1:2|1:2,0:0:0:0:
195,366,57340,2,0,L|123:354,1,70,8|0,0:0|0:0,0:0:0:0:
34,361,57656,2,0,P|42:316|89:274,1,105,2|2,1:2|0:0,0:0:0:0:
99,275,57971,1,8,0:0:0:0:
195,366,58129,6,0,P|247:375|322:321,1,140,6|0,1:2|1:2,0:0:0:0:
409,321,58603,2,0,L|399:247,1,70,8|0,0:0|0:0,0:0:0:0:
467,190,58915,2,0,L|477:110,2,70,2|2|8,1:2|1:2|0:0,0:0:0:0:
335,197,59384,6,0,B|270:205|270:205|263:214|263:214|190:220,1,140,6|0,1:2|1:2,0:0:0:0:
134,281,59856,2,0,L|102:211,1,70,10|0,0:0|1:2,0:0:0:0:
13,193,60172,2,0,L|57:130,1,70,10|2,0:0|1:2,0:0:0:0:
33,52,60478,2,0,L|109:59,1,70,8|2,0:0|1:2,0:0:0:0:
114,66,60721,1,0,1:2:0:0:
126,72,60802,6,0,L|143:119,3,35,8|8|2|0,0:0|0:0|1:2|1:2,0:0:0:0:
169,129,61117,2,0,L|206:124,3,35,10|8|0|0,0:3|0:3|1:2|1:2,0:0:0:0:
235,138,61433,1,10,0:3:0:0:
317,177,61591,2,0,P|350:170|372:137,1,70,2|8,1:2|0:0,0:0:0:0:
452,39,61907,6,0,P|501:71|497:155,1,140,6|0,1:2|1:2,0:0:0:0:
443,215,62387,2,0,L|455:295,1,70,10|0,0:0|0:0,0:0:0:0:
485,371,62708,2,0,P|442:334|382:345,1,105,2|0,1:2|0:0,0:0:0:0:
384,344,63023,2,0,L|314:333,1,70,10|0,0:0|0:0,0:0:0:0:
229,366,63339,6,0,P|223:325|287:245,1,140,2|8,1:2|0:0,0:0:0:0:
350,194,63812,1,0,0:0:0:0:
284,79,63970,1,2,1:2:0:0:
284,79,64128,2,0,L|206:91,1,70,2|8,1:2|0:0,0:0:0:0:
117,181,64444,6,0,B|56:175|56:175|25:96,1,140,6|0,1:2|1:2,0:0:0:0:
14,11,64917,2,0,L|92:27,1,70,10|0,0:0|0:0,0:0:0:0:
150,86,65233,2,0,L|261:61,1,105,2|0,1:2|0:0,0:0:0:0:
266,60,65549,2,0,B|288:95|288:95|281:135,1,70,10|0,0:0|0:0,0:0:0:0:
363,168,65865,6,0,B|355:197|334:208|334:208|356:303,1,140,2|8,1:2|0:0,0:0:0:0:
288,358,66339,1,2,0:0:0:0:
209,312,66496,2,0,L|139:324,2,70,2|2|8,1:2|1:2|0:0,0:0:0:0:
308,224,66970,6,0,B|356:230|356:230|368:242|368:242|451:250,1,140,6|0,1:2|1:2,0:0:0:0:
507,185,67444,1,8,0:0:0:0:
455,109,67602,1,2,0:0:0:0:
366,131,67760,2,0,L|292:120,2,70,2|2|8,1:2|1:2|0:0,0:0:0:0:
284,29,68233,6,0,P|240:46|206:128,1,140,6|0,1:2|1:2,0:0:0:0:
259,202,68707,2,0,L|243:289,1,70,8|0,0:0|0:0,0:0:0:0:
234,361,69020,1,2,1:2:0:0:
143,367,69176,2,0,P|103:364|81:333,1,70,2|8,1:2|0:0,0:0:0:0:
29,221,69490,6,0,P|91:200|114:133,1,140,6|2,1:2|1:2,0:0:0:0:
24,130,69960,2,0,L|11:56,1,70,10|2,0:0|0:0,0:0:0:0:
83,4,70278,2,0,P|130:0|186:74,1,140,2|10,1:2|0:0,0:0:0:0:
250,184,70755,6,0,P|307:186|362:119,1,140,6|14,1:2|0:0,0:0:0:0:
426,63,71227,2,0,L|457:138,1,70,12|0,0:0|1:2,0:0:0:0:
499,199,71533,1,8,0:0:0:0:
496,212,71614,1,8,0:3:0:0:
493,225,71695,1,8,0:3:0:0:
490,238,71776,1,8,0:3:0:0:
488,251,71857,1,0,1:3:0:0:
383,338,72019,6,0,P|345:323|323:231,1,140,6|2,1:2|1:2,0:0:0:0:
355,150,72494,2,0,L|439:170,1,70,10|2,0:0|1:2,0:0:0:0:
482,96,72811,2,0,L|329:58,1,140,10|10,0:0|0:0,0:0:0:0:
265,18,73288,6,0,B|248:55|248:55|258:90,1,70,2|8,1:2|0:0,0:0:0:0:
222,167,73605,2,0,L|235:241,2,70,2|10|2,1:2|0:0|1:2,0:0:0:0:
144,118,74081,2,0,P|97:115|35:183,1,140,10|10,0:0|0:0,0:0:0:0:
16,312,74557,6,0,B|101:315|55:364|156:362,1,140,6|2,1:2|1:2,0:0:0:0:
217,311,75028,2,0,P|221:270|200:235,1,70,8|2,0:0|1:2,0:0:0:0:
136,190,75342,2,0,L|152:108,1,70,10|2,0:0|1:2,0:0:0:0:
208,52,75656,2,0,P|246:47|277:65,1,70,8|2,0:0|1:2,0:0:0:0:
283,70,75892,1,0,1:2:0:0:
289,82,75971,6,0,L|374:70,1,70,10|2,0:0|1:2,0:0:0:0:
437,26,76287,2,0,L|449:111,1,70,10|2,0:0|1:2,0:0:0:0:
506,166,76603,1,10,0:0:0:0:
446,234,76758,2,0,P|410:242|378:224,1,70,2|8,1:2|0:0,0:0:0:0:
260,282,77070,6,0,L|277:118,1,140,6|2,1:2|1:2,0:0:0:0:
223,67,77542,2,0,P|185:55|154:71,1,70,10|2,0:0|1:2,0:0:0:0:
72,34,77858,2,0,P|122:74|126:155,1,140,10|10,0:0|0:0,0:0:0:0:
82,224,78332,6,0,L|11:209,1,70,2|8,1:2|0:0,0:0:0:0:
0,300,78648,1,2,1:2:0:0:
63,364,78805,2,0,L|134:349,1,70,10|2,0:0|1:2,0:0:0:0:
192,280,79121,2,0,P|241:279|294:358,1,140,10|10,0:0|0:0,0:0:0:0:
383,366,79595,1,0,1:2:0:0:
383,366,79674,1,0,1:2:0:0:
383,366,79753,6,0,L|411:223,1,140,14|8,0:0|0:0,0:0:0:0:
485,176,80227,1,0,1:2:0:0:
504,87,80384,2,0,P|480:40|394:29,1,140,10|8,0:0|0:0,0:0:0:0:
337,93,80858,1,0,1:2:0:0:
219,44,81016,6,0,L|149:35,1,70,14|0,0:0|1:2,0:0:0:0:
133,124,81338,2,0,L|203:133,1,70,14|0,0:0|1:2,0:0:0:0:
253,213,81661,1,10,0:0:0:0:
318,275,81815,1,10,0:0:0:0:
340,186,81970,1,8,0:0:0:0:
412,80,82124,6,0,P|460:97|486:188,1,140,6|2,1:2|1:2,0:0:0:0:
447,255,82602,1,8,1:2:0:0:
381,317,82761,1,2,1:2:0:0:
311,256,82921,2,0,L|242:243,2,70,10|2|8,1:2|1:2|1:2,0:0:0:0:
375,191,83393,5,2,1:2:0:0:
310,127,83550,2,0,L|325:53,2,70,10|2|8,1:2|1:2|1:2,0:0:0:0:
224,158,84023,5,2,1:2:0:0:
138,189,84181,2,0,L|149:271,2,70,10|2|8,1:2|1:2|1:2,0:0:0:0:
55,149,84655,5,2,1:2:0:0:
31,60,84813,2,0,P|48:26|83:6,2,70,10|2|8,1:2|1:2|1:2,0:0:0:0:
118,85,85284,5,2,1:2:0:0:
184,22,85441,2,0,L|255:42,1,70,10|2,1:2|1:2,0:0:0:0:
301,116,85755,2,0,L|372:96,1,70,10|2,1:2|1:2,0:0:0:0:
454,127,86069,6,0,L|470:57,2,70,10|2|8,1:2|1:2|1:2,0:0:0:0:
494,208,86540,1,2,1:2:0:0:
436,280,86697,6,0,P|400:280|370:257,1,70,8|10,0:0|0:0,0:0:0:0:
368,247,86928,1,8,0:3:0:0:
365,233,87006,1,8,0:3:0:0:
293,128,87176,5,6,1:2:0:0:
256,192,87333,12,2,88596,0:0:0:0:
