osu file format v14

[General]
AudioFilename: audio.mp3
AudioLeadIn: 0
PreviewTime: 50722
Countdown: 0
SampleSet: Soft
StackLeniency: 0.4
Mode: 0
LetterboxInBreaks: 0
WidescreenStoryboard: 0

[Editor]
DistanceSpacing: 1.2
BeatDivisor: 4
GridSize: 8
TimelineZoom: 2.699999

[Metadata]
Title:Clattanoia (TV Size)
TitleUnicode:Clattanoia (TV Size)
Artist:OxT
ArtistUnicode:OxT
Creator:Nelliel
Version:YGGDRASIL
Source:オーバーロード
Tags:jrock overlord op opening japanese anime masayoshi ooishi kowari blitzifyyy Hello New World j-rock rock Ōishi Tom-H@ck Tom-Hack hotaru Season 1 one 大石昌良
BeatmapID:2960147
BeatmapSetID:1438655

[Difficulty]
HPDrainRate:5.4
CircleSize:4
OverallDifficulty:9
ApproachRate:9.4
SliderMultiplier:1.8
SliderTickRate:1

[Events]
//Background and Video events
0,0,"bg.jpg",0,0
Video,0,"Clattanoia.mp4"
//Break Periods
//Storyboard Layer 0 (Background)
//Storyboard Layer 1 (Fail)
//Storyboard Layer 2 (Pass)
//Storyboard Layer 3 (Foreground)
//Storyboard Layer 4 (Overlay)
//Storyboard Sound Samples

[TimingPoints]
201,300,4,2,1,70,1,0
201,-100,4,2,1,70,0,0
651,324.324324324324,4,2,1,70,1,0
651,-100,4,2,1,70,0,0
1137,300,4,2,1,70,1,0
1287,315.789473684211,4,2,1,70,1,0
1287,-100,4,2,1,70,0,0
1444,-100,4,2,1,70,0,0
1602,320.855614973262,4,2,1,70,1,0
2404,279.06976744186,4,2,1,70,1,0
2543,319.148936170213,4,2,1,85,1,0
2543,-100,4,2,1,85,0,0
2702,319.148936170213,4,2,1,85,1,0
3340,315.789473684211,4,2,1,85,1,0
3971,317.460317460317,4,2,1,85,1,0
5082,320.855614973262,4,2,1,85,1,0
5242,320.855614973262,4,2,1,85,1,0
5883,315.789473684211,4,2,1,85,1,0
6514,315.789473684211,4,2,1,85,1,0
7619,-100,4,2,1,80,0,0
8092,313.31592689295,4,2,1,80,1,0
9031,315.789473684211,4,2,1,80,1,0
11557,317.460317460317,4,2,1,80,1,0
12191,314.13612565445,4,2,1,80,1,0
12819,314.13612565445,4,2,1,80,1,0
14075,315.789473684211,4,2,1,80,1,0
16917,317.460317460317,4,2,1,80,1,0
17551,314.96062992126,4,2,1,80,1,0
17865,317.460317460317,4,2,1,70,1,0
17865,-133.333333333333,4,2,1,70,0,0
19134,315.789473684211,4,2,1,70,1,0
19134,-133.333333333333,4,2,1,70,0,0
21976,324.324324324324,4,2,1,70,1,0
21976,-133.333333333333,4,2,1,70,0,0
22300,310.077519379845,4,2,1,70,1,0
22300,-133.333333333333,4,2,1,70,0,0
22920,314.13612565445,4,2,1,70,1,0
22920,-133.333333333333,4,2,1,70,0,0
24176,319.148936170213,4,2,1,70,1,0
24176,-133.333333333333,4,2,1,70,0,0
25452,315.789473684211,4,2,1,70,1,0
25452,-133.333333333333,4,2,1,70,0,0
26083,312.5,4,2,1,70,1,0
26083,-133.333333333333,4,2,1,70,0,0
26708,307.692307692308,4,2,1,70,1,0
26708,-133.333333333333,4,2,1,70,0,0
27169,315.789473684211,4,2,1,70,1,0
27169,-133.333333333333,4,2,1,70,0,0
27484,333.333333333333,4,2,1,70,1,0
27484,-133.333333333333,4,2,1,70,0,0
27817,300,4,2,1,70,1,0
27817,-133.333333333333,4,2,1,70,0,0
27967,317.460317460317,4,2,1,70,1,0
27967,-117.647058823529,4,2,1,70,0,0
27974,-117.647058823529,4,2,1,75,0,0
29236,315.789473684211,4,2,1,75,1,0
29236,-117.647058823529,4,2,1,75,0,0
32393,310.880829015544,4,2,1,75,1,0
32393,-117.647058823529,4,2,1,75,0,0
33014,322.58064516129,4,2,1,75,1,0
33014,-117.647058823529,4,2,1,75,0,0
33820,-115.606936416185,4,2,1,75,0,0
33981,312.5,4,2,1,75,1,0
33981,-117.647058823529,4,2,1,75,0,0
34293,315.789473684211,4,2,1,75,1,0
34293,-117.647058823529,4,2,1,75,0,0
35556,-90.9090909090909,4,2,1,75,0,0
36819,-117.647058823529,4,2,1,75,0,0
37766,309.278350515464,4,2,1,75,1,0
38075,324.324324324324,3,2,1,60,1,0
38075,-153.846153846153,3,2,1,60,0,0
39047,315.789473684211,3,2,1,60,1,0
39047,-153.846153846153,3,2,1,60,0,0
39994,317.460317460317,3,2,1,60,1,0
39994,-153.846153846153,3,2,1,60,0,0
40946,314.13612565445,3,2,1,60,1,0
40946,-153.846153846153,3,2,1,60,0,0
42516,309.278350515464,3,2,1,60,1,0
42516,-153.846153846153,3,2,1,60,0,0
43134,313.31592689295,3,2,1,60,1,0
43134,-153.846153846153,3,2,1,60,0,0
43760,315.789473684211,3,2,1,60,1,0
43760,-133.333333333333,3,2,1,60,0,0
44391,319.148936170213,3,2,1,60,1,0
44391,-133.333333333333,3,2,1,60,0,0
45029,314.96062992126,3,2,1,60,1,0
45029,-133.333333333333,3,2,1,60,0,0
45658,314.96062992126,4,2,1,60,1,0
45658,-133.333333333333,4,2,1,60,0,0
46287,323.450134770889,3,2,1,60,1,0
46287,-133.333333333333,3,2,1,60,0,0
46610,313.31592689295,3,2,1,60,1,0
46610,-133.333333333333,3,2,1,60,0,0
47236,327.868852459016,3,2,1,60,1,0
47236,-133.333333333333,3,2,1,60,0,0
47552,-133.333333333333,3,2,1,70,0,0
47563,317.460317460317,6,2,1,70,1,0
47563,-100,3,2,1,70,0,0
48197,315.789473684211,6,2,1,70,1,0
48828,314.13612565445,6,2,1,70,1,0
49456,316.622691292876,4,2,1,70,1,0
50880,329.67032967033,4,2,1,70,1,0
51044,315.789473684211,4,2,1,70,1,0
51675,279.06976744186,4,2,1,70,1,0
51814,322.58064516129,4,2,1,85,1,0
51814,-80,4,2,1,85,0,1
51975,322.58064516129,4,2,1,85,1,1
51975,-80,4,2,1,85,0,1
52297,315.789473684211,4,2,1,85,1,0
52297,-80,4,2,1,85,0,1
53244,315.789473684211,4,2,1,85,1,0
53244,-80,4,2,1,85,0,1
58612,312.5,4,2,1,85,1,0
58612,-80,4,2,1,85,0,1
59393,315.789473684211,4,2,1,85,1,0
59393,-80,4,2,1,85,0,1
59550,315.789473684211,4,2,1,85,1,0
59550,-80,4,2,1,85,0,1
60181,306.122448979592,4,2,1,85,1,0
60181,-80,4,2,1,85,0,1
60487,324.324324324324,4,2,1,85,1,0
60487,-80,4,2,1,85,0,1
60811,315.789473684211,4,2,1,85,1,0
60811,-80,4,2,1,85,0,1
61442,-80,4,2,1,75,0,0
61916,320.855614973262,4,2,1,85,1,0
61916,-80,4,2,1,85,0,1
62076,320.855614973262,4,2,1,85,1,1
62076,-80,4,2,1,85,0,1
62717,315.789473684211,4,2,1,85,1,1
62717,-80,4,2,1,85,0,1
63348,315.789473684211,4,2,1,85,1,1
63348,-80,4,2,1,85,0,1
68716,313.31592689295,4,2,1,85,1,1
68716,-80,4,2,1,85,0,1
69969,318.302387267905,4,2,1,85,1,1
69969,-80,4,2,1,85,0,1
70764,315.789473684211,4,2,1,85,1,1
70764,-80,4,2,1,85,0,1
70921,315.789473684211,4,2,1,85,1,1
70921,-80,4,2,1,85,0,1
71236,306.122448979592,4,2,1,85,1,1
71236,-80,4,2,1,85,0,1
71542,324.324324324324,4,2,1,85,1,1
71542,-80,4,2,1,85,0,1
72028,317.460317460317,4,2,1,85,1,0
72028,-80,4,2,1,85,0,0
72186,317.460317460317,4,2,1,85,1,0
72186,-80,4,2,1,85,0,0
74566,314.13612565445,4,2,1,85,1,0
74566,-80,4,2,1,85,0,0
74723,314.13612565445,4,2,1,85,1,0
74723,-80,4,2,1,85,0,0
75665,315.789473684211,4,2,1,85,1,0
75665,-80,4,2,1,85,0,0
76612,311.688311688312,4,2,1,85,1,0
76612,-80,4,2,1,85,0,0
77079,315.789473684211,4,2,1,85,1,0
77079,-80,4,2,1,85,0,0
77236,315.789473684211,4,2,1,85,1,0
77236,-80,4,2,1,85,0,0
81025,322.58064516129,4,2,1,75,1,0
81025,-80,4,2,1,75,0,0
81670,309.278350515464,4,2,1,75,1,0
82133,319.148936170213,4,2,1,80,1,0
82133,-100,4,2,1,80,0,1
82292,319.148936170213,4,2,1,80,1,1
82930,314.96062992126,4,2,1,80,1,1
82930,-90.9090909090909,4,2,1,80,0,1
83559,315.789473684211,4,2,1,80,1,1
83559,-83.3333333333333,4,2,1,80,0,1
84190,-76.9230769230769,4,2,1,80,0,1
84822,314.13612565445,4,2,1,80,1,1
84822,-71.4285714285714,4,2,1,80,0,1
85450,-66.6666666666667,4,2,1,80,0,1
86078,-62.5,4,2,1,80,0,1
86706,309.278350515464,4,2,1,80,1,0
86706,-58.8235294117647,4,2,1,80,0,1
87092,375,4,2,1,60,1,1
87185,315.789473684211,4,2,1,100,1,0
87185,-100,4,2,1,100,0,0
87342,315.789473684211,4,2,1,60,1,0
88605,-100,4,2,1,5,0,0

[Colours]
Combo1 : 143,143,143
Combo2 : 79,128,208
Combo3 : 180,180,180
Combo4 : 101,208,239

[HitObjects]
85,91,201,6,0,L|90:141,1,45,10|8,0:0|3:0,0:0:0:0:
233,109,351,1,10,3:0:0:0:
233,109,426,1,8,3:0:0:0:
233,109,501,2,0,L|183:104,1,45,0|0,1:0|1:0,0:0:0:0:
171,231,651,1,10,0:0:0:0:
171,231,732,1,8,3:0:0:0:
171,231,813,6,0,L|221:226,1,45,10|8,3:0|3:0,0:0:0:0:
341,108,975,2,0,L|320:153,1,45,2|0,1:2|1:0,0:0:0:0:
367,321,1137,2,0,L|337:280,1,45,10|0,0:0|0:0,0:0:0:0:
294,221,1287,1,6,1:2:0:0:
294,205,2543,6,0,B|246:182|199:214|218:239|164:268|99:233,1,180,6|0,1:2|1:0,0:0:0:0:
7,101,3021,2,0,L|19:198,1,90,10|0,0:0|0:0,0:0:0:0:
236,98,3340,2,0,P|202:72|144:88,1,90,2|0,1:2|1:0,0:0:0:0:
264,232,3655,2,0,L|353:220,1,90,8|0,0:0|0:0,0:0:0:0:
475,77,3971,6,0,B|466:138|466:138|456:147|456:147|446:219,1,135,2|0,1:2|0:0,0:0:0:0:
433,238,4288,2,0,L|444:327,1,90,8|0,0:0|0:0,0:0:0:0:
297,129,4605,1,2,1:2:0:0:
506,209,4764,1,2,1:2:0:0:
335,345,4923,1,8,0:0:0:0:
512,205,5082,6,0,B|464:182|417:214|436:239|382:268|317:233,1,180,6|0,1:2|1:0,0:0:0:0:
160,323,5562,2,0,P|203:328|237:301,1,90,10|0,0:0|0:0,0:0:0:0:
165,91,5883,2,0,L|153:194,1,90,2|0,1:2|1:0,0:0:0:0:
309,28,6198,2,0,L|321:131,1,90,8|0,0:0|0:0,0:0:0:0:
91,61,6514,6,0,P|123:15|207:24,1,135,2|0,1:2|0:0,0:0:0:0:
196,15,6829,1,8,0:0:0:0:
262,165,6987,1,0,1:0:0:0:
418,38,7145,1,10,0:0:0:0:
358,273,7303,2,0,L|354:328,1,45,8|10,0:0|0:0,0:0:0:0:
174,168,7461,2,0,L|170:113,1,45,8|8,0:0|0:0,0:0:0:0:
273,324,7619,6,0,B|164:294|164:294|103:338,1,180,6|0,1:2|1:2,0:0:0:0:
0,184,8092,1,8,0:0:0:0:
180,125,8248,1,2,0:0:0:0:
62,0,8405,2,0,L|69:99,1,90,2|2,1:2|1:2,0:0:0:0:
203,221,8718,1,8,0:0:0:0:
268,44,8875,1,2,0:0:0:0:
126,258,9031,6,0,L|119:168,1,90,2|2,1:2|1:2,0:0:0:0:
255,207,9346,1,8,0:0:0:0:
68,341,9504,1,2,1:2:0:0:
68,341,9583,1,0,1:2:0:0:
68,341,9662,1,0,1:2:0:0:
29,81,9820,1,2,1:2:0:0:
215,279,9978,1,8,0:0:0:0:
255,50,10136,6,0,B|317:58|317:58|332:74|332:74|406:83,1,135,6|0,1:2|0:0,0:0:0:0:
382,80,10452,1,0,1:2:0:0:
501,9,10609,1,8,0:0:0:0:
491,192,10767,1,2,0:0:0:0:
385,2,10925,1,2,1:2:0:0:
373,221,11083,1,2,1:2:0:0:
512,87,11241,2,0,L|420:96,1,90,8|2,0:0|0:0,0:0:0:0:
190,189,11557,6,0,L|282:198,1,90,2|2,1:2|1:2,0:0:0:0:
427,321,11874,1,8,0:0:0:0:
194,278,12033,2,0,L|238:273,1,45,2|0,1:2|1:2,0:0:0:0:
360,177,12191,1,0,1:2:0:0:
143,55,12348,2,0,P|120:92|127:135,1,90,2|8,1:2|0:0,0:0:0:0:
377,68,12662,6,0,B|331:37|281:69|296:87|256:121|188:97,1,180,6|0,1:2|1:2,0:0:0:0:
58,11,13133,1,8,0:0:0:0:
46,193,13290,1,2,0:0:0:0:
172,20,13447,2,0,L|181:112,1,90,2|2,1:2|1:2,0:0:0:0:
200,257,13761,1,8,0:0:0:0:
356,154,13918,1,2,0:0:0:0:
317,346,14075,6,0,L|227:337,1,90,2|2,1:2|1:2,0:0:0:0:
75,182,14390,1,8,0:0:0:0:
102,379,14548,1,2,1:2:0:0:
102,379,14627,1,0,1:2:0:0:
102,379,14706,1,0,1:2:0:0:
247,112,14864,1,2,1:2:0:0:
89,296,15022,1,8,0:0:0:0:
298,192,15180,6,0,B|408:217|408:217|479:163,1,180,6|0,1:2|1:2,0:0:0:0:
375,0,15653,2,0,L|389:112,1,90,8|2,0:0|0:0,0:0:0:0:
500,41,15969,1,2,1:2:0:0:
284,94,16127,1,2,1:2:0:0:
436,239,16285,2,0,L|336:214,1,90,8|2,0:0|0:0,0:0:0:0:
156,138,16601,5,2,1:2:0:0:
186,338,16759,1,10,0:0:0:0:
0,193,16917,1,8,0:0:0:0:
41,177,16996,1,8,0:0:0:0:
85,183,17075,1,10,0:0:0:0:
121,209,17155,1,8,0:0:0:0:
155,238,17234,1,8,3:0:0:0:
198,251,17313,1,8,3:0:0:0:
242,242,17393,2,0,L|246:185,1,45,10|8,0:0|0:0,0:0:0:0:
339,298,17551,2,0,L|343:355,1,45,8|8,0:0|3:0,0:0:0:0:
433,228,17708,1,8,3:0:0:0:
259,330,17865,6,0,L|182:324,1,67.5000025749208,4|2,1:2|0:0,0:0:0:0:
87,273,18182,2,0,P|70:246|82:205,1,67.5000025749208,10|2,0:0|0:0,0:0:0:0:
182,151,18499,2,0,L|177:218,1,67.5000025749208,2|2,1:2|1:2,0:0:0:0:
92,61,18817,2,0,L|96:128,1,67.5000025749208,10|2,0:0|0:0,0:0:0:0:
191,19,19134,1,2,1:2:0:0:
191,19,19291,1,2,0:0:0:0:
275,122,19449,1,10,0:0:0:0:
275,122,19607,1,2,0:0:0:0:
341,16,19765,1,2,1:2:0:0:
200,92,19923,1,2,1:2:0:0:
343,176,20081,2,0,L|419:167,1,67.5000025749208,8|0,0:0|0:0,0:0:0:0:
278,314,20397,6,0,B|296:234|234:253|265:168,2,135.000005149842,2|10|2,1:2|0:0|1:2,0:0:0:0:
192,363,21186,2,0,P|142:324|72:344,1,135.000005149842,2|2,1:2|0:0,0:0:0:0:
10,233,21660,2,0,L|77:225,1,67.5000025749208,2|2,1:2|1:2,0:0:0:0:
187,144,21976,1,10,0:0:0:0:
150,286,22138,1,2,0:0:0:0:
55,135,22300,1,2,1:2:0:0:
197,172,22455,1,0,1:2:0:0:
109,13,22610,2,0,L|101:80,1,67.5000025749208,8|0,0:0|0:0,0:0:0:0:
274,69,22920,6,0,P|244:53|206:61,1,67.5000025749208,4|2,1:2|0:0,0:0:0:0:
304,172,23234,1,10,0:0:0:0:
304,172,23391,1,2,0:0:0:0:
399,77,23548,1,2,1:2:0:0:
321,246,23705,2,0,L|254:238,1,67.5000025749208,2|8,1:2|0:0,0:0:0:0:
408,181,24019,1,0,0:0:0:0:
358,334,24176,1,2,1:2:0:0:
358,334,24335,1,2,0:0:0:0:
321,145,24495,1,10,0:0:0:0:
484,224,24654,2,0,L|492:157,1,67.5000025749208,2|0,0:0|1:2,0:0:0:0:
331,224,24973,2,0,B|258:248|258:248|193:213,1,135.000005149842,2|2,1:2|0:0,0:0:0:0:
96,90,25452,6,0,L|86:179,1,67.5000025749208,2|0,1:2|0:0,0:0:0:0:
7,224,25767,2,0,L|-3:135,1,67.5000025749208,10|2,0:0|0:0,0:0:0:0:
103,267,26083,2,0,P|151:229|226:254,1,135.000005149842,2|8,1:2|0:0,0:0:0:0:
287,349,26551,1,2,1:2:0:0:
415,242,26708,5,8,0:0:0:0:
415,242,26784,1,8,3:0:0:0:
415,242,26861,1,0,1:0:0:0:
415,242,26938,1,0,1:0:0:0:
415,242,27015,2,0,L|409:288,1,33.7500012874604,2|0,1:2|0:0,0:0:0:0:
318,173,27169,2,0,L|324:219,1,33.7500012874604,10|8,0:0|3:0,0:0:0:0:
395,117,27326,1,2,1:2:0:0:
376,89,27405,1,0,1:0:0:0:
347,72,27484,1,0,1:2:0:0:
314,70,27567,1,0,0:0:0:0:
283,84,27650,1,8,0:0:0:0:
166,164,27817,1,8,3:0:0:0:
166,164,27892,1,8,3:0:0:0:
166,164,27967,5,4,1:2:0:0:
196,291,28125,1,2,0:0:0:0:
84,121,28284,1,10,0:0:0:0:
32,255,28443,1,2,0:0:0:0:
155,81,28601,2,0,L|242:73,1,76.5000014591217,2|0,1:2|1:2,0:0:0:0:
313,220,28919,2,0,L|226:212,1,76.5000014591217,10|2,0:0|0:0,0:0:0:0:
368,105,29236,5,2,1:2:0:0:
403,272,29393,1,2,1:2:0:0:
512,91,29551,1,10,0:0:0:0:
345,126,29709,1,2,0:0:0:0:
488,242,29867,2,0,L|496:155,1,76.5000014591217,2|2,1:2|1:2,0:0:0:0:
390,290,30183,2,0,P|355:273|318:280,1,76.5000014591217,8|0,0:0|0:0,0:0:0:0:
182,367,30499,6,0,L|164:208,2,153.000002918243,2|10|2,1:2|0:0|1:2,0:0:0:0:
64,275,31288,2,0,L|55:351,1,76.5000014591217,2|8,1:2|0:0,0:0:0:0:
4,200,31604,1,2,0:0:0:0:
161,253,31762,5,2,1:2:0:0:
4,327,31920,1,2,1:2:0:0:
66,110,32078,1,10,0:0:0:0:
140,267,32236,1,2,0:0:0:0:
202,50,32393,2,0,B|252:28|283:63|275:70|307:100|359:79,1,153.000002918243,2|8,1:2|0:0,0:0:0:0:
485,24,32859,1,8,3:0:0:0:
485,24,32937,1,8,3:0:0:0:
488,28,33014,6,0,L|468:117,1,76.5000014591217,4|2,1:2|0:0,0:0:0:0:
385,9,33336,1,10,0:0:0:0:
405,207,33497,1,2,0:0:0:0:
317,47,33659,1,2,1:2:0:0:
337,245,33820,2,0,B|249:268|249:268|188:227,1,153.000002918243,2|2,1:2|0:0,0:0:0:0:
81,132,34293,5,2,1:2:0:0:
25,298,34450,1,2,1:2:0:0:
157,165,34608,1,10,0:0:0:0:
213,331,34766,2,0,B|301:354|301:354|362:313,1,153.000002918243,2|2,0:0|1:2,0:0:0:0:
464,218,35240,1,10,0:0:0:0:
298,126,35398,1,2,0:0:0:0:
424,0,35556,6,0,L|397:154,1,148.50000453186,2|0,1:2|0:0,0:0:0:0:
380,222,35871,2,0,B|304:189|309:273|219:244,1,148.50000453186,10|0,0:0|0:0,0:0:0:0:
182,191,36187,2,0,B|155:241|155:241|185:327,1,148.50000453186,2|0,1:2|0:0,0:0:0:0:
260,361,36503,2,0,L|285:214,1,148.50000453186,10|0,0:0|1:2,0:0:0:0:
303,142,36819,5,10,0:0:0:0:
168,40,36977,1,2,1:2:0:0:
200,206,37135,2,0,L|217:115,1,76.5000014591217,10|0,0:0|1:2,0:0:0:0:
214,130,37371,1,8,3:0:0:0:
214,130,37450,1,10,0:0:0:0:
46,194,37608,1,8,3:0:0:0:
186,319,37766,1,8,3:0:0:0:
118,216,37920,1,0,1:2:0:0:
176,367,38075,6,0,L|257:356,1,58.4999973220826,6|0,1:2|0:0,0:0:0:0:
348,302,38399,2,0,L|289:294,1,58.4999973220826,2|0,0:0|0:0,0:0:0:0:
415,364,38723,2,0,L|473:356,1,58.4999973220826,2|0,0:0|0:0,0:0:0:0:
388,232,39047,6,0,B|370:152|454:150|424:55,1,175.499991966248,2|2,0:0|0:0,0:0:0:0:
308,20,39678,2,0,L|316:94,1,58.4999973220826,2|0,0:0|0:0,0:0:0:0:
237,171,39994,5,2,0:0:0:0:
152,43,40152,1,2,0:0:0:0:
96,183,40311,1,2,0:0:0:0:
222,87,40469,1,2,0:0:0:0:
285,238,40628,1,2,0:0:0:0:
159,142,40786,1,2,0:0:0:0:
87,297,40946,6,0,L|68:113,1,175.499991966248,2|0,0:0|0:0,0:0:0:0:
153,15,41574,1,2,0:0:0:0:
153,15,41731,1,2,0:0:0:0:
170,175,41888,5,2,1:2:0:0:
64,20,42045,1,2,0:0:0:0:
84,247,42202,1,2,0:0:0:0:
190,92,42359,1,2,0:0:0:0:
269,219,42516,1,2,0:0:0:0:
111,116,42670,2,0,L|61:125,1,29.2499986610413,10|0,3:0|0:0,0:0:0:0:
170,175,42825,5,10,3:0:0:0:
277,53,42979,1,2,0:0:0:0:
262,213,43134,1,10,3:0:0:0:
179,75,43290,1,10,3:0:0:0:
327,138,43447,1,10,3:0:0:0:
170,175,43603,1,10,3:0:0:0:
277,53,43760,6,0,L|360:68,1,67.5000025749208,6|0,1:2|0:0,0:0:0:0:
467,166,44075,2,0,L|383:181,1,67.5000025749208,2|0,0:0|1:2,0:0:0:0:
277,279,44391,2,0,L|360:294,1,67.5000025749208,2|0,0:0|1:2,0:0:0:0:
222,212,44710,6,0,B|184:248|184:248|204:357,1,135.000005149842,10|0,0:0|1:2,0:0:0:0:
316,215,45186,1,10,3:0:0:0:
365,275,45343,2,0,L|349:358,1,67.5000025749208,10|8,3:0|3:0,0:0:0:0:
395,203,45658,5,6,1:2:0:0:
395,203,45815,1,2,0:0:0:0:
262,301,45972,1,2,1:2:0:0:
262,301,46130,1,2,0:0:0:0:
265,153,46287,1,2,1:2:0:0:
390,234,46448,1,2,1:2:0:0:
255,139,46610,6,0,B|190:123|197:178|123:165,1,135.000005149842,10|0,0:0|1:2,0:0:0:0:
10,56,47079,1,0,1:2:0:0:
45,192,47236,1,10,0:0:0:0:
45,192,47399,1,2,0:0:0:0:
217,153,47563,6,0,L|118:141,1,90,6|0,1:2|0:0,0:0:0:0:
8,282,47880,2,0,L|107:270,1,90,6|0,1:2|0:0,0:0:0:0:
354,185,48197,2,0,L|364:274,1,90,6|0,1:2|0:0,0:0:0:0:
227,365,48512,2,0,L|237:275,1,90,14|0,1:2|0:0,0:0:0:0:
415,370,48828,2,0,P|458:376|495:352,1,90,14|0,1:2|0:0,0:0:0:0:
512,122,49142,2,0,P|478:99|422:111,1,90,14|0,1:2|0:0,0:0:0:0:
237,222,49456,5,10,1:2:0:0:
160,39,49614,2,0,L|149:128,1,90,8|0,1:2|0:0,0:0:0:0:
0,305,49930,1,8,1:2:0:0:
77,122,50089,2,0,L|87:211,1,90,8|0,1:2|0:0,0:0:0:0:
110,366,50405,1,8,1:2:0:0:
221,237,50564,6,0,B|268:210|321:236|303:259|346:298|402:272,1,180,12|2,1:2|0:0,0:0:0:0:
465,193,51044,1,2,0:0:0:0:
465,193,51201,1,0,0:0:0:0:
365,149,51359,1,2,0:0:0:0:
470,276,51517,2,0,L|457:371,1,90,2|2,0:0|0:0,0:0:0:0:
252,363,51814,6,0,B|276:315|228:262|199:284|166:218|200:159,1,225,4|0,1:2|1:2,0:0:0:0:
361,52,52297,2,0,L|341:177,1,112.5,10|0,0:0|0:0,0:0:0:0:
123,76,52612,2,0,P|163:42|234:58,1,112.5,2|0,1:2|1:2,0:0:0:0:
111,201,52928,2,0,L|-14:181,1,112.5,10|0,0:0|0:0,0:0:0:0:
173,325,53244,6,0,L|350:296,1,168.75,2|0,1:2|0:0,0:0:0:0:
339,298,53559,1,8,0:0:0:0:
292,114,53717,1,0,0:0:0:0:
442,260,53875,1,2,1:2:0:0:
489,76,54033,1,2,1:2:0:0:
283,190,54191,1,8,0:0:0:0:
344,0,54349,6,0,B|396:47|396:47|356:203,1,225,6|0,1:2|1:2,0:0:0:0:
200,323,54822,2,0,L|174:191,1,112.5,10|0,0:0|0:0,0:0:0:0:
54,94,55138,2,0,L|28:226,1,112.5,2|0,1:2|1:2,0:0:0:0:
223,341,55454,2,0,L|197:209,1,112.5,10|0,0:0|0:0,0:0:0:0:
395,110,55770,6,0,B|435:146|435:146|404:267,1,168.75,2|0,1:2|0:0,0:0:0:0:
407,257,56086,1,8,0:0:0:0:
263,139,56244,1,0,0:0:0:0:
181,329,56401,1,2,1:2:0:0:
325,211,56559,2,0,L|337:322,1,112.5,2|8,1:2|0:0,0:0:0:0:
31,263,56875,6,0,B|125:257|125:257|156:285|156:285|256:279,1,225,6|0,1:2|1:2,0:0:0:0:
343,128,57349,2,0,L|231:115,1,112.5,8|0,0:0|0:0,0:0:0:0:
73,20,57665,1,2,1:2:0:0:
266,198,57822,2,0,L|154:210,1,112.5,2|8,1:2|0:0,0:0:0:0:
291,32,58138,6,0,P|381:97|509:69,1,225,6|0,1:2|1:2,0:0:0:0:
355,183,58612,2,0,P|347:237|380:281,1,112.5,8|0,0:0|0:0,0:0:0:0:
488,82,58924,1,2,1:2:0:0:
271,245,59080,1,2,1:2:0:0:
402,19,59237,1,8,0:0:0:0:
185,86,59393,6,0,B|234:179|129:202|192:315,1,225,6|0,1:2|1:2,0:0:0:0:
0,150,59865,2,0,L|119:136,1,112.5,10|0,0:0|1:2,0:0:0:0:
350,15,60181,1,10,0:0:0:0:
149,61,60334,2,0,L|30:47,1,112.5,2|8,1:2|0:0,0:0:0:0:
358,212,60649,6,0,L|351:157,1,56.25,2|0,1:2|1:2,0:0:0:0:
241,34,60811,1,8,0:0:0:0:
241,34,60889,1,8,0:0:0:0:
241,34,60968,2,0,L|234:89,1,56.25,2|8,1:2|3:0,0:0:0:0:
223,337,61126,1,10,3:0:0:0:
198,287,61204,1,8,3:0:0:0:
151,257,61283,1,0,1:2:0:0:
95,256,61362,1,8,3:0:0:0:
47,284,61442,6,0,L|40:219,1,56.25,10|8,3:0|3:0,0:0:0:0:
164,121,61600,2,0,L|157:186,1,56.25,2|0,1:2|1:2,0:0:0:0:
18,22,61758,1,8,0:0:0:0:
266,203,61916,6,0,B|409:170|409:170|473:232,1,225,6|0,1:2|1:2,0:0:0:0:
304,110,62396,2,0,P|276:35|302:5,1,112.5,10|0,0:0|0:0,0:0:0:0:
307,292,62717,2,0,L|196:271,1,112.5,2|0,1:2|1:2,0:0:0:0:
40,143,63032,2,0,L|150:122,1,112.5,10|0,0:0|0:0,0:0:0:0:
102,365,63348,6,0,B|72:262|72:262|133:210,1,168.75,2|0,1:2|0:0,0:0:0:0:
118,222,63663,1,8,0:0:0:0:
288,95,63821,1,0,0:0:0:0:
369,320,63979,1,2,1:2:0:0:
214,178,64137,2,0,L|193:288,1,112.5,2|8,1:2|0:0,0:0:0:0:
475,219,64453,6,0,P|423:152|295:182,1,225,6|0,1:2|1:2,0:0:0:0:
124,318,64926,2,0,L|103:208,1,112.5,10|0,0:0|0:0,0:0:0:0:
261,0,65242,2,0,L|240:110,1,112.5,2|0,1:2|1:2,0:0:0:0:
102,313,65558,2,0,L|81:203,1,112.5,10|0,0:0|0:0,0:0:0:0:
334,294,65874,6,0,P|278:233|193:255,1,168.75,2|0,1:2|0:0,0:0:0:0:
201,248,66190,1,8,0:0:0:0:
434,97,66348,1,2,0:0:0:0:
197,152,66505,1,2,1:2:0:0:
398,222,66663,1,2,1:2:0:0:
238,30,66821,1,8,0:0:0:0:
168,231,66979,6,0,B|47:273|47:273|-31:202,1,225,6|0,1:2|1:2,0:0:0:0:
252,202,67453,2,0,L|240:330,1,112.5,8|2,0:0|0:0,0:0:0:0:
89,131,67769,1,2,1:2:0:0:
308,52,67926,1,2,1:2:0:0:
68,139,68084,1,8,0:0:0:0:
324,46,68242,6,0,B|299:152|405:127|379:258,1,225,6|0,1:2|1:2,0:0:0:0:
244,347,68716,2,0,L|116:335,1,112.5,8|0,0:0|0:0,0:0:0:0:
407,82,69029,1,2,1:2:0:0:
292,257,69185,2,0,L|164:245,1,112.5,2|8,1:2|0:0,0:0:0:0:
24,103,69499,6,0,B|71:38|165:79|165:79|151:166,1,225,6|2,1:2|1:2,0:0:0:0:
52,325,69969,2,0,L|40:197,1,112.5,10|2,0:0|0:0,0:0:0:0:
288,274,70287,2,0,P|238:246|176:263,1,112.5,2|0,1:2|1:2,0:0:0:0:
483,169,70605,1,10,0:0:0:0:
412,372,70764,6,0,L|401:259,1,112.5,6|0,1:2|0:0,0:0:0:0:
463,91,71078,1,10,0:0:0:0:
288,274,71236,2,0,L|299:161,1,112.5,8|0,0:0|1:2,0:0:0:0:
209,26,71542,1,8,0:0:0:0:
158,5,71623,1,8,3:0:0:0:
103,16,71704,1,8,3:0:0:0:
65,56,71785,1,8,3:0:0:0:
49,112,71866,2,0,L|55:188,1,56.25,8|8,3:0|3:0,0:0:0:0:
77,330,72028,6,0,B|128:363|186:334|165:303|237:255|300:303,1,225,6|2,1:2|1:2,0:0:0:0:
451,170,72503,1,10,0:0:0:0:
371,373,72662,1,2,1:2:0:0:
324,92,72820,1,10,0:0:0:0:
404,295,72979,1,0,1:2:0:0:
512,86,73138,1,10,0:0:0:0:
309,166,73297,1,2,1:2:0:0:
185,0,73455,5,8,0:0:0:0:
388,80,73614,1,2,1:2:0:0:
172,253,73773,1,10,0:0:0:0:
252,50,73932,1,2,1:2:0:0:
387,251,74090,1,10,0:0:0:0:
184,171,74249,1,0,1:2:0:0:
305,370,74408,1,10,0:0:0:0:
172,155,74566,6,0,B|110:94|31:133|31:133|35:222,1,225,6|0,1:2|1:2,0:0:0:0:
256,109,75037,1,8,0:0:0:0:
160,312,75194,1,0,1:2:0:0:
179,56,75351,1,8,0:0:0:0:
275,259,75508,1,0,1:2:0:0:
429,90,75665,1,8,0:0:0:0:
226,186,75822,1,0,1:2:0:0:
226,186,75901,1,0,1:2:0:0:
226,186,75980,5,8,0:0:0:0:
458,324,76138,1,0,1:2:0:0:
362,121,76296,1,8,0:0:0:0:
130,259,76454,1,0,1:2:0:0:
250,44,76612,1,10,0:0:0:0:
304,266,76767,1,2,1:2:0:0:
89,146,76923,1,8,0:0:0:0:
144,357,77079,6,0,B|284:381|284:381|353:316,1,225,6|2,1:2|1:2,0:0:0:0:
479,173,77551,1,10,0:0:0:0:
254,86,77709,1,2,1:2:0:0:
410,373,77867,1,10,0:0:0:0:
497,148,78025,1,0,1:2:0:0:
216,212,78183,1,10,0:0:0:0:
441,299,78341,1,2,1:2:0:0:
254,86,78499,5,8,0:0:0:0:
351,306,78657,1,2,1:2:0:0:
413,59,78814,1,10,0:0:0:0:
284,262,78972,1,2,1:2:0:0:
144,40,79130,1,10,0:0:0:0:
347,169,79288,1,0,1:2:0:0:
49,238,79446,1,10,0:0:0:0:
178,35,79604,1,0,1:2:0:0:
239,289,79762,6,0,L|354:276,1,112.5,10|0,0:0|0:0,0:0:0:0:
484,132,80078,1,8,0:0:0:0:
406,368,80236,1,0,1:2:0:0:
269,185,80393,2,0,L|154:172,1,112.5,10|0,0:0|1:2,0:0:0:0:
24,28,80709,1,8,0:0:0:0:
102,264,80867,1,0,1:2:0:0:
325,116,81025,6,0,P|344:72|312:4,1,112.5,14|0,0:0|1:2,0:0:0:0:
264,263,81347,2,0,P|311:267|366:216,1,112.5,10|0,0:0|1:2,0:0:0:0:
104,68,81670,1,10,0:0:0:0:
212,360,81824,1,10,1:2:0:0:
469,104,81979,1,8,1:2:0:0:
197,209,82133,6,0,B|234:184|277:206|261:228|314:264|361:228,1,180,6|0,1:2|1:0,0:0:0:0:
47,339,82611,1,8,1:2:0:0:
25,303,82690,1,0,1:0:0:0:
28,262,82770,1,2,1:2:0:0:
53,230,82850,1,0,1:0:0:0:
92,218,82930,6,0,L|150:226,3,49.5000015106202,10|0|2|0,1:2|1:0|1:2|1:0,0:0:0:0:
50,124,83244,2,0,L|-8:132,3,49.5000015106202,8|0|2|0,1:2|1:0|1:2|1:0,0:0:0:0:
101,37,83559,5,10,1:2:0:0:
144,6,83637,1,0,1:0:0:0:
197,5,83716,1,2,1:2:0:0:
241,35,83795,1,0,1:0:0:0:
261,84,83874,1,8,1:2:0:0:
280,133,83953,1,0,1:0:0:0:
325,162,84032,1,2,1:2:0:0:
378,162,84111,1,0,1:0:0:0:
421,131,84190,6,0,P|415:102|413:61,3,58.4999973220826,10|0|2|0,1:2|1:0|1:2|1:0,0:0:0:0:
496,222,84506,2,0,P|493:251|487:279,3,58.4999973220826,8|0|2|0,1:2|1:0|1:2|1:0,0:0:0:0:
496,81,84822,5,10,1:2:0:0:
439,54,84900,1,0,1:0:0:0:
376,51,84979,1,2,1:2:0:0:
318,74,85057,1,0,1:0:0:0:
271,116,85136,1,8,1:2:0:0:
226,160,85214,1,0,1:0:0:0:
172,190,85293,1,2,1:2:0:0:
109,190,85371,1,0,1:0:0:0:
55,158,85450,6,0,L|47:74,3,67.5000025749208,10|0|2|0,1:2|1:0|1:2|1:0,0:0:0:0:
230,232,85764,2,0,L|222:299,3,67.5000025749208,8|0|2|0,1:2|1:0|1:2|1:0,0:0:0:0:
397,384,86078,5,10,1:2:0:0:
459,352,86157,1,0,1:0:0:0:
484,286,86235,1,2,1:2:0:0:
457,221,86314,1,0,1:0:0:0:
393,193,86392,1,8,1:2:0:0:
328,164,86471,1,0,1:0:0:0:
301,99,86549,1,2,1:2:0:0:
326,33,86628,1,0,1:0:0:0:
389,2,86706,6,0,L|399:84,1,76.5000014591217,8|8,1:2|0:0,0:0:0:0:
260,284,86860,1,10,0:2:0:0:
260,284,86937,1,8,0:0:0:0:
260,284,87015,2,0,L|270:202,1,76.5000014591217,8|8,0:0|0:0,0:0:0:0:
90,21,87185,5,6,1:2:0:0:
256,192,87263,12,0,88605,0:0:0:0:
