osu file format v14

[General]
AudioFilename: audio.mp3
AudioLeadIn: 0
PreviewTime: 50722
Countdown: 0
SampleSet: Soft
StackLeniency: 0.3
Mode: 0
LetterboxInBreaks: 0
WidescreenStoryboard: 1

[Editor]
Bookmarks: 46519
DistanceSpacing: 1
BeatDivisor: 4
GridSize: 8
TimelineZoom: 1.9

[Metadata]
Title:Clattanoia (TV Size)
TitleUnicode:Clattanoia (TV Size)
Artist:OxT
ArtistUnicode:OxT
Creator:Nelliel
Version:NORMAL
Source:オーバーロード
Tags:jrock overlord op opening japanese anime masayoshi ooishi kowari blitzifyyy Hello New World j-rock rock Ōishi Tom-H@ck Tom-Hack hotaru Season 1 one 大石昌良
BeatmapID:2960190
BeatmapSetID:1438655

[Difficulty]
HPDrainRate:3.5
CircleSize:3
OverallDifficulty:4
ApproachRate:5.5
SliderMultiplier:0.999999999999999
SliderTickRate:1

[Events]
//Background and Video events
0,0,"bg.jpg",0,0
Video,0,"Clattanoia.mp4"
//Break Periods
//Storyboard Layer 0 (Background)
//Storyboard Layer 1 (Fail)
//Storyboard Layer 2 (Pass)
//Storyboard Layer 3 (Foreground)
//Storyboard Layer 4 (Overlay)
//Storyboard Sound Samples

[TimingPoints]
201,300,4,2,1,70,1,0
651,324.324324324324,4,2,1,70,1,0
1137,300,4,2,1,70,1,0
1287,315.789473684211,4,2,1,70,1,0
1602,320.855614973262,4,2,1,70,1,0
2404,279.06976744186,4,2,1,70,1,0
2543,319.148936170213,4,2,1,85,1,0
2702,319.148936170213,4,2,1,85,1,0
3340,315.789473684211,4,2,1,85,1,0
3971,317.460317460317,4,2,1,85,1,0
5082,320.855614973262,4,2,1,85,1,0
5242,320.855614973262,4,2,1,85,1,0
5883,315.789473684211,4,2,1,85,1,0
6514,315.789473684211,4,2,1,85,1,0
7619,-100,4,2,1,80,0,0
8092,313.31592689295,4,2,1,80,1,0
9031,315.789473684211,4,2,1,80,1,0
11557,317.460317460317,4,2,1,80,1,0
12191,314.13612565445,4,2,1,80,1,0
12819,314.13612565445,4,2,1,80,1,0
14075,315.789473684211,4,2,1,80,1,0
16917,317.460317460317,4,2,1,80,1,0
17393,-99.502487562189,4,2,1,80,0,0
17551,314.96062992126,4,2,1,80,1,0
17865,317.460317460317,4,2,1,70,1,0
19134,315.789473684211,4,2,1,70,1,0
21976,324.324324324324,4,2,1,70,1,0
22300,310.077519379845,4,2,1,70,1,0
22920,314.13612565445,4,2,1,70,1,0
24176,319.148936170213,4,2,1,70,1,0
25452,315.789473684211,4,2,1,70,1,0
26083,312.5,4,2,1,70,1,0
26708,307.692307692308,4,2,1,70,1,0
27169,315.789473684211,4,2,1,70,1,0
27484,333.333333333333,4,2,1,70,1,0
27817,300,4,2,1,70,1,0
27967,317.460317460317,4,2,1,70,1,0
27974,-100,4,2,1,75,0,0
29236,315.789473684211,4,2,1,75,1,0
32393,310.880829015544,4,2,1,75,1,0
33014,322.58064516129,4,2,1,75,1,0
33820,-98.5221674876847,4,2,1,75,0,0
33981,312.5,4,2,1,75,1,0
34293,315.789473684211,4,2,1,75,1,0
37766,309.278350515464,4,2,1,75,1,0
38075,324.324324324324,3,2,1,60,1,0
39047,315.789473684211,3,2,1,60,1,0
39994,317.460317460317,3,2,1,60,1,0
40946,314.13612565445,3,2,1,60,1,0
42516,309.278350515464,3,2,1,60,1,0
43134,313.31592689295,3,2,1,60,1,0
43760,315.789473684211,3,2,1,60,1,0
44391,319.148936170213,3,2,1,60,1,0
44710,-99.502487562189,3,2,1,60,0,0
45029,314.96062992126,3,2,1,60,1,0
45658,314.96062992126,4,2,1,60,1,0
46287,323.450134770889,3,2,1,60,1,0
46610,313.31592689295,3,2,1,60,1,0
47236,327.868852459016,3,2,1,60,1,0
47552,-100,3,2,1,70,0,0
47563,317.460317460317,6,2,1,70,1,0
48197,315.789473684211,6,2,1,70,1,0
48828,314.13612565445,6,2,1,70,1,0
49456,316.622691292876,4,2,1,70,1,0
50880,329.67032967033,4,2,1,70,1,0
51044,315.789473684211,4,2,1,70,1,0
51675,279.06976744186,4,2,1,70,1,0
51814,322.58064516129,4,2,1,85,1,1
51975,322.58064516129,4,2,1,85,1,1
52297,315.789473684211,4,2,1,85,1,1
53244,315.789473684211,4,2,1,85,1,1
58612,312.5,4,2,1,85,1,1
59393,315.789473684211,4,2,1,85,1,1
59550,315.789473684211,4,2,1,85,1,1
60181,306.122448979592,4,2,1,85,1,1
60487,324.324324324324,4,2,1,85,1,1
60649,-98.5221674876847,4,2,1,85,0,1
60811,315.789473684211,4,2,1,85,1,1
61442,-100,4,2,1,75,0,0
61916,320.855614973262,4,2,1,85,1,1
61916,-99.502487562189,4,2,1,85,0,1
62076,320.855614973262,4,2,1,85,1,1
62717,315.789473684211,4,2,1,85,1,1
63348,315.789473684211,4,2,1,85,1,1
68716,313.31592689295,4,2,1,85,1,1
69969,318.302387267905,4,2,1,85,1,1
70764,315.789473684211,4,2,1,85,1,1
70921,315.789473684211,4,2,1,85,1,1
71236,306.122448979592,4,2,1,85,1,1
71542,324.324324324324,4,2,1,85,1,1
72028,317.460317460317,4,2,1,85,1,0
72186,317.460317460317,4,2,1,85,1,0
74566,314.13612565445,4,2,1,85,1,0
74723,314.13612565445,4,2,1,85,1,0
75665,315.789473684211,4,2,1,85,1,0
76612,311.688311688312,4,2,1,85,1,0
77079,315.789473684211,4,2,1,85,1,0
77236,315.789473684211,4,2,1,85,1,0
81025,322.58064516129,4,2,1,75,1,0
81670,309.278350515464,4,2,1,75,1,0
82133,319.148936170213,4,2,1,80,1,1
82292,319.148936170213,4,2,1,80,1,1
82930,314.96062992126,4,2,1,80,1,1
83559,315.789473684211,4,2,1,80,1,1
84822,314.13612565445,4,2,1,80,1,1
86706,309.278350515464,4,2,1,80,1,1
87092,375,4,2,1,60,1,1
87185,315.789473684211,4,2,1,100,1,0
87342,315.789473684211,4,2,1,60,1,0
88605,-100,4,2,1,5,0,0

[Colours]
Combo1 : 143,143,143
Combo2 : 79,128,208
Combo3 : 180,180,180
Combo4 : 101,208,239

[HitObjects]
256,192,201,12,6,1287,1:2:0:0:
56,59,2543,6,0,B|133:43|126:112|205:92,1,150,6|10,1:2|0:0,0:0:0:0:
276,32,3340,2,0,L|290:141,1,99.9999999999999,2|8,1:2|0:0,0:0:0:0:
349,211,3971,1,2,1:2:0:0:
433,157,4288,1,8,0:0:0:0:
496,234,4605,2,0,L|489:288,1,50,2|2,1:2|1:2,0:0:0:0:
417,353,5082,6,0,P|372:326|317:340,1,99.9999999999999,6|0,1:2|1:0,0:0:0:0:
287,364,5562,1,10,0:0:0:0:
204,306,5883,2,0,L|96:319,1,99.9999999999999,2|8,1:2|0:0,0:0:0:0:
26,256,6514,1,2,1:2:0:0:
93,182,6829,2,0,L|146:188,1,50,8|0,0:0|1:0,0:0:0:0:
183,159,7145,2,0,P|168:116|193:60,1,99.9999999999999,10|8,0:0|0:0,0:0:0:0:
222,31,7619,6,0,L|327:44,1,99.9999999999999,6|0,1:2|1:2,0:0:0:0:
381,123,8248,2,0,L|430:120,2,50,2|2|2,0:0|1:2|1:2,0:0:0:0:
438,211,8875,1,2,0:0:0:0:
438,211,9031,2,0,L|435:271,1,50,2|2,1:2|1:2,0:0:0:0:
350,313,9504,2,0,L|345:213,1,99.9999999999999,2|2,1:2|1:2,0:0:0:0:
274,141,10136,6,0,P|230:124|174:147,1,99.9999999999999,6|0,1:2|1:2,0:0:0:0:
91,184,10767,2,0,L|41:181,2,50,2|2|2,0:0|1:2|1:2,0:0:0:0:
65,92,11399,1,2,0:0:0:0:
65,92,11557,2,0,L|115:89,1,50,2|2,1:2|1:2,0:0:0:0:
202,40,12033,1,2,1:2:0:0:
282,99,12348,1,2,1:2:0:0:
361,37,12662,6,0,L|372:146,1,99.9999999999999,6|0,1:2|1:2,0:0:0:0:
426,219,13290,2,0,L|420:273,2,50,2|2|2,0:0|1:2|1:2,0:0:0:0:
336,258,13918,1,2,0:0:0:0:
336,258,14075,2,0,L|341:312,1,50,2|2,1:2|1:2,0:0:0:0:
258,364,14548,2,0,P|219:337|158:353,1,99.9999999999999,2|2,1:2|1:2,0:0:0:0:
74,378,15180,6,0,L|62:266,1,99.9999999999999,6|0,1:2|1:2,0:0:0:0:
123,198,15811,2,0,L|128:148,2,50,2|2|2,0:0|1:2|1:2,0:0:0:0:
36,151,16443,1,2,0:0:0:0:
36,151,16601,2,0,L|30:101,1,50,2|10,1:2|0:0,0:0:0:0:
115,47,17075,1,10,0:0:0:0:
204,91,17393,2,0,L|315:81,1,99.9999999999999,10|8,0:0|3:0,0:0:0:0:
353,74,17865,5,4,1:2:0:0:
421,146,18182,1,10,0:0:0:0:
357,223,18499,2,0,L|257:214,1,99.9999999999999,2|10,1:2|0:0,0:0:0:0:
181,148,19134,1,2,1:2:0:0:
113,220,19449,1,10,0:0:0:0:
168,303,19765,2,0,L|217:298,1,50,2|2,1:2|1:2,0:0:0:0:
268,295,20081,1,8,0:0:0:0:
361,330,20397,6,0,L|372:207,2,99.9999999999999,2|10|2,1:2|0:0|1:2,0:0:0:0:
355,379,21186,1,2,1:2:0:0:
458,370,21502,1,2,0:0:0:0:
458,370,21660,1,2,1:2:0:0:
472,270,21976,1,10,0:0:0:0:
383,222,22300,2,0,L|371:99,1,99.9999999999999,2|8,1:2|0:0,0:0:0:0:
282,81,22920,6,0,L|273:180,1,99.9999999999999,4|10,1:2|0:0,0:0:0:0:
203,252,23548,1,2,1:2:0:0:
203,252,23705,2,0,P|158:224|104:243,1,99.9999999999999,2|0,1:2|0:0,0:0:0:0:
76,265,24176,1,2,1:2:0:0:
76,265,24335,2,0,L|17:257,2,50,2|10|2,0:0|0:0|0:0,0:0:0:0:
39,172,24973,2,0,L|35:65,1,99.9999999999999,2|2,1:2|0:0,0:0:0:0:
36,21,25452,5,2,1:2:0:0:
131,48,25767,1,10,0:0:0:0:
227,77,26083,2,0,L|284:73,1,50,2|0,1:2|1:2,0:0:0:0:
326,72,26395,1,8,0:0:0:0:
421,107,26708,2,0,P|386:132|382:200,1,99.9999999999999,8|2,0:0|1:2,0:0:0:0:
405,225,27169,2,0,P|398:273|360:303,1,99.9999999999999,10|0,0:0|1:2,0:0:0:0:
311,318,27650,1,8,0:0:0:0:
216,350,27967,6,0,L|111:338,1,99.9999999999999,4|10,1:2|0:0,0:0:0:0:
80,245,28601,2,0,L|185:233,1,99.9999999999999,2|10,1:2|0:0,0:0:0:0:
243,155,29236,2,0,P|290:150|339:184,2,99.9999999999999,2|10|2,1:2|0:0|1:2,0:0:0:0:
204,132,30025,1,2,1:2:0:0:
204,132,30183,1,8,0:0:0:0:
113,175,30499,5,2,1:2:0:0:
102,75,30814,1,10,0:0:0:0:
3,79,31130,2,0,L|11:184,1,99.9999999999999,2|8,1:2|0:0,0:0:0:0:
35,221,31604,1,2,0:0:0:0:
35,221,31762,2,0,L|27:326,1,99.9999999999999,2|10,1:2|0:0,0:0:0:0:
115,367,32393,2,0,P|154:342|213:355,1,99.9999999999999,2|8,1:2|0:0,0:0:0:0:
275,278,33014,5,4,1:2:0:0:
364,322,33336,2,0,L|373:253,1,50,10|2,0:0|0:0,0:0:0:0:
411,241,33659,1,2,1:2:0:0:
411,241,33820,2,0,L|395:123,1,99.9999999999999,2|2,1:2|0:0,0:0:0:0:
386,92,34293,1,2,1:2:0:0:
298,45,34608,2,0,L|291:94,1,50,10|2,0:0|0:0,0:0:0:0:
226,170,35082,1,2,1:2:0:0:
226,170,35240,1,10,0:0:0:0:
156,98,35556,5,2,1:2:0:0:
70,150,35871,1,10,0:0:0:0:
86,248,36187,2,0,L|96:364,1,99.9999999999999,2|10,1:2|0:0,0:0:0:0:
190,377,36819,2,0,L|198:277,1,99.9999999999999,10|10,0:0|0:0,0:0:0:0:
265,202,37450,2,0,L|260:152,2,50,10|8|8,0:0|3:0|3:0,0:0:0:0:
350,253,38075,6,0,P|387:225|452:242,2,99.9999999999999,6|2|2,1:2|0:0|0:0,0:0:0:0:
292,334,39047,2,0,B|217:356|226:273|144:298,1,150,2|2,0:0|0:0,0:0:0:0:
109,316,39678,1,2,0:0:0:0:
18,357,39994,6,0,L|8:252,1,99.9999999999999,2|2,0:0|0:0,0:0:0:0:
73,181,40628,1,2,0:0:0:0:
157,127,40946,2,0,L|167:232,1,99.9999999999999,2|0,0:0|0:0,0:0:0:0:
238,295,41574,1,2,0:0:0:0:
311,227,41888,6,0,P|351:200|410:217,2,99.9999999999999,2|2|2,1:2|0:0|0:0,0:0:0:0:
218,189,42825,2,0,L|208:89,1,99.9999999999999,10|10,3:0|3:0,0:0:0:0:
271,11,43447,1,10,3:0:0:0:
363,48,43760,6,0,L|372:147,2,99.9999999999999,6|2|2,1:2|0:0|0:0,0:0:0:0:
461,66,44710,2,0,L|444:236,1,150,10|10,0:0|3:0,0:0:0:0:
440,265,45343,1,10,3:0:0:0:
359,323,45658,6,0,P|312:298|259:313,1,99.9999999999999,6|2,1:2|1:2,0:0:0:0:
186,365,46287,1,2,1:2:0:0:
139,276,46610,2,0,P|90:267|48:291,1,99.9999999999999,10|0,0:0|1:2,0:0:0:0:
5,201,47236,1,10,0:0:0:0:
72,127,47563,5,6,1:2:0:0:
149,190,47880,2,0,L|252:175,1,99.9999999999999,6|6,1:2|1:2,0:0:0:0:
301,91,48512,2,0,L|404:106,1,99.9999999999999,14|14,1:2|1:2,0:0:0:0:
500,100,49142,1,14,1:2:0:0:
497,203,49456,5,10,1:2:0:0:
497,203,49614,2,0,L|486:305,1,99.9999999999999,8|8,1:2|1:2,0:0:0:0:
482,352,50089,1,8,1:2:0:0:
388,379,50405,1,8,1:2:0:0:
388,379,50564,1,12,1:2:0:0:
388,379,51814,6,0,P|366:348|298:341,1,99.9999999999999,4|0,1:2|1:2,0:0:0:0:
257,348,52297,1,10,0:0:0:0:
158,360,52612,2,0,L|152:253,1,99.9999999999999,2|10,1:2|0:0,0:0:0:0:
72,199,53244,2,0,L|77:99,1,99.9999999999999,2|8,1:2|0:0,0:0:0:0:
137,20,53875,1,2,1:2:0:0:
137,20,54033,1,2,1:2:0:0:
235,37,54349,6,0,P|276:11|323:24,1,99.9999999999999,6|0,1:2|1:2,0:0:0:0:
362,54,54822,1,10,0:0:0:0:
447,105,55138,2,0,L|441:204,1,99.9999999999999,2|10,1:2|0:0,0:0:0:0:
343,230,55770,2,0,L|348:329,1,99.9999999999999,2|8,1:2|0:0,0:0:0:0:
442,377,56401,1,2,1:2:0:0:
442,377,56559,1,2,1:2:0:0:
504,298,56875,6,0,L|509:198,1,99.9999999999999,6|0,1:2|1:2,0:0:0:0:
509,147,57349,1,8,0:0:0:0:
433,90,57665,1,2,1:2:0:0:
433,90,57822,1,2,1:2:0:0:
356,154,58138,2,0,L|256:148,1,99.9999999999999,6|0,1:2|1:2,0:0:0:0:
207,147,58612,1,8,0:0:0:0:
124,90,58924,1,2,1:2:0:0:
124,90,59080,1,2,1:2:0:0:
24,102,59393,6,0,P|4:150|29:201,1,99.9999999999999,6|0,1:2|1:2,0:0:0:0:
65,216,59865,2,0,L|59:315,1,99.9999999999999,10|10,0:0|0:0,0:0:0:0:
56,365,60334,1,2,1:2:0:0:
144,318,60649,2,0,P|184:290|232:297,1,99.9999999999999,2|2,1:2|1:2,0:0:0:0:
275,323,61126,1,10,3:0:0:0:
370,368,61442,1,10,3:0:0:0:
370,368,61600,1,2,1:2:0:0:
453,313,61916,6,0,L|464:203,1,99.9999999999999,6|0,1:2|1:2,0:0:0:0:
469,163,62396,1,10,0:0:0:0:
421,82,62717,1,2,1:2:0:0:
332,127,63032,1,10,0:0:0:0:
249,70,63348,2,0,L|239:169,1,99.9999999999999,2|8,1:2|0:0,0:0:0:0:
288,256,63979,1,2,1:2:0:0:
288,256,64137,1,2,1:2:0:0:
216,325,64453,6,0,L|116:315,1,99.9999999999999,6|0,1:2|1:2,0:0:0:0:
66,312,64926,1,10,0:0:0:0:
4,233,65242,1,2,1:2:0:0:
98,201,65558,1,10,0:0:0:0:
46,115,65874,2,0,L|145:105,1,99.9999999999999,2|8,1:2|0:0,0:0:0:0:
188,80,66348,1,2,0:0:0:0:
188,80,66505,2,0,L|237:84,1,50,2|2,1:2|1:2,0:0:0:0:
303,160,66979,6,0,L|402:150,1,99.9999999999999,6|0,1:2|1:2,0:0:0:0:
452,143,67453,1,8,0:0:0:0:
505,58,67769,2,0,P|463:30|405:48,1,99.9999999999999,2|8,1:2|0:0,0:0:0:0:
371,60,68242,2,0,L|271:50,1,99.9999999999999,6|0,1:2|1:2,0:0:0:0:
221,46,68716,1,8,0:0:0:0:
126,37,69029,1,2,1:2:0:0:
126,37,69185,1,2,1:2:0:0:
79,125,69499,6,0,L|179:115,1,99.9999999999999,6|2,1:2|1:2,0:0:0:0:
214,148,69969,2,0,L|264:153,1,50,10|2,0:0|0:0,0:0:0:0:
310,135,70287,2,0,P|284:177|298:240,1,99.9999999999999,2|10,1:2|0:0,0:0:0:0:
310,271,70764,1,6,1:2:0:0:
375,353,71078,1,10,0:0:0:0:
375,353,71236,1,8,0:0:0:0:
285,382,71542,2,0,P|243:356|180:370,1,99.9999999999999,8|8,0:0|3:0,0:0:0:0:
144,370,72028,6,0,L|130:262,1,99.9999999999999,6|2,1:2|1:2,0:0:0:0:
121,222,72503,1,10,0:0:0:0:
85,128,72820,2,0,P|127:98|184:115,1,99.9999999999999,10|10,0:0|0:0,0:0:0:0:
213,134,73297,2,0,P|255:164|312:146,1,99.9999999999999,2|2,1:2|1:2,0:0:0:0:
335,122,73773,2,0,L|332:70,1,50,10|2,0:0|1:2,0:0:0:0:
329,21,74090,1,10,0:0:0:0:
428,56,74408,1,10,0:0:0:0:
428,56,74566,6,0,L|421:160,1,99.9999999999999,6|0,1:2|1:2,0:0:0:0:
392,196,75037,2,0,L|399:300,1,99.9999999999999,8|8,0:0|0:0,0:0:0:0:
401,346,75508,1,0,1:2:0:0:
401,346,75665,1,8,0:0:0:0:
311,300,75980,1,8,0:0:0:0:
226,353,76296,2,0,L|126:346,1,99.9999999999999,8|10,0:0|0:0,0:0:0:0:
76,342,76767,1,2,1:2:0:0:
36,250,77079,6,0,L|135:243,1,99.9999999999999,6|2,1:2|1:2,0:0:0:0:
185,235,77551,1,10,0:0:0:0:
257,166,77867,2,0,P|273:118|237:67,1,99.9999999999999,10|10,0:0|0:0,0:0:0:0:
211,46,78341,2,0,L|111:39,1,99.9999999999999,2|2,1:2|1:2,0:0:0:0:
61,34,78814,1,10,0:0:0:0:
0,113,79130,1,10,0:0:0:0:
84,166,79446,1,10,0:0:0:0:
25,246,79762,6,0,B|108:225|95:295|176:276,1,150,10|0,0:0|1:2,0:0:0:0:
203,244,80393,2,0,P|250:226|303:310,1,150,10|0,0:0|1:2,0:0:0:0:
294,341,81025,1,14,0:0:0:0:
390,368,81347,1,10,0:0:0:0:
462,292,81670,2,0,L|520:298,2,50,10|10|8,0:0|1:2|1:2,0:0:0:0:
431,254,82133,6,0,L|420:150,1,99.9999999999999,6|0,1:2|1:0,0:0:0:0:
408,106,82611,1,8,1:2:0:0:
316,63,82930,2,0,L|309:120,1,50,10|2,1:2|1:2,0:0:0:0:
304,162,83244,1,8,1:2:0:0:
289,260,83559,2,0,P|237:278|189:249,1,99.9999999999999,10|8,1:2|1:2,0:0:0:0:
159,239,84032,1,2,1:2:0:0:
159,239,84190,2,0,L|167:181,2,50,10|2|8,1:2|1:2|1:2,0:0:0:0:
73,292,84822,6,0,L|61:192,1,99.9999999999999,10|8,1:2|1:2,0:0:0:0:
107,104,85450,2,0,L|161:110,1,50,10|2,1:2|1:2,0:0:0:0:
198,83,85764,2,0,L|252:76,1,50,8|2,1:2|1:2,0:0:0:0:
294,59,86078,2,0,P|274:103|291:149,1,99.9999999999999,10|8,1:2|1:2,0:0:0:0:
329,182,86549,1,2,1:2:0:0:
289,278,86860,1,10,0:2:0:0:
347,362,87185,5,6,1:2:0:0:
256,192,87342,12,0,88605,0:0:0:0:
