osu file format v14

[General]
AudioFilename: audio.mp3
AudioLeadIn: 0
PreviewTime: 50722
Countdown: 0
SampleSet: Soft
StackLeniency: 0.3
Mode: 0
LetterboxInBreaks: 0
WidescreenStoryboard: 1

[Editor]
DistanceSpacing: 1.2
BeatDivisor: 4
GridSize: 8
TimelineZoom: 1.9

[Metadata]
Title:Clattanoia (TV Size)
TitleUnicode:Clattanoia (TV Size)
Artist:OxT
ArtistUnicode:OxT
Creator:Nelliel
Version:KOWARI'S EXTRA
Source:オーバーロード
Tags:jrock overlord op opening japanese anime masayoshi ooishi kowari blitzifyyy Hello New World j-rock rock Ōishi Tom-H@ck Tom-Hack hotaru Season 1 one 大石昌良
BeatmapID:2961652
BeatmapSetID:1438655

[Difficulty]
HPDrainRate:5
CircleSize:3.8
OverallDifficulty:8.7
ApproachRate:9.3
SliderMultiplier:1.8
SliderTickRate:1

[Events]
//Background and Video events
0,0,"bg.jpg",0,0
Video,0,"Clattanoia.mp4"
//Break Periods
//Storyboard Layer 0 (Background)
//Storyboard Layer 1 (Fail)
//Storyboard Layer 2 (Pass)
//Storyboard Layer 3 (Foreground)
//Storyboard Layer 4 (Overlay)
//Storyboard Sound Samples

[TimingPoints]
201,300,4,2,1,70,1,0
201,-76.9230769230769,4,2,1,70,0,0
651,324.324324324324,4,2,1,70,1,0
1137,300,4,2,1,70,1,0
1287,315.789473684211,4,2,1,70,1,0
1287,-100,4,2,1,70,0,0
1602,320.855614973262,4,2,1,70,1,0
2404,279.06976744186,4,2,1,70,1,0
2543,319.148936170213,4,2,1,85,1,0
2543,-76.9230769230769,4,2,1,85,0,0
2702,319.148936170213,4,2,1,85,1,0
2702,-76.9230769230769,4,2,1,85,0,0
3340,315.789473684211,4,2,1,85,1,0
3340,-76.9230769230769,4,2,1,85,0,0
3971,317.460317460317,4,2,1,85,1,0
3971,-76.9230769230769,4,2,1,85,0,0
5082,320.855614973262,4,2,1,85,1,0
5082,-76.9230769230769,4,2,1,85,0,0
5242,320.855614973262,4,2,1,85,1,0
5242,-76.9230769230769,4,2,1,85,0,0
5883,315.789473684211,4,2,1,85,1,0
5883,-76.9230769230769,4,2,1,85,0,0
6514,315.789473684211,4,2,1,85,1,0
6514,-76.9230769230769,4,2,1,85,0,0
7619,-100,4,2,1,80,0,0
8092,313.31592689295,4,2,1,80,1,0
9031,315.789473684211,4,2,1,80,1,0
11557,317.460317460317,4,2,1,80,1,0
12191,314.13612565445,4,2,1,80,1,0
12819,314.13612565445,4,2,1,80,1,0
14075,315.789473684211,4,2,1,80,1,0
16917,317.460317460317,4,2,1,80,1,0
17551,314.96062992126,4,2,1,80,1,0
17865,317.460317460317,4,2,1,70,1,0
19134,315.789473684211,4,2,1,70,1,0
20318,-100,4,2,1,5,0,0
20397,-100,4,2,1,70,0,0
21976,324.324324324324,4,2,1,70,1,0
22300,310.077519379845,4,2,1,70,1,0
22920,314.13612565445,4,2,1,70,1,0
24176,319.148936170213,4,2,1,70,1,0
25452,315.789473684211,4,2,1,70,1,0
26083,312.5,4,2,1,70,1,0
26708,307.692307692308,4,2,1,70,1,0
27169,315.789473684211,4,2,1,70,1,0
27484,333.333333333333,4,2,1,70,1,0
27817,300,4,2,1,70,1,0
27967,317.460317460317,4,2,1,70,1,0
27967,-100,4,2,1,70,0,0
27974,-100,4,2,1,75,0,0
29236,315.789473684211,4,2,1,75,1,0
31525,-100,4,2,1,5,0,0
31604,-100,4,2,1,75,0,0
32393,310.880829015544,4,2,1,75,1,0
33014,322.58064516129,4,2,1,75,1,0
33820,-98.5221674876847,4,2,1,75,0,0
33981,312.5,4,2,1,75,1,0
34293,315.789473684211,4,2,1,75,1,0
37766,309.278350515464,4,2,1,75,1,0
38075,324.324324324324,3,2,1,60,1,0
38075,-133.333333333333,3,2,1,60,0,0
39047,315.789473684211,3,2,1,60,1,0
39047,-133.333333333333,3,2,1,60,0,0
39994,317.460317460317,3,2,1,60,1,0
39994,-133.333333333333,3,2,1,60,0,0
40946,314.13612565445,3,2,1,60,1,0
40946,-133.333333333333,3,2,1,60,0,0
42516,309.278350515464,3,2,1,60,1,0
42516,-133.333333333333,3,2,1,60,0,0
43134,313.31592689295,3,2,1,60,1,0
43134,-133.333333333333,3,2,1,60,0,0
43760,315.789473684211,3,2,1,60,1,0
43760,-133.333333333333,3,2,1,60,0,0
44391,319.148936170213,3,2,1,60,1,0
44391,-133.333333333333,3,2,1,60,0,0
45029,314.96062992126,3,2,1,60,1,0
45029,-133.333333333333,3,2,1,60,0,0
45658,314.96062992126,4,2,1,60,1,0
45658,-133.333333333333,4,2,1,60,0,0
46287,323.450134770889,3,2,1,60,1,0
46287,-133.333333333333,3,2,1,60,0,0
46610,313.31592689295,3,2,1,60,1,0
46610,-133.333333333333,3,2,1,60,0,0
47236,327.868852459016,3,2,1,60,1,0
47236,-133.333333333333,3,2,1,60,0,0
47552,-133.333333333333,3,2,1,70,0,0
47563,317.460317460317,6,2,1,70,1,0
47563,-40,3,2,1,70,0,0
47602,-40,3,2,1,5,0,0
47880,-40,3,2,1,70,0,0
47920,-40,3,2,1,5,0,0
48197,315.789473684211,6,2,1,70,1,0
48197,-40,3,2,1,70,0,0
48236,-40,3,2,1,5,0,0
48512,-33.3333333333333,3,2,1,70,0,0
48552,-40,3,2,1,5,0,0
48828,314.13612565445,6,2,1,70,1,0
48828,-33.3333333333333,3,2,1,70,0,0
48867,-40,3,2,1,5,0,0
49142,-33.3333333333333,3,2,1,70,0,0
49181,-40,3,2,1,5,0,0
49456,316.622691292876,4,2,1,70,1,0
49456,-100,4,2,1,70,0,0
50722,-100,4,2,1,70,0,0
50880,329.67032967033,4,2,1,70,1,0
51044,315.789473684211,4,2,1,70,1,0
51675,279.06976744186,4,2,1,70,1,0
51814,322.58064516129,4,2,1,85,1,0
51814,-76.9230769230769,4,2,1,85,0,1
51975,322.58064516129,4,2,1,85,1,1
51975,-76.9230769230769,4,2,1,85,0,1
52297,315.789473684211,4,2,1,85,1,0
52297,-76.9230769230769,4,2,1,85,0,1
53244,315.789473684211,4,2,1,85,1,0
53244,-76.9230769230769,4,2,1,85,0,1
58612,312.5,4,2,1,85,1,0
58612,-76.9230769230769,4,2,1,85,0,1
59393,315.789473684211,4,2,1,85,1,0
59393,-76.9230769230769,4,2,1,85,0,1
59550,315.789473684211,4,2,1,85,1,0
59550,-76.9230769230769,4,2,1,85,0,1
60181,306.122448979592,4,2,1,85,1,0
60181,-76.9230769230769,4,2,1,85,0,1
60487,324.324324324324,4,2,1,85,1,0
60487,-76.9230769230769,4,2,1,85,0,1
60811,315.789473684211,4,2,1,85,1,0
60811,-76.9230769230769,4,2,1,85,0,1
61442,-100,4,2,1,75,0,0
61916,320.855614973262,4,2,1,85,1,0
61916,-76.9230769230769,4,2,1,85,0,1
62076,320.855614973262,4,2,1,85,1,1
62076,-76.9230769230769,4,2,1,85,0,1
62717,315.789473684211,4,2,1,85,1,1
62717,-76.9230769230769,4,2,1,85,0,1
63348,315.789473684211,4,2,1,85,1,1
63348,-76.9230769230769,4,2,1,85,0,1
68716,313.31592689295,4,2,1,85,1,1
68716,-76.9230769230769,4,2,1,85,0,1
69969,318.302387267905,4,2,1,85,1,1
69969,-76.9230769230769,4,2,1,85,0,1
70764,315.789473684211,4,2,1,85,1,1
70764,-76.9230769230769,4,2,1,85,0,1
70921,315.789473684211,4,2,1,85,1,1
70921,-76.9230769230769,4,2,1,85,0,1
71236,306.122448979592,4,2,1,85,1,1
71236,-76.9230769230769,4,2,1,85,0,1
71542,324.324324324324,4,2,1,85,1,1
71542,-76.9230769230769,4,2,1,85,0,1
72028,317.460317460317,4,2,1,85,1,0
72028,-76.9230769230769,4,2,1,85,0,0
72186,317.460317460317,4,2,1,85,1,0
72186,-76.9230769230769,4,2,1,85,0,0
74566,314.13612565445,4,2,1,85,1,0
74566,-76.9230769230769,4,2,1,85,0,0
74723,314.13612565445,4,2,1,85,1,0
74723,-76.9230769230769,4,2,1,85,0,0
75665,315.789473684211,4,2,1,85,1,0
75665,-76.9230769230769,4,2,1,85,0,0
76612,311.688311688312,4,2,1,85,1,0
76612,-76.9230769230769,4,2,1,85,0,0
77079,315.789473684211,4,2,1,85,1,0
77079,-76.9230769230769,4,2,1,85,0,0
77236,315.789473684211,4,2,1,85,1,0
77236,-76.9230769230769,4,2,1,85,0,0
79367,-100,4,2,1,85,0,0
79446,-100,4,2,1,85,0,0
81025,322.58064516129,4,2,1,75,1,0
81025,-83.3333333333333,4,2,1,75,0,0
81670,309.278350515464,4,2,1,75,1,0
81670,-83.3333333333333,4,2,1,75,0,0
82133,319.148936170213,4,2,1,80,1,0
82133,-76.9230769230769,4,2,1,80,0,1
82292,319.148936170213,4,2,1,80,1,1
82292,-76.9230769230769,4,2,1,80,0,1
82930,314.96062992126,4,2,1,80,1,1
82930,-76.9230769230769,4,2,1,80,0,1
83559,315.789473684211,4,2,1,80,1,1
83559,-76.9230769230769,4,2,1,80,0,1
84822,314.13612565445,4,2,1,80,1,1
84822,-76.9230769230769,4,2,1,80,0,1
86706,309.278350515464,4,2,1,80,1,0
86706,-76.9230769230769,4,2,1,80,0,1
87092,375,4,2,1,60,1,1
87185,315.789473684211,4,2,1,100,1,0
87185,-434.782608695652,4,2,1,100,0,0
87342,315.789473684211,4,2,1,60,1,0
87498,-100,4,2,1,60,0,0
87815,-100,4,2,1,60,0,0
88131,-100,4,2,1,60,0,0
88447,-100,4,2,1,60,0,0
88605,-100,4,2,1,5,0,0
88763,-100,4,2,1,5,0,0
88920,-100,4,2,1,5,0,0

[Colours]
Combo1 : 143,143,143
Combo2 : 79,128,208
Combo3 : 180,180,180
Combo4 : 101,208,239

[HitObjects]
214,280,201,6,0,L|279:289,1,58.4999973220826,10|8,0:0|3:0,0:0:0:0:
314,168,351,1,10,3:0:0:0:
285,172,426,1,8,3:0:0:0:
256,176,501,1,0,1:0:0:0:
227,180,576,1,0,1:0:0:0:
198,184,651,2,0,L|138:193,1,45,10|8,0:0|3:0,0:0:0:0:
189,78,813,6,0,L|249:86,1,45,10|8,3:0|3:0,0:0:0:0:
391,19,975,2,0,L|353:66,1,45,2|0,1:2|1:0,0:0:0:0:
351,210,1137,2,0,L|328:153,1,45,10|0,0:0|0:0,0:0:0:0:
305,101,1287,1,6,1:2:0:0:
38,355,2543,6,0,B|121:343|121:343|176:378|176:378|290:363,1,233.999989288331,6|0,1:2|1:0,0:0:0:0:
212,174,3021,2,0,P|186:226|195:282,1,116.999994644165,10|0,0:0|0:0,0:0:0:0:
346,296,3340,2,0,P|372:244|363:188,1,116.999994644165,2|0,1:2|1:0,0:0:0:0:
242,87,3655,2,0,L|126:87,1,116.999994644165,8|0,0:0|0:0,0:0:0:0:
330,19,3971,5,2,1:2:0:0:
219,179,4129,1,0,1:0:0:0:
154,3,4288,1,8,0:0:0:0:
322,123,4447,1,0,0:0:0:0:
106,183,4605,1,2,1:2:0:0:
106,183,4764,2,0,P|87:245|106:302,1,116.999994644165,2|8,1:2|0:0,0:0:0:0:
395,239,5082,6,0,B|273:186|302:295|148:232,1,233.999989288331,6|0,1:2|1:0,0:0:0:0:
236,46,5562,2,0,L|232:162,1,116.999994644165,10|0,0:0|0:0,0:0:0:0:
75,242,5883,2,0,L|71:125,1,116.999994644165,2|0,1:2|1:0,0:0:0:0:
147,332,6198,2,0,P|75:359|26:343,1,116.999994644165,8|0,0:0|0:0,0:0:0:0:
221,191,6514,6,0,B|241:352|241:352|311:390,1,233.999989288331,2|8,1:2|0:0,0:0:0:0:
414,329,6987,1,0,1:0:0:0:
395,208,7145,1,10,0:0:0:0:
395,208,7224,1,8,0:0:0:0:
395,208,7303,2,0,L|330:225,1,58.4999973220826,8|10,0:0|0:0,0:0:0:0:
241,112,7461,2,0,L|306:129,1,58.4999973220826,8|8,0:0|0:0,0:0:0:0:
174,25,7619,6,0,P|142:76|173:207,1,180,6|0,1:2|1:2,0:0:0:0:
240,265,8092,1,8,0:0:0:0:
100,239,8248,1,2,0:0:0:0:
100,239,8405,1,2,1:2:0:0:
151,369,8561,2,0,L|42:374,1,90,2|8,1:2|0:0,0:0:0:0:
187,215,8875,1,2,0:0:0:0:
187,215,9031,1,2,1:2:0:0:
266,340,9188,2,0,L|375:345,1,90,2|8,1:2|0:0,0:0:0:0:
154,216,9504,6,0,L|45:221,1,90,2|0,1:2|1:2,0:0:0:0:
59,53,9820,2,0,L|168:58,1,90,2|8,1:2|0:0,0:0:0:0:
281,130,10136,6,0,B|353:132|353:132|390:100|390:100|471:99,1,180,6|0,1:2|1:2,0:0:0:0:
502,212,10609,1,8,0:0:0:0:
401,292,10767,1,2,0:0:0:0:
401,292,10925,1,2,1:2:0:0:
304,213,11083,2,0,P|280:167|284:116,1,90,2|8,1:2|0:0,0:0:0:0:
411,24,11399,1,2,0:0:0:0:
411,24,11557,1,2,1:2:0:0:
506,102,11715,2,0,P|504:146|482:185,1,90,2|8,1:2|0:0,0:0:0:0:
324,81,12033,6,0,P|281:69|229:82,1,90,2|0,1:2|1:2,0:0:0:0:
223,256,12348,2,0,P|266:268|318:255,1,90,2|8,1:2|0:0,0:0:0:0:
84,198,12662,6,0,B|98:318|98:318|57:377,1,180,6|0,1:2|1:2,0:0:0:0:
203,352,13133,1,8,0:0:0:0:
171,216,13290,1,2,0:0:0:0:
171,216,13447,1,2,1:2:0:0:
309,188,13604,2,0,L|298:291,1,90,2|8,1:2|0:0,0:0:0:0:
261,100,13918,1,2,0:0:0:0:
261,100,14075,1,2,1:2:0:0:
399,72,14232,2,0,L|388:175,1,90,2|8,1:2|0:0,0:0:0:0:
176,163,14548,6,0,L|162:62,1,90,2|0,1:2|1:2,0:0:0:0:
299,277,14864,2,0,L|313:176,1,90,2|8,1:2|0:0,0:0:0:0:
161,346,15180,6,0,B|261:318|246:391|355:354,1,180,6|0,1:2|1:2,0:0:0:0:
411,273,15653,1,8,0:0:0:0:
294,182,15811,1,2,0:0:0:0:
294,182,15969,1,2,1:2:0:0:
179,261,16127,2,0,P|119:277|84:272,1,90,2|8,1:2|0:0,0:0:0:0:
202,94,16443,1,2,0:0:0:0:
202,94,16601,1,2,1:2:0:0:
38,169,16759,2,0,P|98:185|133:180,1,90,10|8,0:0|0:0,0:0:0:0:
148,167,16996,1,8,0:0:0:0:
148,167,17075,6,0,L|201:176,1,45,10|8,0:0|0:0,0:0:0:0:
270,229,17234,2,0,L|314:221,3,45,8|8|10|8,3:0|3:0|0:0|0:0,0:0:0:0:
400,205,17551,1,8,0:0:0:0:
397,238,17629,1,8,3:0:0:0:
394,272,17708,1,8,3:0:0:0:
391,305,17787,1,8,3:0:0:0:
388,339,17865,6,0,P|339:359|293:345,1,90,4|2,1:2|0:0,0:0:0:0:
219,285,18182,2,0,P|175:278|134:297,1,90,10|2,0:0|0:0,0:0:0:0:
36,362,18499,2,0,L|38:268,1,90,2|2,1:2|1:2,0:0:0:0:
146,113,18817,2,0,L|147:202,1,90,10|2,0:0|0:0,0:0:0:0:
49,81,19134,5,2,1:2:0:0:
186,32,19291,1,2,0:0:0:0:
32,96,19449,2,0,B|22:139|22:139|38:186,1,90,10|2,0:0|0:0,0:0:0:0:
264,178,19765,1,2,1:2:0:0:
127,129,19923,1,2,1:2:0:0:
281,193,20081,2,0,B|291:236|291:236|259:332,1,135,8|0,0:0|0:0,0:0:0:0:
248,359,20397,6,0,L|347:352,1,90,2|0,1:2|0:0,0:0:0:0:
468,269,20712,2,0,L|369:262,1,90,10|0,0:0|0:0,0:0:0:0:
258,163,21028,1,2,1:2:0:0:
378,42,21186,2,0,P|438:90|413:202,1,180,2|2,1:2|0:0,0:0:0:0:
235,183,21660,5,2,1:2:0:0:
365,128,21818,1,2,1:2:0:0:
208,197,21976,1,10,0:0:0:0:
417,260,22138,1,2,0:0:0:0:
191,304,22300,2,0,L|186:206,1,90,2|0,1:2|1:2,0:0:0:0:
332,143,22610,2,0,L|327:232,1,90,8|0,0:0|0:0,0:0:0:0:
210,93,22920,6,0,P|168:80|108:93,1,90,4|2,1:2|0:0,0:0:0:0:
3,207,23234,2,0,P|47:213|89:200,1,90,10|2,0:0|0:0,0:0:0:0:
205,177,23548,1,2,1:2:0:0:
205,177,23705,2,0,B|171:227|171:227|195:345,1,180,2|0,1:2|0:0,0:0:0:0:
274,246,24176,5,2,1:2:0:0:
102,313,24335,1,2,0:0:0:0:
307,368,24495,1,10,0:0:0:0:
342,160,24654,2,0,L|230:156,1,90,2|0,0:0|1:2,0:0:0:0:
165,35,24973,2,0,P|183:85|175:123,1,90,2|8,1:2|0:0,0:0:0:0:
74,11,25293,1,2,0:0:0:0:
0,114,25452,6,0,L|93:109,1,90,2|0,1:2|0:0,0:0:0:0:
177,251,25767,2,0,L|84:246,1,90,10|2,0:0|0:0,0:0:0:0:
254,190,26083,1,2,1:2:0:0:
179,341,26239,1,0,1:2:0:0:
138,172,26395,1,8,0:0:0:0:
263,292,26551,1,2,1:2:0:0:
346,161,26708,5,8,0:0:0:0:
346,161,26784,1,8,3:0:0:0:
346,161,26861,1,0,1:0:0:0:
230,209,27015,1,2,1:2:0:0:
179,59,27169,2,0,L|173:103,2,45,10|8|2,0:0|3:0|1:2,0:0:0:0:
304,160,27484,1,0,1:2:0:0:
293,18,27650,1,8,0:0:0:0:
392,91,27817,5,8,3:0:0:0:
404,107,27892,1,8,3:0:0:0:
417,123,27967,2,0,L|412:27,1,90,4|2,1:2|0:0,0:0:0:0:
326,188,28284,1,10,0:0:0:0:
326,188,28601,2,0,L|321:92,1,90,2|0,1:2|1:2,0:0:0:0:
235,253,28919,1,10,0:0:0:0:
391,289,29078,1,2,0:0:0:0:
265,363,29236,5,2,1:2:0:0:
320,217,29393,1,2,1:2:0:0:
380,384,29551,1,10,0:0:0:0:
326,188,29709,1,2,0:0:0:0:
221,289,29867,1,2,1:2:0:0:
221,289,30025,2,0,B|130:320|142:257|33:289,1,180,2|0,1:2|0:0,0:0:0:0:
161,132,30499,6,0,P|182:170|168:230,1,90,2|0,1:2|0:0,0:0:0:0:
78,55,30814,2,0,L|180:40,1,90,10|0,0:0|0:0,0:0:0:0:
265,133,31130,1,2,1:2:0:0:
265,133,31288,2,0,P|278:185|256:271,1,135,2|0,1:2|0:0,0:0:0:0:
241,283,31604,1,2,0:0:0:0:
382,349,31762,6,0,L|370:249,1,90,2|2,1:2|1:2,0:0:0:0:
500,172,32078,2,0,L|489:261,1,90,10|2,0:0|0:0,0:0:0:0:
386,129,32393,2,0,B|320:121|320:121|284:144|284:144|197:132,1,180,2|8,1:2|0:0,0:0:0:0:
95,68,32859,1,8,3:0:0:0:
95,68,32937,1,8,3:0:0:0:
95,68,33014,6,0,L|84:161,1,90,4|2,1:2|0:0,0:0:0:0:
224,223,33336,2,0,L|213:133,1,90,10|2,0:0|0:0,0:0:0:0:
91,289,33659,1,2,1:2:0:0:
91,289,33820,2,0,B|135:271|176:292|176:292|222:328|285:295,1,180,2|2,1:2|0:0,0:0:0:0:
348,189,34293,5,2,1:2:0:0:
229,227,34450,1,2,1:2:0:0:
384,297,34608,1,10,0:0:0:0:
408,113,34766,2,0,L|303:100,1,90,2|0,0:0|1:2,0:0:0:0:
215,214,35082,1,2,1:2:0:0:
331,183,35240,1,10,0:0:0:0:
149,119,35398,1,2,0:0:0:0:
235,21,35556,6,0,L|339:15,1,90,2|0,1:2|0:0,0:0:0:0:
192,152,35871,2,0,L|88:146,1,90,10|0,0:0|0:0,0:0:0:0:
253,302,36187,2,0,L|357:296,1,90,2|0,1:2|1:2,0:0:0:0:
192,371,36503,1,10,0:0:0:0:
235,226,36661,1,0,1:2:0:0:
235,226,36740,1,0,1:2:0:0:
235,226,36819,5,10,0:0:0:0:
356,380,36977,1,2,1:2:0:0:
433,193,37135,2,0,L|420:96,1,90,10|0,0:0|1:2,0:0:0:0:
415,78,37371,1,8,3:0:0:0:
415,78,37450,1,10,0:0:0:0:
316,122,37608,1,8,3:0:0:0:
238,77,37766,1,8,3:0:0:0:
174,120,37920,1,0,1:2:0:0:
96,62,38075,6,0,P|77:112|99:197,1,135.000005149842,6|2,1:2|0:0,0:0:0:0:
216,343,38723,1,2,0:0:0:0:
188,252,38885,1,0,0:0:0:0:
188,252,39047,2,0,L|329:270,1,135.000005149842,2|0,0:0|0:0,0:0:0:0:
415,266,39520,1,2,0:0:0:0:
366,199,39678,2,0,P|358:156|363:122,1,67.5000025749208,2|0,0:0|0:0,0:0:0:0:
390,17,39994,5,2,0:0:0:0:
302,51,40152,1,2,0:0:0:0:
207,5,40311,5,2,0:0:0:0:
280,64,40470,1,2,0:0:0:0:
289,170,40628,5,2,0:0:0:0:
303,76,40787,1,2,0:0:0:0:
138,92,40946,6,0,B|141:128|164:155|164:155|130:176|116:211|116:211|140:236|152:292,1,202.500007724762,2|0,0:0|0:0,0:0:0:0:
164,361,41574,2,0,L|81:362,1,67.5000025749208,2|2,0:0|0:0,0:0:0:0:
228,217,41888,5,2,1:2:0:0:
286,291,42045,1,2,0:0:0:0:
273,383,42202,1,2,0:0:0:0:
296,281,42359,5,2,0:0:0:0:
238,207,42516,1,2,0:0:0:0:
251,115,42670,1,10,3:0:0:0:
389,182,42825,6,0,L|313:189,1,67.5000025749208,10|2,3:0|0:0,0:0:0:0:
172,105,43134,2,0,L|104:98,1,67.5000025749208,10|10,3:0|3:0,0:0:0:0:
60,227,43447,5,10,3:0:0:0:
146,212,43603,1,10,3:0:0:0:
220,327,43760,6,0,L|66:322,1,135.000005149842,6|2,1:2|0:0,0:0:0:0:
182,149,44391,1,2,0:0:0:0:
251,253,44550,1,0,1:2:0:0:
251,253,44710,6,0,B|304:254|304:254|330:243|330:243|384:246,1,135.000005149842,10|0,0:0|1:2,0:0:0:0:
472,252,45186,1,10,3:0:0:0:
491,164,45343,1,10,3:0:0:0:
436,96,45501,1,8,3:0:0:0:
317,163,45658,6,0,L|240:172,1,67.5000025749208,6|2,1:2|0:0,0:0:0:0:
121,70,45972,2,0,L|167:132,1,67.5000025749208,2|2,1:2|0:0,0:0:0:0:
139,287,46287,2,0,L|169:215,1,67.5000025749208,2|2,1:2|1:2,0:0:0:0:
271,332,46610,6,0,B|297:326|331:335|331:335|325:324|325:324|360:336|403:327,1,135.000005149842,10|0,0:0|1:2,0:0:0:0:
461,285,47079,1,0,1:2:0:0:
346,178,47236,5,10,0:0:0:0:
361,256,47399,1,2,0:0:0:0:
397,113,47563,6,0,L|337:93,1,56.25,6|0,1:2|0:0,0:0:0:0:
213,55,47880,2,0,L|225:116,1,56.25,6|0,1:2|0:0,0:0:0:0:
255,244,48197,2,0,L|301:202,1,56.25,6|0,1:2|0:0,0:0:0:0:
440,103,48512,6,0,L|357:75,1,67.5000025749208,14|0,1:2|0:0,0:0:0:0:
182,21,48828,2,0,L|200:107,1,67.5000025749208,14|0,1:2|0:0,0:0:0:0:
241,286,49142,2,0,L|307:228,1,67.5000025749208,14|0,1:2|0:0,0:0:0:0:
76,162,49456,5,10,1:2:0:0:
121,345,49614,1,8,1:2:0:0:
255,112,49930,5,8,1:2:0:0:
255,321,50089,1,8,1:2:0:0:
436,162,50405,5,8,1:2:0:0:
391,345,50564,1,12,1:2:0:0:
229,86,50880,5,2,0:0:0:0:
302,113,51044,1,2,0:0:0:0:
214,101,51201,1,0,0:0:0:0:
297,202,51359,5,2,0:0:0:0:
178,240,51517,1,2,0:0:0:0:
312,217,51675,1,2,0:0:0:0:
113,384,51814,6,0,B|126:315|126:315|83:246|83:246|99:147,1,233.999989288331,4|0,1:2|1:2,0:0:0:0:
250,17,52297,2,0,L|257:133,1,116.999994644165,10|0,0:0|0:0,0:0:0:0:
379,253,52612,1,2,1:2:0:0:
194,217,52770,1,0,1:2:0:0:
364,128,52928,2,0,P|429:125|495:148,1,116.999994644165,10|0,0:0|0:0,0:0:0:0:
362,339,53244,6,0,B|239:314|270:396|123:354,1,233.999989288331,2|8,1:2|0:0,0:0:0:0:
57,237,53717,1,0,0:0:0:0:
220,182,53875,1,2,1:2:0:0:
110,362,54033,1,2,1:2:0:0:
70,135,54191,1,8,0:0:0:0:
228,273,54349,6,0,B|263:269|303:292|303:292|319:253|353:237|353:237|392:264|447:259,1,233.999989288331,6|0,1:2|1:2,0:0:0:0:
276,83,54822,2,0,P|254:135|272:199,1,116.999994644165,10|0,0:0|0:0,0:0:0:0:
365,84,55138,1,2,1:2:0:0:
210,19,55296,1,0,1:2:0:0:
150,200,55454,2,0,L|288:190,1,116.999994644165,10|0,0:0|0:0,0:0:0:0:
64,103,55770,6,0,B|34:168|34:168|85:333,1,233.999989288331,2|8,1:2|0:0,0:0:0:0:
228,285,56244,1,0,0:0:0:0:
146,155,56401,1,2,1:2:0:0:
80,358,56559,1,2,1:2:0:0:
80,358,56638,1,0,0:0:0:0:
80,358,56717,1,8,0:0:0:0:
242,202,56875,6,0,B|382:177|340:273|483:224,1,233.999989288331,6|0,1:2|1:2,0:0:0:0:
419,37,57349,2,0,L|413:160,1,116.999994644165,8|0,0:0|0:0,0:0:0:0:
293,287,57665,1,2,1:2:0:0:
327,107,57822,1,2,1:2:0:0:
327,107,57901,1,0,0:0:0:0:
327,107,57980,1,8,0:0:0:0:
381,342,58138,6,0,P|325:378|251:367,1,116.999994644165,6|0,1:2|0:0,0:0:0:0:
151,243,58454,1,0,1:2:0:0:
299,177,58612,2,0,L|303:298,1,116.999994644165,8|0,0:0|0:0,0:0:0:0:
173,365,58924,1,2,1:2:0:0:
45,255,59080,2,0,L|54:139,1,116.999994644165,2|8,1:2|0:0,0:0:0:0:
170,28,59393,6,0,B|258:31|258:31|308:72|308:72|402:67,1,233.999989288331,6|0,1:2|1:2,0:0:0:0:
468,167,59865,5,10,0:0:0:0:
252,132,60023,1,0,1:2:0:0:
489,186,60181,5,10,0:0:0:0:
225,254,60334,1,2,1:2:0:0:
427,303,60487,1,8,0:0:0:0:
321,164,60649,5,2,1:2:0:0:
321,164,60730,1,0,1:2:0:0:
321,164,60811,2,0,L|253:156,1,58.4999973220826,8|8,0:0|0:0,0:0:0:0:
223,284,60968,2,0,L|291:276,1,58.4999973220826,2|8,1:2|3:0,0:0:0:0:
115,230,61126,1,10,3:0:0:0:
117,259,61205,1,8,3:0:0:0:
120,288,61284,1,0,1:2:0:0:
123,317,61363,1,8,3:0:0:0:
126,346,61442,1,10,3:0:0:0:
25,265,61600,2,0,L|20:164,1,90,2|8,1:2|0:0,0:0:0:0:
176,76,61916,6,0,B|305:38|278:136|419:85,1,233.999989288331,6|0,1:2|1:2,0:0:0:0:
239,270,62396,2,0,B|223:212|223:212|233:156,1,116.999994644165,10|0,0:0|0:0,0:0:0:0:
346,18,62717,1,2,1:2:0:0:
326,184,62874,1,0,1:2:0:0:
176,76,63032,2,0,P|114:64|55:85,1,116.999994644165,10|0,0:0|0:0,0:0:0:0:
31,284,63348,6,0,B|125:283|125:283|167:311|167:311|269:311,1,233.999989288331,2|8,1:2|0:0,0:0:0:0:
325,160,63821,1,0,0:0:0:0:
185,214,63979,1,2,1:2:0:0:
334,351,64137,2,0,L|469:348,1,116.999994644165,2|8,1:2|0:0,0:0:0:0:
469,149,64453,6,0,B|404:133|404:133|360:171|360:171|304:132|231:161,1,233.999989288331,6|0,1:2|1:2,0:0:0:0:
108,254,64926,2,0,P|171:265|217:236,1,116.999994644165,10|0,0:0|0:0,0:0:0:0:
254,68,65242,1,2,1:2:0:0:
153,177,65400,1,0,1:2:0:0:
349,246,65558,2,0,L|346:121,1,116.999994644165,10|0,0:0|0:0,0:0:0:0:
123,35,65874,6,0,P|81:127|129:281,1,233.999989288331,2|8,1:2|0:0,0:0:0:0:
232,320,66348,1,2,0:0:0:0:
191,184,66505,1,2,1:2:0:0:
95,366,66663,1,2,1:2:0:0:
95,366,66821,1,8,0:0:0:0:
273,251,66979,6,0,B|357:254|357:254|418:231|418:231|511:239,1,233.999989288331,6|0,1:2|1:2,0:0:0:0:
362,57,67453,2,0,P|330:120|341:173,1,116.999994644165,8|2,0:0|0:0,0:0:0:0:
444,313,67769,1,2,1:2:0:0:
471,133,67926,1,2,1:2:0:0:
471,133,68084,1,8,0:0:0:0:
273,251,68242,6,0,B|215:269|215:269|136:243,1,116.999994644165,6|0,1:2|0:0,0:0:0:0:
59,161,68558,1,0,1:2:0:0:
201,69,68716,2,0,P|227:124|207:192,1,116.999994644165,8|0,0:0|0:0,0:0:0:0:
72,288,69029,1,2,1:2:0:0:
145,140,69185,1,2,1:2:0:0:
406,364,69499,6,0,B|396:289|396:289|439:224|439:224|432:132,1,233.999989288331,6|2,1:2|1:2,0:0:0:0:
291,72,69969,2,0,L|302:198,1,116.999994644165,10|2,0:0|0:0,0:0:0:0:
273,341,70287,2,0,P|212:361|159:344,1,116.999994644165,2|0,1:2|1:2,0:0:0:0:
70,233,70605,1,10,0:0:0:0:
185,96,70764,6,0,B|229:146|229:146|205:299,1,175.499991966248,6|0,1:2|0:0,0:0:0:0:
204,275,71078,1,10,0:0:0:0:
86,146,71236,1,8,0:0:0:0:
300,110,71389,1,0,1:2:0:0:
277,354,71542,1,8,0:0:0:0:
247,355,71623,1,8,3:0:0:0:
218,357,71704,1,8,3:0:0:0:
189,359,71785,1,8,3:0:0:0:
160,361,71866,1,8,3:0:0:0:
83,227,72028,6,0,B|157:263|157:263|327:226,1,233.999989288331,6|2,1:2|1:2,0:0:0:0:
338,66,72503,5,10,0:0:0:0:
189,147,72662,1,2,1:2:0:0:
399,197,72820,5,10,0:0:0:0:
168,156,72979,1,0,1:2:0:0:
380,47,73138,5,10,0:0:0:0:
150,168,73297,2,0,B|149:337|149:337|170:273,1,233.999989288331,2|2,1:2|1:2,0:0:0:0:
50,132,73773,5,10,0:0:0:0:
243,204,73932,1,2,1:2:0:0:
55,351,74090,6,0,L|56:220,1,116.999994644165,10|0,0:0|1:2,0:0:0:0:
50,32,74408,1,10,0:0:0:0:
158,142,74566,6,0,B|292:180|259:91|398:127,1,233.999989288331,6|0,1:2|1:2,0:0:0:0:
416,312,75037,5,8,0:0:0:0:
233,265,75194,1,0,1:2:0:0:
355,137,75351,5,8,0:0:0:0:
354,368,75508,1,0,1:2:0:0:
200,249,75665,5,8,0:0:0:0:
435,195,75822,1,0,1:2:0:0:
435,195,75901,1,0,1:2:0:0:
435,195,75980,5,8,0:0:0:0:
211,78,76138,2,0,L|210:145,1,58.4999973220826,0|0,1:2|0:0,0:0:0:0:
318,217,76296,5,8,0:0:0:0:
287,24,76454,1,0,1:2:0:0:
136,181,76612,5,10,0:0:0:0:
321,108,76767,2,0,P|386:106|445:129,1,116.999994644165,2|8,1:2|0:0,0:0:0:0:
406,317,77079,6,0,B|317:316|317:316|271:346|271:346|157:347,1,233.999989288331,6|2,1:2|1:2,0:0:0:0:
80,195,77551,5,10,0:0:0:0:
252,237,77709,1,2,1:2:0:0:
66,166,77867,5,10,0:0:0:0:
276,118,78025,1,0,1:2:0:0:
69,30,78183,5,10,0:0:0:0:
294,87,78341,2,0,P|356:98|413:93,1,116.999994644165,2|8,1:2|0:0,0:0:0:0:
356,0,78657,1,2,1:2:0:0:
186,186,78814,5,10,0:0:0:0:
264,1,78972,1,2,1:2:0:0:
340,202,79130,5,10,0:0:0:0:
264,20,79288,1,0,1:2:0:0:
156,250,79446,5,10,0:0:0:0:
342,104,79604,1,0,1:2:0:0:
342,104,79683,1,0,1:2:0:0:
342,104,79762,5,10,0:0:0:0:
116,80,79920,1,0,0:0:0:0:
348,203,80078,5,8,0:0:0:0:
81,213,80236,1,0,1:2:0:0:
317,327,80393,5,10,0:0:0:0:
243,115,80551,1,0,1:2:0:0:
168,338,80709,5,8,0:0:0:0:
243,84,80867,1,0,1:2:0:0:
385,231,81025,6,0,L|269:247,1,107.999996704102,14|0,0:0|1:2,0:0:0:0:
244,56,81347,2,0,L|360:72,1,107.999996704102,10|0,0:0|1:2,0:0:0:0:
155,188,81670,5,10,0:0:0:0:
238,20,81824,1,10,1:2:0:0:
299,257,81979,1,8,1:2:0:0:
84,129,82133,6,0,B|71:205|71:205|98:272|98:272|79:364,1,233.999989288331,6|0,1:2|1:0,0:0:0:0:
184,267,82611,1,8,1:2:0:0:
184,267,82690,1,0,1:0:0:0:
184,267,82770,2,0,L|258:257,1,58.4999973220826,2|0,1:2|1:0,0:0:0:0:
306,367,82930,5,10,1:2:0:0:
306,367,83008,1,0,1:0:0:0:
306,367,83087,2,0,L|232:357,1,58.4999973220826,2|0,1:2|1:0,0:0:0:0:
354,264,83244,1,8,1:2:0:0:
370,241,83323,1,0,1:0:0:0:
380,213,83402,1,2,1:2:0:0:
381,184,83481,1,0,1:0:0:0:
374,156,83559,6,0,L|351:95,3,58.4999973220826,10|0|2|0,1:2|1:0|1:2|1:0,0:0:0:0:
204,163,83874,1,8,1:2:0:0:
187,139,83953,1,0,1:0:0:0:
177,111,84032,1,2,1:2:0:0:
176,82,84111,1,0,1:0:0:0:
183,54,84190,6,0,L|206:-7,3,58.4999973220826,10|0|2|0,1:2|1:0|1:2|1:0,0:0:0:0:
67,61,84506,1,8,1:2:0:0:
34,90,84585,1,0,1:0:0:0:
23,131,84664,1,2,1:2:0:0:
35,173,84743,1,0,1:0:0:0:
27,208,84822,5,10,1:2:0:0:
59,237,84900,1,0,1:0:0:0:
70,278,84979,1,2,1:2:0:0:
58,320,85057,1,0,1:0:0:0:
26,348,85136,2,0,L|98:346,1,58.4999973220826,8|0,1:2|1:0,0:0:0:0:
175,285,85293,2,0,L|233:286,1,58.4999973220826,2|0,1:2|1:0,0:0:0:0:
343,315,85450,6,0,P|355:348|354:376,3,58.4999973220826,10|0|2|0,1:2|1:0|1:2|1:0,0:0:0:0:
302,201,85764,2,0,P|302:171|313:144,3,58.4999973220826,8|0|2|0,1:2|1:0|1:2|1:0,0:0:0:0:
428,256,86078,6,0,B|490:255,1,58.4999973220826,10|0,1:2|1:0,0:0:0:0:
467,112,86235,2,0,B|408:112,1,58.4999973220826,2|0,1:2|1:0,0:0:0:0:
252,107,86392,1,8,1:2:0:0:
222,107,86471,1,0,1:0:0:0:
193,107,86549,1,2,1:2:0:0:
164,108,86628,1,0,1:0:0:0:
135,108,86706,1,8,1:2:0:0:
196,211,86860,5,10,0:2:0:0:
196,211,86937,1,8,0:0:0:0:
196,211,87015,1,8,0:0:0:0:
306,29,87185,6,0,L|78:29,1,227.699992356262,6|0,1:2|0:0,0:0:0:0:
