osu file format v14

[General]
AudioFilename: audio.mp3
AudioLeadIn: 0
PreviewTime: 50722
Countdown: 0
SampleSet: Soft
StackLeniency: 0.3
Mode: 0
LetterboxInBreaks: 0
WidescreenStoryboard: 1

[Editor]
DistanceSpacing: 1.5
BeatDivisor: 4
GridSize: 8
TimelineZoom: 2.599999

[Metadata]
Title:Clattanoia (TV Size)
TitleUnicode:Clattanoia (TV Size)
Artist:OxT
ArtistUnicode:OxT
Creator:Nelliel
Version:BLITZIFYYY'S HARD
Source:オーバーロード
Tags:jrock overlord op opening japanese anime masayoshi ooishi kowari blitzifyyy Hello New World j-rock rock Ōishi Tom-H@ck Tom-Hack hotaru Season 1 one 大石昌良
BeatmapID:2977072
BeatmapSetID:1438655

[Difficulty]
HPDrainRate:4
CircleSize:3.5
OverallDifficulty:7
ApproachRate:8
SliderMultiplier:1.3
SliderTickRate:1

[Events]
//Background and Video events
0,0,"bg.jpg",0,0
Video,0,"Clattanoia.mp4"
//Break Periods
//Storyboard Layer 0 (Background)
//Storyboard Layer 1 (Fail)
//Storyboard Layer 2 (Pass)
//Storyboard Layer 3 (Foreground)
//Storyboard Layer 4 (Overlay)
//Storyboard Sound Samples

[TimingPoints]
201,300,4,2,1,70,1,0
201,-100,4,2,1,70,0,0
651,324.324324324324,4,2,1,70,1,0
651,-100,4,2,1,70,0,0
1137,300,4,2,1,70,1,0
1287,315.789473684211,4,2,1,70,1,0
1287,-100,4,2,1,70,0,0
1444,-100,4,2,1,70,0,0
1602,320.855614973262,4,2,1,70,1,0
2404,279.06976744186,4,2,1,70,1,0
2543,319.148936170213,4,2,1,85,1,0
2543,-100,4,2,1,85,0,0
2702,319.148936170213,4,2,1,85,1,0
3340,315.789473684211,4,2,1,85,1,0
3971,317.460317460317,4,2,1,85,1,0
5082,320.855614973262,4,2,1,85,1,0
5242,320.855614973262,4,2,1,85,1,0
5883,315.789473684211,4,2,1,85,1,0
6514,315.789473684211,4,2,1,85,1,0
7619,-100,4,2,1,80,0,0
8092,313.31592689295,4,2,1,80,1,0
9031,315.789473684211,4,2,1,80,1,0
11557,317.460317460317,4,2,1,80,1,0
12191,314.13612565445,4,2,1,80,1,0
12819,314.13612565445,4,2,1,80,1,0
14075,315.789473684211,4,2,1,80,1,0
16917,317.460317460317,4,2,1,80,1,0
17551,314.96062992126,4,2,1,80,1,0
17865,317.460317460317,4,2,1,70,1,0
17865,-100,4,2,1,70,0,0
19134,315.789473684211,4,2,1,70,1,0
21976,324.324324324324,4,2,1,70,1,0
22300,310.077519379845,4,2,1,70,1,0
22920,314.13612565445,4,2,1,70,1,0
24176,319.148936170213,4,2,1,70,1,0
25452,315.789473684211,4,2,1,70,1,0
26083,312.5,4,2,1,70,1,0
26708,307.692307692308,4,2,1,70,1,0
27169,315.789473684211,4,2,1,70,1,0
27484,333.333333333333,4,2,1,70,1,0
27817,300,4,2,1,70,1,0
27967,317.460317460317,4,2,1,70,1,0
27967,-100,4,2,1,70,0,0
27974,-100,4,2,1,75,0,0
29236,315.789473684211,4,2,1,75,1,0
32393,310.880829015544,4,2,1,75,1,0
33014,322.58064516129,4,2,1,75,1,0
33981,312.5,4,2,1,75,1,0
34293,315.789473684211,4,2,1,75,1,0
35556,-100,4,2,1,75,0,0
36819,-99.502487562189,4,2,1,75,0,0
37766,309.278350515464,4,2,1,75,1,0
38075,324.324324324324,3,2,1,60,1,0
38075,-100,3,2,1,60,0,0
39047,315.789473684211,3,2,1,60,1,0
39994,317.460317460317,3,2,1,60,1,0
40946,314.13612565445,3,2,1,60,1,0
42516,309.278350515464,3,2,1,60,1,0
43134,313.31592689295,3,2,1,60,1,0
43760,315.789473684211,3,2,1,60,1,0
43760,-100,3,2,1,60,0,0
44391,319.148936170213,3,2,1,60,1,0
44710,-99.502487562189,3,2,1,60,0,0
45029,314.96062992126,3,2,1,60,1,0
45658,314.96062992126,4,2,1,60,1,0
46287,323.450134770889,3,2,1,60,1,0
46610,313.31592689295,3,2,1,60,1,0
47236,327.868852459016,3,2,1,60,1,0
47552,-100,3,2,1,70,0,0
47563,317.460317460317,6,2,1,70,1,0
48197,315.789473684211,6,2,1,70,1,0
48828,314.13612565445,6,2,1,70,1,0
49456,316.622691292876,4,2,1,70,1,0
50880,329.67032967033,4,2,1,70,1,0
51044,315.789473684211,4,2,1,70,1,0
51675,279.06976744186,4,2,1,70,1,0
51814,322.58064516129,4,2,1,85,1,0
51814,-90.9090909090909,4,2,1,85,0,1
51975,322.58064516129,4,2,1,85,1,1
51975,-90.9090909090909,4,2,1,85,0,1
52297,315.789473684211,4,2,1,85,1,0
52297,-90.9090909090909,4,2,1,85,0,1
53244,315.789473684211,4,2,1,85,1,0
53244,-90.9090909090909,4,2,1,85,0,1
58612,312.5,4,2,1,85,1,0
58612,-90.9090909090909,4,2,1,85,0,1
59393,315.789473684211,4,2,1,85,1,0
59393,-90.9090909090909,4,2,1,85,0,1
59550,315.789473684211,4,2,1,85,1,0
59550,-90.9090909090909,4,2,1,85,0,1
60181,306.122448979592,4,2,1,85,1,0
60181,-90.9090909090909,4,2,1,85,0,1
60487,324.324324324324,4,2,1,85,1,0
60487,-90.9090909090909,4,2,1,85,0,1
60811,315.789473684211,4,2,1,85,1,0
60811,-90.9090909090909,4,2,1,85,0,1
61442,-90.9090909090909,4,2,1,75,0,0
61916,320.855614973262,4,2,1,85,1,0
61916,-90.9090909090909,4,2,1,85,0,1
62076,320.855614973262,4,2,1,85,1,1
62076,-90.9090909090909,4,2,1,85,0,1
62717,315.789473684211,4,2,1,85,1,1
62717,-90.9090909090909,4,2,1,85,0,1
63348,315.789473684211,4,2,1,85,1,1
63348,-90.9090909090909,4,2,1,85,0,1
68716,313.31592689295,4,2,1,85,1,1
68716,-90.9090909090909,4,2,1,85,0,1
69969,318.302387267905,4,2,1,85,1,1
69969,-90.9090909090909,4,2,1,85,0,1
70764,315.789473684211,4,2,1,85,1,1
70764,-90.9090909090909,4,2,1,85,0,1
70921,315.789473684211,4,2,1,85,1,1
70921,-90.9090909090909,4,2,1,85,0,1
71236,306.122448979592,4,2,1,85,1,1
71236,-90.9090909090909,4,2,1,85,0,1
71542,324.324324324324,4,2,1,85,1,1
71542,-90.9090909090909,4,2,1,85,0,1
72028,317.460317460317,4,2,1,85,1,0
72028,-100,4,2,1,85,0,0
72186,317.460317460317,4,2,1,85,1,0
74566,314.13612565445,4,2,1,85,1,0
74723,314.13612565445,4,2,1,85,1,0
75665,315.789473684211,4,2,1,85,1,0
76612,311.688311688312,4,2,1,85,1,0
77079,315.789473684211,4,2,1,85,1,0
77236,315.789473684211,4,2,1,85,1,0
81024,-100,4,2,1,75,0,0
81025,322.58064516129,4,2,1,75,1,0
81670,309.278350515464,4,2,1,75,1,0
82133,319.148936170213,4,2,1,80,1,0
82133,-90.9090909090909,4,2,1,80,0,1
82292,319.148936170213,4,2,1,80,1,1
82292,-90.9090909090909,4,2,1,80,0,1
82930,314.96062992126,4,2,1,80,1,1
82930,-90.9090909090909,4,2,1,80,0,1
83559,315.789473684211,4,2,1,80,1,1
83559,-90.9090909090909,4,2,1,80,0,1
84822,314.13612565445,4,2,1,80,1,1
84822,-90.9090909090909,4,2,1,80,0,1
86706,309.278350515464,4,2,1,80,1,0
86706,-90.9090909090909,4,2,1,80,0,1
87092,375,4,2,1,60,1,1
87092,-90.9090909090909,4,2,1,60,0,1
87185,315.789473684211,4,2,1,100,1,0
87185,-100,4,2,1,100,0,0
87342,315.789473684211,4,2,1,60,1,0
88605,-100,4,2,1,5,0,0

[Colours]
Combo1 : 143,143,143
Combo2 : 79,128,208
Combo3 : 180,180,180
Combo4 : 101,208,239

[HitObjects]
480,205,201,6,0,L|477:158,1,32.5,10|8,0:0|3:0,0:0:0:0:
458,121,351,2,0,L|461:74,3,32.5,10|8|0|0,3:0|3:0|1:0|1:0,0:0:0:0:
414,143,651,1,10,0:0:0:0:
321,112,813,6,0,B|288:104|288:104|251:113,2,65,10|2|10,3:0|1:2|0:0,0:0:0:0:
392,47,1287,1,6,1:2:0:0:
22,310,2543,6,0,B|101:304|66:361|163:349,1,130,6|0,1:2|1:0,0:0:0:0:
225,302,3021,2,0,P|234:270|226:239,1,65,10|0,0:0|0:0,0:0:0:0:
141,192,3340,2,0,P|131:223|139:254,1,65,2|0,1:2|1:0,0:0:0:0:
225,302,3655,2,0,L|333:299,1,97.5,8|0,0:0|0:0,0:0:0:0:
371,300,3971,5,2,1:2:0:0:
452,353,4129,1,0,1:0:0:0:
507,273,4288,2,0,L|503:189,1,65,8|0,0:0|0:0,0:0:0:0:
451,125,4605,2,0,L|455:41,2,65,2|2|8,1:2|1:2|0:0,0:0:0:0:
372,183,5082,6,0,B|235:179|372:188|235:183,1,130,6|0,1:2|1:0,0:0:0:0:
152,221,5562,2,0,B|141:254|141:254|151:284,1,65,10|0,0:0|0:0,0:0:0:0:
241,244,5883,2,0,B|252:211|252:211|242:181,1,65,2|0,1:2|1:0,0:0:0:0:
163,124,6198,2,0,L|61:127,1,97.5,8|0,0:0|0:0,0:0:0:0:
20,106,6514,5,2,1:2:0:0:
75,25,6671,1,0,1:0:0:0:
171,35,6829,2,0,P|206:43|243:33,1,65,8|0,0:0|1:0,0:0:0:0:
336,17,7145,1,10,0:0:0:0:
336,17,7224,1,8,0:0:0:0:
336,17,7303,2,0,L|330:59,3,32.5,8|10|8|8,0:0|0:0|0:0|0:0,0:0:0:0:
314,95,7619,6,0,B|372:80|372:80|448:98,1,130,6|0,1:2|1:2,0:0:0:0:
507,167,8092,2,0,P|517:200|508:238,1,65,8|2,0:0|0:0,0:0:0:0:
449,306,8405,1,2,1:2:0:0:
449,306,8561,1,2,1:2:0:0:
364,257,8718,2,0,L|289:261,1,65,8|2,0:0|0:0,0:0:0:0:
216,311,9031,6,0,L|141:307,2,65,2|2|8,1:2|1:2|0:0,0:0:0:0:
299,260,9504,1,2,1:2:0:0:
299,260,9583,1,0,1:2:0:0:
299,260,9662,1,0,1:2:0:0:
244,179,9820,2,0,P|227:138|242:95,1,65,2|8,1:2|0:0,0:0:0:0:
291,42,10136,6,0,P|230:20|160:46,1,130,6|0,1:2|1:2,0:0:0:0:
116,121,10609,1,8,0:0:0:0:
116,121,10767,1,2,0:0:0:0:
158,208,10925,2,0,L|155:280,1,65,2|2,1:2|1:2,0:0:0:0:
150,371,11241,1,8,0:0:0:0:
150,371,11399,1,2,0:0:0:0:
73,310,11557,6,0,P|63:279|70:247,2,65,2|2|8,1:2|1:2|0:0,0:0:0:0:
177,308,12033,1,2,1:2:0:0:
177,308,12112,1,0,1:2:0:0:
177,308,12191,1,0,1:2:0:0:
166,211,12348,2,0,L|89:213,1,65,2|8,1:2|0:0,0:0:0:0:
17,172,12662,6,0,B|-2:110|-2:110|17:39,1,130,6|0,1:2|1:2,0:0:0:0:
104,6,13133,1,8,0:0:0:0:
104,6,13290,1,2,0:0:0:0:
176,71,13447,2,0,L|253:68,1,65,2|2,1:2|1:2,0:0:0:0:
324,17,13761,1,8,0:0:0:0:
324,17,13918,1,2,0:0:0:0:
390,88,14075,6,0,B|395:122|395:122|386:168,1,65,2|2,1:2|1:2,0:0:0:0:
333,232,14390,1,8,0:0:0:0:
260,166,14548,1,2,1:2:0:0:
260,166,14627,1,0,1:2:0:0:
260,166,14706,1,0,1:2:0:0:
182,225,14864,2,0,P|146:232|115:223,1,65,2|8,1:2|0:0,0:0:0:0:
28,188,15180,6,0,B|45:222|45:222|37:326,1,130,6|0,1:2|1:2,0:0:0:0:
111,379,15653,1,8,0:0:0:0:
111,379,15811,1,2,0:0:0:0:
194,328,15969,2,0,P|229:320|266:326,1,65,2|2,1:2|1:2,0:0:0:0:
342,371,16285,1,8,0:0:0:0:
342,371,16443,1,2,0:0:0:0:
411,302,16601,5,2,1:2:0:0:
337,236,16759,1,10,0:0:0:0:
267,303,16917,2,0,L|218:305,3,32.5,8|8|10|8,0:0|0:0|0:0|0:0,0:0:0:0:
200,270,17234,2,0,L|151:268,3,32.5,8|8|10|8,3:0|3:0|0:0|0:0,0:0:0:0:
122,288,17551,2,0,L|73:290,3,32.5,8|8|8|8,0:0|3:0|3:0|3:0,0:0:0:0:
49,262,17865,6,0,P|71:199|39:144,1,130,4|10,1:2|0:0,0:0:0:0:
51,53,18341,1,2,0:0:0:0:
51,53,18499,2,0,P|89:42|131:52,1,65,2|2,1:2|1:2,0:0:0:0:
193,102,18817,2,0,P|231:113|273:103,1,65,10|2,0:0|0:0,0:0:0:0:
342,64,19134,6,0,L|338:-5,2,65,2|2|10,1:2|0:0|0:0,0:0:0:0:
418,132,19607,1,2,0:0:0:0:
418,132,19765,2,0,L|414:201,1,65,2|2,1:2|1:2,0:0:0:0:
342,263,20081,2,0,L|346:332,1,65,8|0,0:0|0:0,0:0:0:0:
429,379,20397,6,0,P|465:384|502:374,1,65,2|0,1:2|0:0,0:0:0:0:
493,280,20712,2,0,P|457:275|420:285,1,65,10|0,0:0|0:0,0:0:0:0:
345,327,21028,1,2,1:2:0:0:
345,327,21186,2,0,P|309:332|272:322,1,65,2|8,1:2|0:0,0:0:0:0:
193,296,21502,1,2,0:0:0:0:
193,296,21660,6,0,L|196:383,2,65,2|2|10,1:2|1:2|0:0,0:0:0:0:
141,212,22138,1,2,0:0:0:0:
209,142,22300,2,0,B|251:122|297:143|297:143|302:133|302:133|351:159|400:130,1,195,2|0,1:2|0:0,0:0:0:0:
466,73,22920,5,4,1:2:0:0:
386,16,23077,1,2,0:0:0:0:
386,16,23234,2,0,L|318:19,1,65,10|2,0:0|0:0,0:0:0:0:
243,78,23548,1,2,1:2:0:0:
243,78,23705,2,0,L|111:71,1,130,2|0,1:2|0:0,0:0:0:0:
19,71,24176,5,2,1:2:0:0:
19,71,24335,1,2,0:0:0:0:
73,158,24495,1,10,0:0:0:0:
73,158,24654,2,0,P|82:196|69:241,1,65,2|0,0:0|1:2,0:0:0:0:
68,318,24973,2,0,B|97:317|130:299|130:299|157:317|195:316,1,130,2|2,1:2|0:0,0:0:0:0:
277,268,25452,6,0,P|284:230|276:198,1,65,2|0,1:2|0:0,0:0:0:0:
217,128,25767,2,0,P|210:90|218:58,1,65,10|2,0:0|0:0,0:0:0:0:
293,4,26083,2,0,L|426:12,1,130,2|8,1:2|0:0,0:0:0:0:
494,78,26551,1,2,1:2:0:0:
416,136,26708,6,0,L|372:134,4,32.5,8|8|0|0|2,0:0|3:0|1:0|1:0|1:2,0:0:0:0:
480,209,27169,2,0,L|524:207,4,32.5,10|8|2|0|0,0:0|3:0|1:2|1:0|1:2,0:0:0:0:
407,275,27650,1,8,0:0:0:0:
329,215,27817,1,8,3:0:0:0:
329,215,27892,1,8,3:0:0:0:
329,215,27967,6,0,L|241:217,1,65,4|2,1:2|0:0,0:0:0:0:
171,250,28284,2,0,L|83:248,1,65,10|2,0:0|0:0,0:0:0:0:
33,183,28601,2,0,P|24:149|36:114,1,65,2|0,1:2|1:2,0:0:0:0:
100,51,28919,1,10,0:0:0:0:
100,51,29078,1,2,0:0:0:0:
188,91,29236,6,0,L|258:88,1,65,2|2,1:2|1:2,0:0:0:0:
340,42,29551,2,0,L|410:45,1,65,10|2,0:0|0:0,0:0:0:0:
472,116,29867,1,2,1:2:0:0:
472,116,30025,2,0,B|459:150|459:150|474:248,1,130,2|0,1:2|0:0,0:0:0:0:
410,318,30499,6,0,L|339:316,1,65,2|0,1:2|0:0,0:0:0:0:
275,246,30814,2,0,B|266:212|266:212|273:179,1,65,10|0,0:0|0:0,0:0:0:0:
332,106,31130,1,2,1:2:0:0:
332,106,31288,2,0,P|272:85|207:107,1,130,2|2,1:2|0:0,0:0:0:0:
149,179,31762,6,0,B|143:213|143:213|153:249,1,65,2|2,1:2|1:2,0:0:0:0:
215,319,32078,2,0,L|285:315,1,65,10|2,0:0|0:0,0:0:0:0:
372,283,32393,2,0,B|356:236|356:236|366:197|366:197|339:148|362:92,1,195,2|8,1:2|3:0,0:0:0:0:
390,55,32937,1,8,3:0:0:0:
390,55,33014,6,0,B|357:62|357:62|318:54,1,65,4|2,1:2|0:0,0:0:0:0:
240,8,33336,1,10,0:0:0:0:
240,8,33497,1,2,0:0:0:0:
167,73,33659,1,2,1:2:0:0:
215,157,33820,2,0,P|227:194|216:231,1,65,2|8,1:2|0:0,0:0:0:0:
170,302,34137,6,0,P|158:339|169:376,2,65,2|2|2,0:0|1:2|1:2,0:0:0:0:
222,218,34608,1,10,0:0:0:0:
222,218,34766,2,0,B|173:204|173:204|85:226,1,130,2|2,0:0|1:2,0:0:0:0:
27,161,35240,1,10,0:0:0:0:
27,161,35398,1,2,0:0:0:0:
93,89,35556,6,0,L|194:91,1,97.5,2|0,1:2|0:0,0:0:0:0:
231,117,35871,2,0,L|332:115,1,97.5,10|0,0:0|0:0,0:0:0:0:
371,91,36187,2,0,B|361:121|361:121|372:209,1,97.5,2|0,1:2|0:0,0:0:0:0:
380,234,36503,1,10,0:0:0:0:
476,201,36661,1,0,1:2:0:0:
476,201,36740,1,0,1:2:0:0:
476,201,36819,6,0,L|473:127,1,65,10|2,0:0|1:2,0:0:0:0:
403,66,37135,2,0,P|366:53|327:69,1,65,10|0,0:0|1:2,0:0:0:0:
302,89,37371,1,8,3:0:0:0:
302,89,37450,2,0,B|265:84|251:68|251:68|242:86|219:85|219:85|232:103|218:118|218:118|239:121|254:141|254:141|265:120,1,195,10|0,0:0|1:2,0:0:0:0:
315,205,38075,6,0,P|252:227|191:203,1,130,6|2,1:2|0:0,0:0:0:0:
35,93,38723,1,2,0:0:0:0:
35,93,39047,2,0,B|66:141|37:194|39:170|12:223|43:291,1,195,2|2,0:0|0:0,0:0:0:0:
106,351,39678,2,0,L|177:346,1,65,2|0,0:0|0:0,0:0:0:0:
249,287,39994,6,0,P|256:251|248:219,1,65,2|2,0:0|0:0,0:0:0:0:
189,146,40311,1,2,0:0:0:0:
189,146,40470,1,2,0:0:0:0:
263,83,40628,2,0,L|344:85,1,65,2|2,0:0|0:0,0:0:0:0:
414,131,40946,2,0,B|387:169|407:236|407:236|451:264|444:332,1,195,2|0,0:0|0:0,0:0:0:0:
370,371,41574,1,2,0:0:0:0:
370,371,41731,1,2,0:0:0:0:
281,329,41888,6,0,B|247:321|247:321|205:329,1,65,2|2,1:2|0:0,0:0:0:0:
128,368,42202,2,0,B|94:376|94:376|52:368,1,65,2|2,0:0|0:0,0:0:0:0:
9,295,42516,1,2,0:0:0:0:
9,295,42670,1,10,3:0:0:0:
82,230,42825,1,10,3:0:0:0:
82,230,42979,1,2,0:0:0:0:
163,284,43134,2,0,L|237:282,1,65,10|10,3:0|3:0,0:0:0:0:
313,234,43447,2,0,L|387:236,1,65,10|10,3:0|3:0,0:0:0:0:
457,177,43760,6,0,P|483:234|461:293,2,130,6|2|2,1:2|0:0|0:0,0:0:0:0:
378,118,44550,1,0,1:2:0:0:
295,170,44710,2,0,B|93:164|298:175|91:171,1,195,10|10,0:0|3:0,0:0:0:0:
21,113,45343,1,10,3:0:0:0:
21,113,45658,6,0,P|12:80|20:48,1,65,6|2,1:2|0:0,0:0:0:0:
103,0,45972,2,0,L|173:5,1,65,2|2,1:2|0:0,0:0:0:0:
254,61,46287,1,2,1:2:0:0:
254,61,46448,1,2,1:2:0:0:
195,139,46610,2,0,P|168:195|196:262,1,130,10|0,0:0|1:2,0:0:0:0:
272,307,47079,1,0,1:2:0:0:
352,253,47236,1,10,0:0:0:0:
352,253,47399,1,2,0:0:0:0:
432,308,47563,5,6,1:2:0:0:
292,171,47880,5,6,1:2:0:0:
144,298,48197,6,0,P|84:326|22:301,1,130,6|14,1:2|1:2,0:0:0:0:
16,110,48828,6,0,P|76:82|138:107,1,130,14|14,1:2|1:2,0:0:0:0:
248,259,49456,6,0,L|246:326,1,65,10|8,1:2|1:2,0:0:0:0:
441,328,49930,6,0,L|439:261,1,65,8|8,1:2|1:2,0:0:0:0:
347,96,50405,5,8,1:2:0:0:
347,96,50564,1,12,1:2:0:0:
438,292,51814,6,0,P|487:278|478:358,1,143.000004364014,4|0,1:2|1:2,0:0:0:0:
393,381,52297,2,0,L|318:375,1,71.5000021820069,10|0,0:0|0:0,0:0:0:0:
237,308,52612,1,2,1:2:0:0:
237,308,52770,1,0,1:2:0:0:
148,369,52928,2,0,L|73:363,1,71.5000021820069,10|0,0:0|0:0,0:0:0:0:
8,279,53244,6,0,B|31:244|19:209|19:209|-13:179|5:135,1,143.000004364014,2|8,1:2|0:0,0:0:0:0:
69,62,53717,1,0,0:0:0:0:
69,62,53875,2,0,P|21:57|-13:71,2,71.5000021820069,2|2|8,1:2|1:2|0:0,0:0:0:0:
162,114,54349,6,0,B|210:130|241:107|222:107|265:83|308:106,1,143.000004364014,6|0,1:2|1:2,0:0:0:0:
397,147,54822,2,0,L|393:60,1,71.5000021820069,10|0,0:0|0:0,0:0:0:0:
477,6,55138,1,2,1:2:0:0:
477,6,55296,1,0,1:2:0:0:
503,110,55454,2,0,L|506:181,1,71.5000021820069,10|0,0:0|0:0,0:0:0:0:
436,260,55770,6,0,B|410:257|393:244|393:244|377:263|341:269|341:269|334:266|334:266|309:274|282:264,1,143.000004364014,2|8,1:2|0:0,0:0:0:0:
209,217,56244,1,0,0:0:0:0:
127,285,56401,1,2,1:2:0:0:
127,285,56559,2,0,P|114:320|122:354,1,71.5000021820069,2|8,1:2|0:0,0:0:0:0:
226,376,56875,6,0,B|380:373|226:380|389:378,1,143.000004364014,6|0,1:2|1:2,0:0:0:0:
458,319,57349,2,0,P|466:278|455:246,1,71.5000021820069,8|0,0:0|0:0,0:0:0:0:
385,176,57665,1,2,1:2:0:0:
385,176,57822,2,0,P|377:135|388:103,1,71.5000021820069,2|8,1:2|0:0,0:0:0:0:
453,22,58138,6,0,P|387:-7|319:23,1,143.000004364014,6|0,1:2|1:2,0:0:0:0:
235,77,58612,2,0,L|157:73,1,71.5000021820069,8|0,0:0|0:0,0:0:0:0:
71,28,58924,1,2,1:2:0:0:
71,28,59080,2,0,B|56:63|56:63|62:99,1,71.5000021820069,2|8,1:2|0:0,0:0:0:0:
143,166,59393,6,0,B|154:201|154:201|135:306,1,143.000004364014,6|0,1:2|1:2,0:0:0:0:
44,365,59865,2,0,P|80:354|120:363,1,71.5000021820069,10|0,0:0|1:2,0:0:0:0:
217,383,60181,1,10,0:0:0:0:
217,383,60334,1,2,1:2:0:0:
285,300,60487,2,0,L|283:222,1,71.5000021820069,8|2,0:0|1:2,0:0:0:0:
269,175,60730,1,0,1:2:0:0:
269,175,60811,6,0,L|269:136,3,35.7500010910034,8|8|2|8,0:0|0:0|1:2|3:0,0:0:0:0:
244,91,61126,2,0,L|243:52,3,35.7500010910034,10|8|0|8,3:0|3:0|1:2|3:0,0:0:0:0:
280,16,61442,2,0,P|301:12|324:17,3,35.7500010910034,10|8|2|0,3:0|3:0|1:2|1:2,0:0:0:0:
360,43,61758,1,8,0:0:0:0:
460,4,61916,6,0,B|483:73|483:73|461:150,1,143.000004364014,6|0,1:2|1:2,0:0:0:0:
377,206,62396,2,0,L|299:204,1,71.5000021820069,10|0,0:0|0:0,0:0:0:0:
216,143,62717,1,2,1:2:0:0:
216,143,62874,1,0,1:2:0:0:
155,230,63032,2,0,P|144:268|149:299,1,71.5000021820069,10|0,0:0|0:0,0:0:0:0:
246,344,63348,6,0,B|283:333|283:333|318:346|318:346|348:334|396:345,1,143.000004364014,2|8,1:2|0:0,0:0:0:0:
489,308,63821,1,0,0:0:0:0:
489,308,63979,2,0,P|496:349|490:379,2,71.5000021820069,2|2|8,1:2|1:2|0:0,0:0:0:0:
413,230,64453,6,0,P|376:211|308:277,1,143.000004364014,6|0,1:2|1:2,0:0:0:0:
259,364,64926,2,0,L|178:357,1,71.5000021820069,10|0,0:0|0:0,0:0:0:0:
83,353,65242,1,2,1:2:0:0:
83,353,65400,1,0,1:2:0:0:
133,258,65558,2,0,P|143:221|133:186,1,71.5000021820069,10|0,0:0|0:0,0:0:0:0:
71,102,65874,6,0,B|44:115|44:115|166:107,1,143.000004364014,2|8,1:2|0:0,0:0:0:0:
242,40,66348,1,2,0:0:0:0:
330,100,66505,1,2,1:2:0:0:
330,100,66663,2,0,L|326:183,1,71.5000021820069,2|8,1:2|0:0,0:0:0:0:
243,240,66979,6,0,B|204:251|176:211|197:201|175:162|123:175,1,143.000004364014,6|0,1:2|1:2,0:0:0:0:
32,217,67453,2,0,P|23:254|36:296,1,71.5000021820069,8|2,0:0|0:0,0:0:0:0:
96,377,67769,1,2,1:2:0:0:
96,377,67926,2,0,L|179:374,1,71.5000021820069,2|8,1:2|0:0,0:0:0:0:
257,314,68242,6,0,B|402:319|256:320|402:325,1,143.000004364014,6|0,1:2|1:2,0:0:0:0:
499,364,68716,2,0,P|507:315|495:280,1,71.5000021820069,8|0,0:0|0:0,0:0:0:0:
442,211,69029,1,2,1:2:0:0:
442,211,69185,2,0,P|393:203|358:215,1,71.5000021820069,2|8,1:2|0:0,0:0:0:0:
279,262,69499,6,0,B|246:268|210:245|210:245|177:270|131:261,1,143.000004364014,6|2,1:2|1:2,0:0:0:0:
60,202,69969,1,10,0:0:0:0:
60,202,70128,1,2,0:0:0:0:
129,120,70287,2,0,L|207:122,1,71.5000021820069,2|0,1:2|1:2,0:0:0:0:
296,170,70605,1,10,0:0:0:0:
296,170,70764,6,0,L|374:168,1,71.5000021820069,6|0,1:2|0:0,0:0:0:0:
460,111,71078,1,10,0:0:0:0:
460,111,71236,2,0,P|464:72|446:36,1,71.5000021820069,8|0,0:0|1:2,0:0:0:0:
352,0,71542,1,8,0:0:0:0:
352,0,71623,1,8,3:0:0:0:
352,0,71704,2,0,L|310:3,3,35.7500010910034,8|8|8|8,3:0|3:0|3:0|3:0,0:0:0:0:
272,24,72028,6,0,L|124:20,1,130,6|2,1:2|1:2,0:0:0:0:
44,9,72503,1,10,0:0:0:0:
44,9,72662,1,2,1:2:0:0:
1,96,72820,2,0,P|-7:130|6:172,1,65,10|0,0:0|1:2,0:0:0:0:
54,240,73138,1,10,0:0:0:0:
134,184,73297,6,0,L|209:187,1,65,2|8,1:2|0:0,0:0:0:0:
288,237,73614,1,2,1:2:0:0:
288,237,73773,2,0,L|363:234,1,65,10|2,0:0|1:2,0:0:0:0:
439,281,74090,2,0,B|448:315|448:315|441:347,1,65,10|0,0:0|1:2,0:0:0:0:
349,378,74408,1,10,0:0:0:0:
268,322,74566,6,0,B|245:302|245:302|187:304|158:353,1,130,6|0,1:2|1:2,0:0:0:0:
68,376,75037,2,0,L|64:307,1,65,8|0,0:0|1:2,0:0:0:0:
11,228,75351,2,0,L|15:159,1,65,8|0,0:0|1:2,0:0:0:0:
58,75,75665,1,8,0:0:0:0:
149,132,75822,1,0,1:2:0:0:
149,132,75901,1,0,1:2:0:0:
149,132,75980,6,0,P|183:141|217:131,1,65,8|0,0:0|1:2,0:0:0:0:
293,80,76296,2,0,P|327:71|361:81,1,65,8|0,0:0|1:2,0:0:0:0:
427,143,76612,2,0,L|428:212,2,65,10|2|8,0:0|1:2|0:0,0:0:0:0:
355,77,77079,6,0,B|326:64|294:80|294:80|288:74|288:74|258:89|224:74,1,130,6|2,1:2|1:2,0:0:0:0:
150,21,77551,1,10,0:0:0:0:
150,21,77709,1,2,1:2:0:0:
84,92,77867,2,0,L|88:183,1,65,10|0,0:0|1:2,0:0:0:0:
138,239,78183,1,10,0:0:0:0:
220,187,78341,6,0,P|255:179|287:188,1,65,2|8,1:2|0:0,0:0:0:0:
369,242,78657,1,2,1:2:0:0:
369,242,78814,2,0,P|404:250|436:241,1,65,10|2,0:0|1:2,0:0:0:0:
497,170,79130,2,0,L|491:99,1,65,10|0,0:0|1:2,0:0:0:0:
427,30,79446,1,10,0:0:0:0:
347,80,79604,1,0,1:2:0:0:
347,80,79683,1,0,1:2:0:0:
347,80,79762,6,0,B|334:77|324:60|324:60|336:178,1,130,10|8,0:0|0:0,0:0:0:0:
392,236,80236,1,0,1:2:0:0:
312,292,80393,2,0,B|249:307|249:307|183:287,1,130,10|8,0:0|0:0,0:0:0:0:
112,223,80867,1,0,1:2:0:0:
45,293,81025,6,0,P|36:331|45:362,1,65,14|0,0:0|1:2,0:0:0:0:
136,381,81347,2,0,L|211:380,1,65,10|0,0:0|1:2,0:0:0:0:
250,374,81589,1,0,1:2:0:0:
250,374,81670,1,10,0:0:0:0:
302,291,81824,1,10,1:2:0:0:
243,213,81979,1,8,1:2:0:0:
305,125,82133,6,0,B|344:108|386:128|368:128|408:148|447:132,1,143.000004364014,6|0,1:2|1:0,0:0:0:0:
491,106,82531,1,0,1:0:0:0:
491,106,82611,2,0,P|496:84|488:62,3,35.7500010910034,8|0|2|0,1:2|1:0|1:2|1:0,0:0:0:0:
461,27,82930,2,0,L|411:31,3,35.7500010910034,10|0|2|0,1:2|1:0|1:2|1:0,0:0:0:0:
373,45,83244,1,8,1:2:0:0:
275,33,83402,1,2,1:2:0:0:
275,33,83481,1,0,1:0:0:0:
275,33,83559,6,0,L|223:37,3,35.7500010910034,10|0|2|0,1:2|1:0|1:2|1:0,0:0:0:0:
190,59,83874,2,0,L|138:55,3,35.7500010910034,8|0|2|0,1:2|1:0|1:2|1:0,0:0:0:0:
115,92,84190,2,0,P|109:105|109:137,3,35.7500010910034,10|0|2|0,1:2|1:0|1:2|1:0,0:0:0:0:
120,178,84506,1,8,1:2:0:0:
209,237,84664,1,2,1:2:0:0:
209,237,84743,1,0,1:0:0:0:
209,237,84822,6,0,L|256:234,3,35.7500010910034,10|0|2|0,1:2|1:0|1:2|1:0,0:0:0:0:
290,205,85136,2,0,L|337:208,3,35.7500010910034,8|0|2|0,1:2|1:0|1:2|1:0,0:0:0:0:
371,236,85450,2,0,L|418:233,3,35.7500010910034,10|0|2|0,1:2|1:0|1:2|1:0,0:0:0:0:
454,210,85764,1,8,1:2:0:0:
501,317,85921,1,2,1:2:0:0:
501,317,86000,1,0,1:0:0:0:
501,317,86078,6,0,P|507:342|500:362,3,35.7500010910034,10|0|2|0,1:2|1:0|1:2|1:0,0:0:0:0:
456,375,86392,2,0,L|410:374,3,35.7500010910034,8|0|2|0,1:2|1:0|1:2|1:0,0:0:0:0:
377,360,86706,1,8,1:2:0:0:
377,360,86783,1,8,0:0:0:0:
377,360,86860,2,0,L|331:361,3,35.7500010910034,10|8|8|8,0:2|0:0|0:0|0:0,0:0:0:0:
284,374,87185,1,6,1:2:0:0:
256,192,87263,12,0,88605,0:0:0:0:
