osu file format v14

[General]
AudioFilename: audio.mp3
AudioLeadIn: 0
PreviewTime: 50802
Countdown: 0
SampleSet: Normal
StackLeniency: 0.7
Mode: 0
LetterboxInBreaks: 0
WidescreenStoryboard: 0

[Editor]
Bookmarks: 2486,7539,16854,17012,17802,26644,27907,38012,47170,49381,50486,50644,50802,51749,71960,75907,79696,80960,82065,86644,87118,87275
DistanceSpacing: 1
BeatDivisor: 4
GridSize: 16
TimelineZoom: 1.7

[Metadata]
Title:Cattanoia
TitleUnicode:Cattanoia
Artist:OxT (Masayoshi Oishi x Tom-H@ck)
ArtistUnicode:OxT(オーイシマサヨシ × Tom-H@ck)
Creator:Disorted
Version:Extra
Source:オーバーロード
Tags:Clattanoia OxT Disorted Overlord Opening TV Size
BeatmapID:1260171
BeatmapSetID:595797

[Difficulty]
HPDrainRate:7
CircleSize:4
OverallDifficulty:8
ApproachRate:9.5
SliderMultiplier:1.6
SliderTickRate:1

[Events]
//Background and Video events
0,0,"Clattanoia.jpg",0,0
//Break Periods
//Storyboard Layer 0 (Background)
//Storyboard Layer 1 (Fail)
//Storyboard Layer 2 (Pass)
//Storyboard Layer 3 (Foreground)
//Storyboard Sound Samples

[TimingPoints]
118,315.789473684211,4,1,0,100,1,0
118,-100,4,1,0,75,0,0
2486,-100,4,1,0,90,0,1
7539,-100,4,1,0,70,0,0
17802,-100,4,1,0,60,0,0
27907,-100,4,1,0,70,0,0
38012,-100,4,1,0,50,0,0
51749,-100,4,1,0,80,0,1
71960,-100,4,1,0,70,0,0
82065,-100,4,1,0,70,0,1
87275,-100,4,1,0,30,0,0

[HitObjects]
165,112,118,6,0,P|225:172|237:260,1,160
187,341,591,1,0,0:0:0:0:
74,298,749,1,0,0:0:0:0:
152,207,907,1,0,0:0:0:0:
43,153,1065,2,0,P|74:103|98:90,1,80
410,75,2486,6,0,P|422:162|414:254,1,160
348,327,2960,1,0,0:0:0:0:
252,241,3118,1,0,0:0:0:0:
333,150,3275,1,0,0:0:0:0:
393,268,3433,1,0,0:0:0:0:
291,345,3591,2,0,P|179:331|144:283,1,160
152,299,4223,1,0,0:0:0:0:
287,244,4539,5,0,0:0:0:0:
242,86,4697,1,0,0:0:0:0:
396,41,4854,5,0,0:0:0:0:
396,41,4933,1,0,0:0:0:0:
396,41,5012,2,0,B|390:127|390:127|366:161|298:182,1,160
214,204,5486,2,0,L|193:161,1,40
165,142,5644,1,0,0:0:0:0:
34,36,5802,1,0,0:0:0:0:
62,70,5881,2,0,L|77:133,1,40
111,257,6117,2,0,B|130:298|130:298|169:293|197:325|197:325|234:309,1,160
390,259,6749,2,0,P|401:200|389:166,1,80
321,97,7065,6,0,P|306:158|329:199,1,80
390,259,7381,1,0,0:0:0:0:
446,168,7539,2,0,P|380:99|232:98,1,240
74,111,8328,6,0,P|83:189|95:213,1,80
176,273,8644,2,0,P|179:223|170:186,1,80
131,48,8960,2,0,P|108:94|99:131,1,80
245,175,9275,2,0,P|205:140|163:125,1,80
81,248,9591,2,0,P|126:235|171:197,1,80
224,142,9907,1,0,0:0:0:0:
328,199,10065,6,0,B|373:212|386:256|386:256|368:310|314:322,1,160
188,335,10539,1,0,0:0:0:0:
104,219,10696,1,0,0:0:0:0:
104,219,10854,1,0,0:0:0:0:
236,178,11012,1,0,0:0:0:0:
129,112,11170,1,0,0:0:0:0:
129,112,11328,1,0,0:0:0:0:
29,113,11486,1,0,0:0:0:0:
231,112,11644,2,0,P|254:157|255:195,1,80
200,296,11960,1,0,0:0:0:0:
103,213,12118,1,0,0:0:0:0:
185,131,12275,2,0,P|253:153|275:179,1,80
296,279,12591,6,0,P|237:228|272:147,1,160
344,126,13065,1,0,0:0:0:0:
319,309,13223,1,0,0:0:0:0:
195,204,13381,1,0,0:0:0:0:
356,209,13539,2,0,P|339:253|298:287,1,80
251,174,13854,2,0,P|268:131|302:115,1,80
406,109,14170,1,0,0:0:0:0:
406,109,14328,1,0,0:0:0:0:
343,249,14486,1,0,0:0:0:0:
343,249,14644,2,0,P|283:279|238:268,1,80
119,193,14960,5,0,0:0:0:0:
119,193,15039,1,0,0:0:0:0:
119,193,15118,2,0,P|203:175|290:200,1,160
404,245,15591,1,0,0:0:0:0:
245,304,15749,1,0,0:0:0:0:
245,304,15907,1,0,0:0:0:0:
239,113,16065,1,0,0:0:0:0:
386,223,16223,1,0,0:0:0:0:
386,223,16381,1,0,0:0:0:0:
154,209,16539,1,0,0:0:0:0:
233,57,16696,1,0,0:0:0:0:
360,204,16854,5,0,0:0:0:0:
360,204,16933,1,0,0:0:0:0:
360,204,17012,1,0,0:0:0:0:
360,204,17091,1,0,0:0:0:0:
360,204,17170,1,0,0:0:0:0:
340,238,17249,1,0,0:0:0:0:
303,253,17328,1,0,0:0:0:0:
263,249,17407,1,0,0:0:0:0:
233,221,17486,5,0,0:0:0:0:
206,250,17565,1,0,0:0:0:0:
216,288,17644,1,0,0:0:0:0:
242,317,17723,1,0,0:0:0:0:
281,324,17802,5,0,0:0:0:0:
415,287,17960,1,0,0:0:0:0:
415,287,18118,1,0,0:0:0:0:
316,117,18275,1,0,0:0:0:0:
117,149,18433,1,0,0:0:0:0:
117,149,18591,2,0,P|111:197|122:230,1,80
220,317,18907,2,0,P|231:264|205:217,1,80
150,97,19223,1,0,0:0:0:0:
86,271,19381,1,0,0:0:0:0:
216,204,19539,1,0,0:0:0:0:
50,150,19696,1,0,0:0:0:0:
188,312,19854,1,0,0:0:0:0:
210,30,20328,5,0,0:0:0:0:
290,302,20644,1,0,0:0:0:0:
342,64,20960,1,0,0:0:0:0:
358,211,21118,1,0,0:0:0:0:
170,153,21433,6,0,P|232:135|263:138,1,80
361,151,21749,1,0,0:0:0:0:
264,230,21907,1,0,0:0:0:0:
226,247,21986,1,0,0:0:0:0:
207,289,22065,1,0,0:0:0:0:
163,301,22144,1,0,0:0:0:0:
117,284,22223,2,0,P|126:184|190:148,2,160
229,354,23012,5,0,0:0:0:0:
324,246,23170,1,0,0:0:0:0:
181,233,23328,1,0,0:0:0:0:
324,337,23486,1,0,0:0:0:0:
256,167,23644,1,0,0:0:0:0:
200,53,24118,5,0,0:0:0:0:
277,30,24275,1,0,0:0:0:0:
356,18,24433,2,0,P|387:48|402:93,1,80
392,257,24749,2,0,P|349:218|334:179,1,80
314,93,25065,1,0,0:0:0:0:
314,93,25223,1,0,0:0:0:0:
470,65,25381,1,0,0:0:0:0:
441,192,25539,5,0,0:0:0:0:
441,192,25618,1,0,0:0:0:0:
441,192,25696,2,0,L|433:292,1,80
343,355,26012,2,0,P|314:265|339:189,1,160
378,91,26486,2,0,P|412:140|424:184,1,80
424,198,26723,1,0,0:0:0:0:
422,237,26802,1,0,0:0:0:0:
297,339,26960,2,0,L|279:280,1,40
302,263,27118,1,0,0:0:0:0:
318,91,27275,1,0,0:0:0:0:
353,118,27354,2,0,L|375:158,1,40
427,296,27591,1,0,0:0:0:0:
427,296,27749,1,0,0:0:0:0:
478,194,27907,6,0,L|292:198,1,160
95,199,28381,2,0,P|138:231|174:252,1,80
300,246,28696,2,0,P|265:215|232:191,1,80
120,276,29012,2,0,P|192:274|215:260,1,80
170,107,29328,2,0,P|156:146|155:192,2,80
238,33,29802,1,0,0:0:0:0:
385,166,29960,1,0,0:0:0:0:
167,281,30433,6,0,P|133:232|125:202,1,80
165,109,30749,2,0,P|202:139|214:179,1,80
242,298,31065,2,0,P|190:294|144:251,1,80
78,126,31539,5,0,0:0:0:0:
78,126,31618,1,0,0:0:0:0:
78,126,31696,2,0,L|114:201,1,80
176,305,32012,1,0,0:0:0:0:
176,305,32170,1,0,0:0:0:0:
289,219,32328,2,0,B|291:195|291:195|277:192|277:192|284:164|284:164|263:181|263:181|254:146|254:146|238:179|238:179|226:146|226:146|215:181|215:181|195:166|195:166|204:189|204:189|190:196|190:196|193:225,1,320
161,336,33118,5,0,0:0:0:0:
253,319,33275,1,0,0:0:0:0:
324,263,33433,1,0,0:0:0:0:
362,172,33591,2,0,P|361:116|350:92,1,80
208,35,34065,6,0,P|173:86|161:128,1,80
172,238,34381,2,0,P|208:203|228:158,1,80
233,73,34696,1,0,0:0:0:0:
233,73,34854,1,0,0:0:0:0:
102,137,35012,1,0,0:0:0:0:
234,227,35170,1,0,0:0:0:0:
344,120,35328,1,0,0:0:0:0:
182,81,35486,6,0,L|160:122,1,40
196,311,35802,2,0,L|225:252,1,40
319,79,36118,2,0,L|289:146,1,40
342,326,36433,2,0,L|365:258,1,40
354,137,36749,5,0,0:0:0:0:
146,190,36907,1,0,0:0:0:0:
358,236,37065,1,0,0:0:0:0:
358,236,37144,1,0,0:0:0:0:
358,236,37223,1,0,0:0:0:0:
294,87,37381,5,0,0:0:0:0:
294,87,37460,1,0,0:0:0:0:
294,87,37539,1,0,0:0:0:0:
258,104,37618,1,0,0:0:0:0:
218,108,37696,1,0,0:0:0:0:
178,98,37775,5,0,0:0:0:0:
172,137,37854,1,0,0:0:0:0:
194,169,37933,1,0,0:0:0:0:
231,183,38012,5,0,0:0:0:0:
377,213,38328,2,0,P|372:156|293:84,1,160
146,59,38960,2,0,B|135:108|173:133|173:133|151:201|151:201|210:207|247:163,1,240
295,104,39591,1,0,0:0:0:0:
106,86,39749,1,0,0:0:0:0:
215,219,39907,1,0,0:0:0:0:
215,219,39986,1,0,0:0:0:0:
215,219,40065,6,0,L|218:123,1,80
219,33,40381,1,0,0:0:0:0:
219,33,40539,1,0,0:0:0:0:
152,195,40696,1,0,0:0:0:0:
320,158,40854,2,0,P|362:144|271:55,1,240
161,97,41486,5,0,0:0:0:0:
235,186,41644,1,0,0:0:0:0:
344,222,41802,1,0,0:0:0:0:
300,76,41960,1,0,0:0:0:0:
207,213,42118,1,0,0:0:0:0:
344,301,42275,1,0,0:0:0:0:
299,167,42433,1,0,0:0:0:0:
240,298,42591,1,0,0:0:0:0:
367,222,42749,1,0,0:0:0:0:
237,140,42907,1,0,0:0:0:0:
183,255,43065,1,0,0:0:0:0:
300,323,43223,1,0,0:0:0:0:
349,190,43381,1,0,0:0:0:0:
238,84,43539,1,0,0:0:0:0:
163,218,43696,6,0,B|255:300|312:229|376:296|457:203,1,320
446,96,44486,1,0,0:0:0:0:
356,35,44644,2,0,B|320:70|320:70|310:105|310:105|263:107|263:107|239:78,1,160
190,3,45118,1,0,0:0:0:0:
190,3,45196,1,0,0:0:0:0:
190,3,45275,2,0,L|105:16,1,80
74,33,45512,1,0,0:0:0:0:
51,65,45591,2,0,P|46:122|57:150,1,80
97,303,46065,5,0,0:0:0:0:
64,180,46223,1,0,0:0:0:0:
64,180,46381,1,0,0:0:0:0:
173,94,46539,2,0,P|205:167|181:248,1,160
338,305,47170,6,0,P|356:260|356:226,1,80
327,89,47486,1,0,0:0:0:0:
327,89,47565,1,0,0:0:0:0:
107,117,47802,1,0,0:0:0:0:
107,117,47881,1,0,0:0:0:0:
165,329,48118,1,0,0:0:0:0:
165,329,48196,1,0,0:0:0:0:
225,126,48433,1,0,0:0:0:0:
225,126,48512,1,0,0:0:0:0:
318,278,48749,1,0,0:0:0:0:
318,278,48828,1,0,0:0:0:0:
364,56,49065,1,0,0:0:0:0:
364,56,49144,1,0,0:0:0:0:
423,332,49381,5,0,0:0:0:0:
257,283,49539,1,0,0:0:0:0:
79,324,49854,5,0,0:0:0:0:
257,283,50012,1,0,0:0:0:0:
258,100,50328,5,0,0:0:0:0:
257,283,50486,2,0,L|258:94,1,160
251,33,50960,1,0,0:0:0:0:
110,92,51118,1,0,0:0:0:0:
110,92,51275,1,0,0:0:0:0:
206,191,51433,1,0,0:0:0:0:
277,68,51591,1,0,0:0:0:0:
128,5,51749,6,0,P|109:85|136:172,1,160
200,255,52223,1,0,0:0:0:0:
200,255,52302,1,0,0:0:0:0:
200,255,52381,2,0,P|227:223|240:162,1,80
231,40,52696,2,0,P|194:80|168:132,2,80
329,3,53170,2,0,P|370:61|332:132,1,160
179,206,53802,5,0,0:0:0:0:
132,27,53960,1,0,0:0:0:0:
399,82,54275,6,0,B|315:71|293:116|293:116|232:105,1,160
123,98,54749,1,0,0:0:0:0:
123,98,54828,1,0,0:0:0:0:
123,98,54907,1,0,0:0:0:0:
151,248,55065,1,0,0:0:0:0:
219,136,55223,1,0,0:0:0:0:
31,153,55381,1,0,0:0:0:0:
158,268,55696,2,0,B|178:284|178:284|199:262|199:262|222:281|222:281|238:262|238:262|262:282|262:282|280:260,1,160
427,282,56328,5,0,0:0:0:0:
390,87,56486,1,0,0:0:0:0:
199,278,56802,6,0,B|193:309|193:309|239:346|287:309|287:309|281:277,1,160
239,86,57591,2,0,L|326:70,1,80
52,125,58065,6,0,P|39:216|56:297,1,160
200,201,58854,2,0,P|192:240|198:279,1,80
178,52,59328,6,0,P|255:55|336:82,1,160
453,153,59802,2,0,P|441:190|449:229,1,80
361,383,60118,1,0,0:0:0:0:
230,296,60276,1,0,0:0:0:0:
343,195,60434,1,0,0:0:0:0:
343,195,60512,1,0,0:0:0:0:
343,195,60591,1,0,0:0:0:0:
475,83,60749,1,0,0:0:0:0:
471,222,60907,5,0,0:0:0:0:
471,222,60986,1,0,0:0:0:0:
471,222,61065,1,0,0:0:0:0:
461,260,61144,1,0,0:0:0:0:
430,285,61223,1,0,0:0:0:0:
390,280,61302,1,0,0:0:0:0:
361,251,61381,5,0,0:0:0:0:
338,284,61460,1,0,0:0:0:0:
345,323,61539,1,0,0:0:0:0:
373,350,61618,1,0,0:0:0:0:
409,366,61696,1,0,0:0:0:0:
448,356,61775,1,0,0:0:0:0:
476,325,61854,6,0,P|482:246|437:178,1,160
241,124,62328,2,0,B|201:176|201:176|264:202|319:178,1,160
436,109,62960,2,0,P|394:71|295:39,1,160
185,34,63433,5,0,0:0:0:0:
185,34,63512,1,0,0:0:0:0:
185,34,63591,1,0,0:0:0:0:
89,134,63749,1,0,0:0:0:0:
245,132,63907,2,0,P|272:185|276:211,1,80
242,312,64223,1,0,0:0:0:0:
134,228,64381,6,0,B|127:168|101:157|101:157|150:123|208:157|208:157|263:119,1,240
375,78,65170,2,0,P|387:151|368:249,1,160
312,343,65802,2,0,L|234:296,1,80
209,279,66039,1,0,0:0:0:0:
209,279,66118,1,0,0:0:0:0:
131,143,66275,1,0,0:0:0:0:
307,247,66433,1,0,0:0:0:0:
97,260,66591,1,0,0:0:0:0:
274,129,66749,1,0,0:0:0:0:
198,306,66907,6,0,P|166:225|181:144,1,160
242,56,67381,1,0,0:0:0:0:
242,56,67460,1,0,0:0:0:0:
242,56,67539,1,0,0:0:0:0:
362,167,67696,1,0,0:0:0:0:
290,338,67854,1,0,0:0:0:0:
126,106,68170,6,0,P|145:197|133:277,1,160
32,31,68960,2,0,L|135:22,1,80
359,78,69433,6,0,P|357:143|284:220,1,160
136,309,69907,2,0,L|144:248,1,40
118,234,70065,1,0,0:0:0:0:
184,77,70223,1,0,0:0:0:0:
258,222,70381,1,0,0:0:0:0:
258,222,70460,1,0,0:0:0:0:
258,222,70539,1,0,0:0:0:0:
81,135,70696,1,0,0:0:0:0:
311,92,71012,6,0,B|287:168|287:168|314:217|260:244|260:244|297:293|322:287|322:287|346:269|359:244|366:209,1,320
368,191,71723,1,0,0:0:0:0:
369,146,71802,1,0,0:0:0:0:
362,23,71960,2,0,P|273:20|192:23,1,160
76,31,72433,5,0,0:0:0:0:
149,180,72591,1,0,0:0:0:0:
245,63,72749,1,0,0:0:0:0:
33,139,72907,1,0,0:0:0:0:
250,184,73065,1,0,0:0:0:0:
140,18,73223,1,0,0:0:0:0:
150,198,73381,5,0,0:0:0:0:
150,198,73460,1,0,0:0:0:0:
150,198,73539,1,0,0:0:0:0:
339,85,73696,5,0,0:0:0:0:
339,85,73775,1,0,0:0:0:0:
339,85,73854,1,0,0:0:0:0:
100,44,74012,5,0,0:0:0:0:
100,44,74091,1,0,0:0:0:0:
100,44,74170,1,0,0:0:0:0:
103,244,74328,5,0,0:0:0:0:
103,244,74407,1,0,0:0:0:0:
103,244,74486,2,0,B|113:274|113:274|151:272|151:272|165:307|165:307|192:299|192:299|208:323|208:323|219:299|219:299|235:320|235:320|234:293|234:293|257:315|257:315|247:294|247:294|271:302|271:302|252:283|252:283|277:284|277:284|261:269|261:269|285:268|285:268|264:253|264:253|288:244|288:244|272:240|272:240|291:218|291:218|259:227|259:227|276:195|276:195|254:206|254:206|250:176|250:176|237:204|237:204|224:172|224:172|206:194|206:194|201:179,1,720
83,158,76065,5,0,0:0:0:0:
215,255,76223,1,0,0:0:0:0:
199,91,76381,1,0,0:0:0:0:
103,248,76539,1,0,0:0:0:0:
323,202,76696,1,0,0:0:0:0:
82,124,76854,1,0,0:0:0:0:
197,272,77012,6,0,P|230:202|207:120,1,160
189,92,77407,1,0,0:0:0:0:
141,83,77486,1,0,0:0:0:0:
19,171,77644,5,0,0:0:0:0:
139,265,77802,1,0,0:0:0:0:
136,121,77960,1,0,0:0:0:0:
33,296,78118,1,0,0:0:0:0:
231,291,78275,1,0,0:0:0:0:
65,175,78433,1,0,0:0:0:0:
115,352,78591,1,0,0:0:0:0:
203,183,78749,1,0,0:0:0:0:
12,289,78907,1,0,0:0:0:0:
212,345,79065,1,0,0:0:0:0:
310,166,79223,1,0,0:0:0:0:
104,106,79381,1,0,0:0:0:0:
212,345,79696,6,0,P|240:233|213:171,1,160
110,36,80328,2,0,P|97:115|125:204,1,160
271,237,80960,2,0,P|312:176|317:148,1,80
320,131,81196,1,0,0:0:0:0:
319,90,81275,2,0,P|258:60|218:61,1,80
106,72,81591,2,0,P|127:138|147:162,1,80
210,222,81907,1,0,0:0:0:0:
256,91,82065,6,0,P|158:58|75:91,1,160
47,187,82539,1,0,0:0:0:0:
201,233,82696,1,0,0:0:0:0:
131,101,82854,1,0,0:0:0:0:
118,255,83012,5,0,0:0:0:0:
118,255,83091,1,0,0:0:0:0:
118,255,83170,1,0,0:0:0:0:
226,149,83328,1,0,0:0:0:0:
47,187,83486,1,0,0:0:0:0:
190,269,83644,5,0,0:0:0:0:
190,269,83723,1,0,0:0:0:0:
190,269,83802,1,0,0:0:0:0:
205,67,83960,1,0,0:0:0:0:
24,179,84118,1,0,0:0:0:0:
195,254,84275,5,0,0:0:0:0:
195,254,84354,1,0,0:0:0:0:
195,254,84433,1,0,0:0:0:0:
325,106,84591,1,0,0:0:0:0:
117,30,84749,1,0,0:0:0:0:
242,193,84907,5,0,0:0:0:0:
242,193,84986,1,0,0:0:0:0:
242,193,85065,1,0,0:0:0:0:
371,20,85223,1,0,0:0:0:0:
327,306,85381,1,0,0:0:0:0:
168,105,85539,5,0,0:0:0:0:
168,105,85618,1,0,0:0:0:0:
168,105,85696,1,0,0:0:0:0:
208,356,85854,1,0,0:0:0:0:
345,162,86012,1,0,0:0:0:0:
87,239,86170,5,0,0:0:0:0:
87,239,86249,1,0,0:0:0:0:
87,239,86328,1,0,0:0:0:0:
299,108,86486,1,0,0:0:0:0:
180,208,86644,1,0,0:0:0:0:
147,183,86723,1,0,0:0:0:0:
132,145,86802,1,0,0:0:0:0:
138,105,86881,1,0,0:0:0:0:
173,87,86960,5,0,0:0:0:0:
198,118,87039,1,0,0:0:0:0:
201,157,87118,1,0,0:0:0:0:
188,194,87196,5,0,0:0:0:0:
256,192,87275,12,0,88539,0:0:0:0:
