osu file format v14

[General]
AudioFilename: audio.mp3
AudioLeadIn: 0
PreviewTime: 50802
Countdown: 0
SampleSet: Normal
StackLeniency: 0.7
Mode: 0
LetterboxInBreaks: 0
WidescreenStoryboard: 1

[Editor]
Bookmarks: 2486,7539,16854,17012,17802,26644,27907,38012,41486,43696,47170,49381,50486,50644,50802,51749,71960,75907,79696,80960,82065,86644,87118,87275
DistanceSpacing: 1
BeatDivisor: 4
GridSize: 8
TimelineZoom: 1.7

[Metadata]
Title:Cattanoia
TitleUnicode:Cattanoia
Artist:OxT (Masayoshi Oishi x Tom-H@ck)
ArtistUnicode:OxT(オーイシマサヨシ × Tom-H@ck)
Creator:Disorted
Version:Distorted
Source:オーバーロード
Tags:Clattanoia OxT Disorted Overlord Opening TV Size
BeatmapID:1260170
BeatmapSetID:595797

[Difficulty]
HPDrainRate:7.5
CircleSize:4.2
OverallDifficulty:8
ApproachRate:9.5
SliderMultiplier:1.9
SliderTickRate:1

[Events]
//Background and Video events
0,0,"Clattanoia.jpg",0,0
//Break Periods
//Storyboard Layer 0 (Background)
//Storyboard Layer 1 (Fail)
//Storyboard Layer 2 (Pass)
//Storyboard Layer 3 (Foreground)
//Storyboard Sound Samples

[TimingPoints]
118,315.789473684211,4,1,0,100,1,0
118,-100,4,1,0,75,0,0
1381,-100,4,1,0,5,0,0
1460,-100,4,1,0,75,0,0
2486,-100,4,1,0,90,0,1
7539,-100,4,1,0,70,0,0
17802,-100,4,1,0,60,0,0
27907,-100,4,1,0,70,0,0
38012,-100,4,1,0,50,0,0
51749,-100,4,1,0,80,0,1
71960,-100,4,1,0,70,0,0
82065,-100,4,1,0,70,0,1
87275,-100,4,1,0,30,0,0

[HitObjects]
198,121,118,5,0,0:0:0:0:
289,233,275,1,0,0:0:0:0:
289,233,354,1,0,0:0:0:0:
289,233,433,1,0,0:0:0:0:
196,301,591,1,0,0:0:0:0:
104,217,749,2,0,P|173:197|219:215,1,95
327,216,1065,1,0,0:0:0:0:
327,216,1223,2,0,L|298:334,1,95
174,101,2486,6,0,P|247:91|370:128,1,190
471,186,2960,1,0,0:0:0:0:
357,329,3118,1,0,0:0:0:0:
357,329,3275,1,0,0:0:0:0:
215,202,3433,2,0,P|272:186|311:197,1,95
460,297,3749,1,0,0:0:0:0:
246,282,3907,2,0,P|181:190|215:116,1,190
465,42,4539,5,0,0:0:0:0:
461,323,4696,1,0,0:0:0:0:
268,175,5012,6,0,B|212:199|212:199|180:159|148:197|148:197|116:183|92:173,1,190
25,118,5486,1,0,0:0:0:0:
25,118,5565,1,0,0:0:0:0:
25,118,5644,1,0,0:0:0:0:
185,43,5802,2,0,L|221:90,1,47.5
207,123,5960,1,0,0:0:0:0:
288,274,6118,1,0,0:0:0:0:
288,274,6196,1,0,0:0:0:0:
288,274,6275,1,0,0:0:0:0:
153,194,6433,2,0,P|234:137|336:144,1,190
476,175,7065,6,0,L|477:269,1,95
456,32,7381,1,0,0:0:0:0:
456,32,7460,1,0,0:0:0:0:
456,32,7539,6,0,P|356:25|262:31,1,190
91,47,8012,2,0,P|97:116|106:148,1,95
235,241,8328,2,0,P|239:189|220:137,1,95
39,111,8644,2,0,P|65:160|103:190,1,95
263,184,8960,2,0,P|239:136|192:102,1,95
39,191,9275,2,0,P|98:222|144:221,1,95
270,161,9591,2,0,P|224:133|170:133,2,95
370,255,10065,6,0,P|264:280|176:237,1,190
156,176,10539,2,0,P|108:205|95:261,1,95
264,333,10854,2,0,P|253:283|208:252,1,95
28,268,11170,2,0,P|56:324|95:343,1,95
221,360,11486,2,0,P|243:294|236:254,1,95
210,128,11802,1,0,0:0:0:0:
100,201,11960,1,0,0:0:0:0:
100,201,12118,1,0,0:0:0:0:
287,293,12275,1,0,0:0:0:0:
274,101,12433,1,0,0:0:0:0:
100,201,12591,6,0,P|133:266|240:327,1,190
385,320,13065,1,0,0:0:0:0:
360,71,13223,1,0,0:0:0:0:
385,320,13381,1,0,0:0:0:0:
360,71,13539,1,0,0:0:0:0:
292,252,13696,6,0,L|192:225,1,95
139,138,14012,1,0,0:0:0:0:
299,101,14170,1,0,0:0:0:0:
414,213,14328,1,0,0:0:0:0:
347,350,14486,5,0,0:0:0:0:
252,53,14802,1,0,0:0:0:0:
125,351,15118,2,0,P|79:277|79:176,1,190
135,52,15591,5,0,0:0:0:0:
240,200,15749,1,0,0:0:0:0:
370,36,15907,2,0,P|368:88|339:125,1,95
201,239,16223,2,0,P|158:219|129:183,2,95
315,129,16696,5,0,0:0:0:0:
304,175,16775,1,0,0:0:0:0:
263,199,16854,1,0,0:0:0:0:
215,194,16933,1,0,0:0:0:0:
181,160,17012,1,0,0:0:0:0:
144,190,17091,1,0,0:0:0:0:
145,237,17170,1,0,0:0:0:0:
180,268,17249,1,0,0:0:0:0:
227,263,17328,1,0,0:0:0:0:
262,231,17407,5,0,0:0:0:0:
291,268,17486,1,0,0:0:0:0:
282,314,17565,1,0,0:0:0:0:
241,339,17644,1,0,0:0:0:0:
193,342,17723,1,0,0:0:0:0:
154,314,17802,5,0,0:0:0:0:
59,236,17960,1,0,0:0:0:0:
59,236,18118,1,0,0:0:0:0:
146,192,18275,1,0,0:0:0:0:
178,105,18433,2,0,L|285:107,1,95
375,140,18749,2,0,P|371:198|348:244,1,95
260,317,19065,1,0,0:0:0:0:
221,190,19223,1,0,0:0:0:0:
221,190,19381,1,0,0:0:0:0:
105,187,19539,1,0,0:0:0:0:
301,179,19696,2,0,P|282:266|258:299,1,95
70,268,20328,6,0,P|72:191|84:154,1,95
121,54,20644,2,0,L|225:55,1,95
350,62,20960,1,0,0:0:0:0:
315,151,21118,1,0,0:0:0:0:
132,299,21433,6,0,P|106:232|110:199,1,95
125,127,21749,1,0,0:0:0:0:
202,175,21907,1,0,0:0:0:0:
186,273,22065,1,0,0:0:0:0:
91,299,22223,2,0,P|124:344|255:347,1,190
340,241,23012,5,0,0:0:0:0:
247,123,23170,1,0,0:0:0:0:
472,151,23328,1,0,0:0:0:0:
340,241,23486,1,0,0:0:0:0:
365,60,23644,1,0,0:0:0:0:
160,95,24118,5,0,0:0:0:0:
113,170,24276,1,0,0:0:0:0:
135,259,24433,1,0,0:0:0:0:
200,328,24591,2,0,P|258:324|300:302,1,95
385,258,24907,1,0,0:0:0:0:
253,204,25065,1,0,0:0:0:0:
123,276,25223,6,0,P|266:322|295:306,1,190
359,250,25696,1,0,0:0:0:0:
304,98,25854,1,0,0:0:0:0:
214,230,26012,1,0,0:0:0:0:
398,196,26170,1,0,0:0:0:0:
398,196,26249,1,0,0:0:0:0:
398,196,26328,5,0,0:0:0:0:
235,122,26486,1,0,0:0:0:0:
251,248,26644,1,0,0:0:0:0:
289,276,26723,1,0,0:0:0:0:
330,298,26802,2,0,L|365:209,1,95
381,164,27039,1,0,0:0:0:0:
392,117,27118,2,0,P|332:77|288:77,1,95
169,125,27433,2,0,L|206:175,1,47.5
204,205,27591,1,0,0:0:0:0:
330,298,27749,1,0,0:0:0:0:
391,177,27907,6,0,P|322:132|276:121,1,95
207,171,28223,1,0,0:0:0:0:
303,262,28381,1,0,0:0:0:0:
383,151,28539,6,0,P|327:131|275:122,1,95
141,176,28854,1,0,0:0:0:0:
324,294,29012,1,0,0:0:0:0:
375,117,29170,6,0,P|298:104|253:106,1,95
109,98,29486,1,0,0:0:0:0:
109,98,29644,1,0,0:0:0:0:
196,307,29802,1,0,0:0:0:0:
281,103,29960,1,0,0:0:0:0:
55,96,30433,6,0,P|35:193|60:290,1,190
161,134,30907,2,0,P|147:188|156:240,2,95
231,88,31539,6,0,P|315:98|343:127,1,95
166,141,31854,1,0,0:0:0:0:
166,141,31933,1,0,0:0:0:0:
166,141,32012,1,0,0:0:0:0:
336,266,32170,1,0,0:0:0:0:
470,137,32328,2,0,B|453:190|453:190|456:199|456:199|444:204|444:204|454:212|454:212|434:223|434:223|450:227|450:227|429:234|429:234|444:242|444:242|424:248|424:248|437:253|437:253|420:259|420:259|434:261|434:261|418:271|418:271|427:276|427:276|418:287|418:287|403:336|344:346,1,380
214,349,33118,5,0,0:0:0:0:
65,289,33275,1,0,0:0:0:0:
197,142,33433,1,0,0:0:0:0:
197,142,33591,1,0,0:0:0:0:
39,154,33749,1,0,0:0:0:0:
354,142,34065,5,0,0:0:0:0:
354,142,34223,1,0,0:0:0:0:
390,313,34381,1,0,0:0:0:0:
230,265,34539,1,0,0:0:0:0:
230,265,34618,1,0,0:0:0:0:
230,265,34696,1,0,0:0:0:0:
118,172,34854,2,0,P|198:143|246:148,1,95
419,199,35170,2,0,P|362:221|316:218,1,95
102,207,35486,5,0,0:0:0:0:
261,18,35802,1,0,0:0:0:0:
443,214,36118,1,0,0:0:0:0:
246,353,36433,1,0,0:0:0:0:
116,192,36749,5,0,0:0:0:0:
116,192,36828,1,0,0:0:0:0:
116,192,36907,1,0,0:0:0:0:
324,121,37065,2,0,L|311:181,1,47.5
326,203,37223,1,0,0:0:0:0:
217,357,37381,2,0,L|238:302,1,47.5
218,277,37539,1,0,0:0:0:0:
277,159,37696,1,0,0:0:0:0:
371,74,37854,1,0,0:0:0:0:
489,133,38012,6,0,P|468:191|359:271,1,190
142,283,38644,2,0,B|143:217|143:217|168:185|133:137|133:137|198:120,1,190
403,123,39433,2,0,P|406:172|383:230,1,95
363,254,39670,1,0,0:0:0:0:
326,284,39749,2,0,P|277:239|256:202,1,95
186,122,40065,6,0,B|289:73|208:92|287:97|367:76,1,190
486,55,40539,1,0,0:0:0:0:
429,262,40696,1,0,0:0:0:0:
367,76,40854,2,0,B|304:119|304:119|218:133|263:82|201:210,1,190
96,281,41486,6,0,B|161:268|144:202|144:202|230:164,1,190
360,128,41960,1,0,0:0:0:0:
315,251,42118,1,0,0:0:0:0:
241,117,42275,1,0,0:0:0:0:
430,191,42433,1,0,0:0:0:0:
186,211,42591,1,0,0:0:0:0:
328,74,42749,1,0,0:0:0:0:
345,263,42907,1,0,0:0:0:0:
165,137,43065,1,0,0:0:0:0:
332,65,43223,1,0,0:0:0:0:
461,202,43381,1,0,0:0:0:0:
203,260,43539,1,0,0:0:0:0:
334,51,43696,6,0,B|355:118|276:169|288:112|367:146|293:261,1,190
254,321,44170,1,0,0:0:0:0:
119,322,44328,2,0,B|111:247|111:247|54:235|82:182|82:182|139:160,1,190
400,111,45118,5,0,0:0:0:0:
370,200,45275,1,0,0:0:0:0:
310,279,45433,1,0,0:0:0:0:
310,279,45512,1,0,0:0:0:0:
310,279,45591,2,0,L|212:238,1,95
115,154,46065,5,0,0:0:0:0:
264,85,46223,1,0,0:0:0:0:
211,266,46381,1,0,0:0:0:0:
93,124,46539,2,0,B|157:88|190:128|230:94|230:94|298:94,1,190
458,99,47170,5,0,0:0:0:0:
482,366,47328,1,0,0:0:0:0:
252,364,47486,6,0,L|197:323,1,47.5
84,119,47802,2,0,L|138:155,1,47.5
436,242,48118,2,0,L|379:202,1,47.5
160,21,48433,2,0,L|209:55,1,47.5
479,152,48749,2,0,L|421:121,1,47.5
122,199,49065,2,0,L|182:167,1,47.5
38,345,49381,5,0,0:0:0:0:
255,271,49539,1,0,0:0:0:0:
471,351,49854,5,0,0:0:0:0:
255,271,50012,1,0,0:0:0:0:
256,39,50328,5,0,0:0:0:0:
255,271,50486,2,0,L|256:73,1,190
163,18,50960,2,0,L|162:124,1,95
175,301,51275,1,0,0:0:0:0:
65,186,51433,1,0,0:0:0:0:
287,199,51591,1,0,0:0:0:0:
175,301,51749,6,0,P|271:320|380:285,1,190
474,213,52223,1,0,0:0:0:0:
185,70,52381,1,0,0:0:0:0:
234,370,52539,1,0,0:0:0:0:
234,370,52618,1,0,0:0:0:0:
234,370,52696,1,0,0:0:0:0:
438,147,52854,1,0,0:0:0:0:
40,201,53012,1,0,0:0:0:0:
220,37,53170,2,0,P|202:139|226:237,1,190
278,324,53644,5,0,0:0:0:0:
320,303,53723,1,0,0:0:0:0:
345,263,53802,5,0,0:0:0:0:
377,297,53881,1,0,0:0:0:0:
410,330,53960,5,0,0:0:0:0:
441,294,54039,1,0,0:0:0:0:
434,246,54118,1,0,0:0:0:0:
401,211,54196,1,0,0:0:0:0:
358,190,54275,6,0,B|273:166|273:166|254:117|153:139,1,190
31,128,54749,1,0,0:0:0:0:
31,128,54828,1,0,0:0:0:0:
31,128,54907,1,0,0:0:0:0:
232,308,55065,1,0,0:0:0:0:
328,58,55223,1,0,0:0:0:0:
73,250,55381,1,0,0:0:0:0:
390,222,55539,1,0,0:0:0:0:
185,93,55696,2,0,B|146:89|107:118|107:118|99:225,1,190
96,323,56170,5,0,0:0:0:0:
142,330,56249,1,0,0:0:0:0:
189,327,56328,1,0,0:0:0:0:
232,307,56407,1,0,0:0:0:0:
266,274,56486,1,0,0:0:0:0:
287,231,56565,1,0,0:0:0:0:
295,184,56644,1,0,0:0:0:0:
284,137,56723,1,0,0:0:0:0:
261,95,56802,6,0,B|198:125|183:157|183:157|122:164|154:139|124:217,1,190
78,331,57275,2,0,L|155:326,1,47.5
162,347,57433,1,0,0:0:0:0:
318,294,57591,1,0,0:0:0:0:
168,133,57749,1,0,0:0:0:0:
178,273,57907,1,0,0:0:0:0:
380,203,58065,6,0,L|349:95,1,95
285,33,58381,1,0,0:0:0:0:
166,190,58539,1,0,0:0:0:0:
392,238,58696,1,0,0:0:0:0:
267,107,58854,1,0,0:0:0:0:
267,107,58933,1,0,0:0:0:0:
267,107,59012,1,0,0:0:0:0:
216,332,59170,1,0,0:0:0:0:
392,56,59328,5,0,0:0:0:0:
390,329,59486,1,0,0:0:0:0:
230,54,59644,1,0,0:0:0:0:
216,332,59802,1,0,0:0:0:0:
392,56,59960,1,0,0:0:0:0:
390,329,60118,1,0,0:0:0:0:
111,196,60275,1,0,0:0:0:0:
481,202,60433,1,0,0:0:0:0:
260,42,60591,1,0,0:0:0:0:
327,331,60749,1,0,0:0:0:0:
327,331,60828,1,0,0:0:0:0:
327,331,60907,5,0,0:0:0:0:
328,283,60986,1,0,0:0:0:0:
345,238,61065,1,0,0:0:0:0:
364,194,61144,1,0,0:0:0:0:
344,150,61223,1,0,0:0:0:0:
301,129,61302,1,0,0:0:0:0:
257,147,61381,1,0,0:0:0:0:
236,189,61460,1,0,0:0:0:0:
240,236,61539,1,0,0:0:0:0:
270,272,61618,1,0,0:0:0:0:
280,317,61696,1,0,0:0:0:0:
254,357,61775,1,0,0:0:0:0:
209,373,61854,6,0,B|130:372|107:295|107:295|155:248,1,190
210,191,62328,1,0,0:0:0:0:
257,194,62407,1,0,0:0:0:0:
298,217,62486,1,0,0:0:0:0:
332,249,62565,1,0,0:0:0:0:
351,292,62644,1,0,0:0:0:0:
214,349,62802,2,0,P|203:272|216:234,1,95
234,91,63118,2,0,P|306:111|332:141,1,95
355,273,63433,1,0,0:0:0:0:
190,91,63591,5,0,0:0:0:0:
254,264,63749,1,0,0:0:0:0:
402,98,63907,2,0,B|346:158|346:158|340:225|365:170|275:255,1,190
211,293,64381,5,0,0:0:0:0:
170,267,64460,1,0,0:0:0:0:
148,224,64539,1,0,0:0:0:0:
150,176,64618,1,0,0:0:0:0:
151,129,64696,1,0,0:0:0:0:
117,95,64775,1,0,0:0:0:0:
69,100,64854,1,0,0:0:0:0:
35,133,64933,1,0,0:0:0:0:
24,179,65012,1,0,0:0:0:0:
39,223,65091,5,0,0:0:0:0:
76,251,65170,1,0,0:0:0:0:
71,298,65249,1,0,0:0:0:0:
44,337,65328,1,0,0:0:0:0:
70,376,65407,1,0,0:0:0:0:
117,368,65486,1,0,0:0:0:0:
143,328,65565,1,0,0:0:0:0:
156,282,65644,1,0,0:0:0:0:
156,234,65723,1,0,0:0:0:0:
144,187,65802,6,0,B|116:128|116:128|201:113|143:73|247:66,1,190
344,64,66275,1,0,0:0:0:0:
344,64,66354,1,0,0:0:0:0:
344,64,66433,1,0,0:0:0:0:
163,226,66591,1,0,0:0:0:0:
453,211,66749,1,0,0:0:0:0:
261,43,66907,6,0,B|276:113|255:149|255:149|270:255,1,190
132,119,67381,1,0,0:0:0:0:
388,102,67539,1,0,0:0:0:0:
388,102,67618,1,0,0:0:0:0:
388,102,67696,1,0,0:0:0:0:
126,268,67854,1,0,0:0:0:0:
453,255,68012,1,0,0:0:0:0:
276,114,68170,6,0,B|250:198|299:201|299:201|309:257|263:295,1,190
179,345,68644,1,0,0:0:0:0:
160,301,68723,1,0,0:0:0:0:
152,254,68802,1,0,0:0:0:0:
155,206,68881,1,0,0:0:0:0:
175,162,68960,1,0,0:0:0:0:
268,59,69118,1,0,0:0:0:0:
323,280,69275,1,0,0:0:0:0:
94,193,69433,5,0,0:0:0:0:
94,193,69512,1,0,0:0:0:0:
94,193,69591,1,0,0:0:0:0:
353,123,69749,1,0,0:0:0:0:
213,296,69907,1,0,0:0:0:0:
215,76,70065,2,0,L|215:177,1,95
210,317,70381,2,0,P|163:313|124:285,1,95
292,255,70696,2,0,P|312:298|309:345,1,95
81,167,71012,6,0,B|225:89|222:208|381:135,1,285
398,121,71565,1,0,0:0:0:0:
436,148,71644,1,0,0:0:0:0:
443,194,71723,1,0,0:0:0:0:
429,239,71802,1,0,0:0:0:0:
258,340,71960,6,0,P|236:271|240:143,1,190
273,23,72433,1,0,0:0:0:0:
372,232,72591,1,0,0:0:0:0:
102,183,72749,1,0,0:0:0:0:
360,75,72907,1,0,0:0:0:0:
250,306,73065,1,0,0:0:0:0:
160,76,73223,1,0,0:0:0:0:
395,250,73381,1,0,0:0:0:0:
137,229,73539,1,0,0:0:0:0:
369,79,73696,1,0,0:0:0:0:
285,323,73854,1,0,0:0:0:0:
186,88,74012,1,0,0:0:0:0:
445,220,74170,1,0,0:0:0:0:
152,239,74328,1,0,0:0:0:0:
352,167,74486,6,0,B|294:204|294:204|314:238|257:258|247:225|247:225|193:236|193:236|175:163|175:163|268:145|221:161|295:105|295:105|341:88|341:88|377:90|377:90|400:108|400:108|412:122|412:122|422:139|422:139|426:160|426:160|429:189|429:189|417:224|417:224|369:290|369:290|254:336,1,855
266,331,76223,1,0,0:0:0:0:
57,285,76539,6,0,P|99:225|143:203,1,95
338,176,76854,2,0,P|274:229|234:255,1,95
245,270,77091,1,0,0:0:0:0:
234,279,77170,1,0,0:0:0:0:
58,287,77328,1,0,0:0:0:0:
119,62,77486,1,0,0:0:0:0:
311,205,77644,2,0,P|258:265|219:279,1,95
43,254,77960,2,0,P|31:200|42:152,1,95
226,65,78275,2,0,P|272:111|277:159,1,95
238,296,78591,5,0,0:0:0:0:
238,296,78670,1,0,0:0:0:0:
238,296,78749,1,0,0:0:0:0:
61,125,78907,1,0,0:0:0:0:
299,115,79065,2,0,L|288:216,1,95
230,329,79381,1,0,0:0:0:0:
107,136,79539,1,0,0:0:0:0:
337,164,79696,6,0,B|317:213|337:251|337:251|314:287|314:287|319:324|296:359,1,190
53,326,80328,2,0,B|21:264|25:205|77:235|46:140,1,190
102,31,80960,6,0,P|180:73|195:100,1,95
227,262,81275,2,0,P|171:217|147:174,1,95
289,68,81591,2,0,L|285:170,1,95
281,205,81828,1,0,0:0:0:0:
281,251,81907,1,0,0:0:0:0:
165,352,82065,6,0,B|108:255|108:255|152:225|119:162|119:162|189:94,1,285
275,86,82696,1,0,0:0:0:0:
411,237,82854,1,0,0:0:0:0:
179,202,83012,1,0,0:0:0:0:
375,102,83170,1,0,0:0:0:0:
331,295,83328,1,0,0:0:0:0:
229,122,83486,1,0,0:0:0:0:
446,186,83644,1,0,0:0:0:0:
183,299,83802,1,0,0:0:0:0:
324,106,83960,1,0,0:0:0:0:
320,316,84118,1,0,0:0:0:0:
162,95,84275,1,0,0:0:0:0:
252,213,84433,1,0,0:0:0:0:
374,96,84591,1,0,0:0:0:0:
147,214,84749,5,0,0:0:0:0:
374,331,84907,1,0,0:0:0:0:
279,108,85065,1,0,0:0:0:0:
231,309,85223,1,0,0:0:0:0:
429,197,85381,1,0,0:0:0:0:
188,78,85539,1,0,0:0:0:0:
334,324,85696,1,0,0:0:0:0:
323,58,85854,1,0,0:0:0:0:
204,271,86012,1,0,0:0:0:0:
427,230,86170,1,0,0:0:0:0:
242,47,86328,1,0,0:0:0:0:
331,259,86486,1,0,0:0:0:0:
295,107,86644,5,0,0:0:0:0:
248,98,86723,1,0,0:0:0:0:
201,105,86802,1,0,0:0:0:0:
184,149,86881,1,0,0:0:0:0:
218,181,86960,1,0,0:0:0:0:
212,228,87039,1,0,0:0:0:0:
183,265,87118,5,0,0:0:0:0:
256,192,87275,12,0,88539,0:0:0:0:
