osu file format v14

[General]
AudioFilename: 04 Umbrella Beach.mp3
AudioLeadIn: 0
PreviewTime: 142385
Countdown: 0
SampleSet: Soft
StackLeniency: 0.7
Mode: 3
LetterboxInBreaks: 0
SpecialStyle: 0
WidescreenStoryboard: 1

[Editor]
DistanceSpacing: 2
BeatDivisor: 4
GridSize: 8
TimelineZoom: 1.5

[Metadata]
Title:Umbrella Beach
TitleUnicode:Umbrella Beach
Artist:Owl City
ArtistUnicode:Owl City
Creator:Level 51
Version:Insane
Source:
Tags:
BeatmapID:1793305
BeatmapSetID:858072

[Difficulty]
HPDrainRate:9
CircleSize:4
OverallDifficulty:8.5
ApproachRate:5
SliderMultiplier:1.4
SliderTickRate:1

[Events]
//Background and Video events
0,0,"BG.jpg",0,0
//Break Periods
//Storyboard Layer 0 (Background)
//Storyboard Layer 1 (Fail)
//Storyboard Layer 2 (Pass)
//Storyboard Layer 3 (Foreground)
//Storyboard Sound Samples

[TimingPoints]
163,444.444444444444,4,2,0,6,1,0

[HitObjects]
64,192,163,5,0,0:0:0:0:
320,192,163,1,0,0:0:0:0:
448,192,163,1,0,0:0:0:0:
192,192,163,1,0,0:0:0:0:
192,192,385,1,0,0:0:0:0:
320,192,496,1,0,0:0:0:0:
64,192,607,1,0,0:0:0:0:
192,192,607,1,0,0:0:0:0:
320,192,607,1,0,0:0:0:0:
448,192,607,1,0,0:0:0:0:
64,192,718,1,0,0:0:0:0:
448,192,829,1,0,0:0:0:0:
192,192,940,1,0,0:0:0:0:
64,192,1051,1,0,0:0:0:0:
320,192,1051,1,0,0:0:0:0:
448,192,1051,1,0,0:0:0:0:
192,192,1162,1,0,0:0:0:0:
320,192,1274,1,0,0:0:0:0:
448,192,1385,1,0,0:0:0:0:
64,192,1496,1,0,0:0:0:0:
192,192,1496,1,0,0:0:0:0:
320,192,1496,1,0,0:0:0:0:
448,192,1496,1,0,0:0:0:0:
64,192,1607,1,0,0:0:0:0:
192,192,1718,1,0,0:0:0:0:
320,192,1829,1,0,0:0:0:0:
64,192,1940,1,0,0:0:0:0:
192,192,1940,1,0,0:0:0:0:
448,192,1940,1,0,0:0:0:0:
320,192,2051,1,0,0:0:0:0:
192,192,2162,1,0,0:0:0:0:
64,192,2274,1,0,0:0:0:0:
64,192,2385,1,0,0:0:0:0:
192,192,2385,1,0,0:0:0:0:
320,192,2385,1,0,0:0:0:0:
448,192,2385,1,0,0:0:0:0:
192,192,2496,1,0,0:0:0:0:
320,192,2607,1,0,0:0:0:0:
448,192,2718,1,0,0:0:0:0:
64,192,2829,1,0,0:0:0:0:
192,192,2940,1,0,0:0:0:0:
320,192,3051,1,0,0:0:0:0:
192,192,3162,1,0,0:0:0:0:
64,192,3274,1,0,0:0:0:0:
192,192,3274,1,0,0:0:0:0:
320,192,3274,1,0,0:0:0:0:
448,192,3274,1,0,0:0:0:0:
448,192,3385,1,0,0:0:0:0:
64,192,3496,1,0,0:0:0:0:
320,192,3607,1,0,0:0:0:0:
192,192,3718,1,0,0:0:0:0:
448,192,3718,1,0,0:0:0:0:
64,192,3718,1,0,0:0:0:0:
320,192,3829,1,0,0:0:0:0:
64,192,3940,1,0,0:0:0:0:
192,192,4051,1,0,0:0:0:0:
64,192,4162,1,0,0:0:0:0:
192,192,4162,1,0,0:0:0:0:
320,192,4162,1,0,0:0:0:0:
448,192,4162,1,0,0:0:0:0:
64,192,4274,1,0,0:0:0:0:
448,192,4385,1,0,0:0:0:0:
192,192,4496,1,0,0:0:0:0:
320,192,4607,1,0,0:0:0:0:
448,192,4607,1,0,0:0:0:0:
64,192,4607,1,0,0:0:0:0:
192,192,4718,1,0,0:0:0:0:
320,192,4829,1,0,0:0:0:0:
448,192,4940,1,0,0:0:0:0:
64,192,5051,1,0,0:0:0:0:
192,192,5051,1,0,0:0:0:0:
320,192,5051,1,0,0:0:0:0:
448,192,5051,1,0,0:0:0:0:
320,192,5162,1,0,0:0:0:0:
64,192,5274,1,0,0:0:0:0:
192,192,5385,1,0,0:0:0:0:
64,192,5496,1,0,0:0:0:0:
320,192,5496,1,0,0:0:0:0:
448,192,5496,1,0,0:0:0:0:
192,192,5607,1,0,0:0:0:0:
320,192,5718,1,0,0:0:0:0:
448,192,5829,1,0,0:0:0:0:
64,192,5940,1,0,0:0:0:0:
192,192,5940,1,0,0:0:0:0:
320,192,5940,1,0,0:0:0:0:
448,192,5940,1,0,0:0:0:0:
320,192,6051,1,0,0:0:0:0:
64,192,6162,1,0,0:0:0:0:
192,192,6274,1,0,0:0:0:0:
64,192,6385,1,0,0:0:0:0:
320,192,6385,1,0,0:0:0:0:
448,192,6385,1,0,0:0:0:0:
192,192,6496,1,0,0:0:0:0:
320,192,6607,1,0,0:0:0:0:
448,192,6718,1,0,0:0:0:0:
64,192,6829,1,0,0:0:0:0:
192,192,6829,1,0,0:0:0:0:
320,192,6829,1,0,0:0:0:0:
448,192,6829,1,0,0:0:0:0:
64,192,6940,1,0,0:0:0:0:
192,192,7051,1,0,0:0:0:0:
320,192,7162,1,0,0:0:0:0:
64,192,7274,1,0,0:0:0:0:
192,192,7274,1,0,0:0:0:0:
448,192,7274,1,0,0:0:0:0:
320,192,7385,1,0,0:0:0:0:
64,192,7496,1,0,0:0:0:0:
192,192,7607,1,0,0:0:0:0:
64,192,7718,1,0,0:0:0:0:
320,192,7718,1,0,0:0:0:0:
448,192,7718,1,0,0:0:0:0:
192,192,7718,1,0,0:0:0:0:
64,192,7829,1,0,0:0:0:0:
192,192,7940,1,0,0:0:0:0:
448,192,8051,1,0,0:0:0:0:
64,192,8162,1,0,0:0:0:0:
192,192,8162,1,0,0:0:0:0:
320,192,8162,1,0,0:0:0:0:
448,192,8274,1,0,0:0:0:0:
64,192,8385,1,0,0:0:0:0:
448,192,8496,1,0,0:0:0:0:
64,192,8607,1,0,0:0:0:0:
192,192,8607,1,0,0:0:0:0:
320,192,8607,1,0,0:0:0:0:
448,192,8607,1,0,0:0:0:0:
192,192,8718,1,0,0:0:0:0:
320,192,8829,1,0,0:0:0:0:
192,192,8940,1,0,0:0:0:0:
64,192,9051,1,0,0:0:0:0:
448,192,9051,1,0,0:0:0:0:
320,192,9051,1,0,0:0:0:0:
192,192,9162,1,0,0:0:0:0:
448,192,9274,1,0,0:0:0:0:
64,192,9385,1,0,0:0:0:0:
64,192,9496,1,0,0:0:0:0:
192,192,9496,1,0,0:0:0:0:
320,192,9496,1,0,0:0:0:0:
448,192,9496,1,0,0:0:0:0:
320,192,9607,1,0,0:0:0:0:
64,192,9718,1,0,0:0:0:0:
192,192,9829,1,0,0:0:0:0:
448,192,9940,1,0,0:0:0:0:
64,192,9940,1,0,0:0:0:0:
320,192,9940,1,0,0:0:0:0:
192,192,10051,1,0,0:0:0:0:
320,192,10162,1,0,0:0:0:0:
448,192,10274,1,0,0:0:0:0:
64,192,10385,1,0,0:0:0:0:
192,192,10385,1,0,0:0:0:0:
320,192,10385,1,0,0:0:0:0:
448,192,10385,1,0,0:0:0:0:
64,192,10496,1,0,0:0:0:0:
192,192,10607,1,0,0:0:0:0:
448,192,10718,1,0,0:0:0:0:
64,192,10829,1,0,0:0:0:0:
192,192,10829,1,0,0:0:0:0:
320,192,10829,1,0,0:0:0:0:
448,192,10940,1,0,0:0:0:0:
192,192,11051,1,0,0:0:0:0:
64,192,11162,1,0,0:0:0:0:
64,192,11274,1,0,0:0:0:0:
192,192,11274,1,0,0:0:0:0:
320,192,11274,1,0,0:0:0:0:
448,192,11274,1,0,0:0:0:0:
192,192,11385,1,0,0:0:0:0:
320,192,11496,1,0,0:0:0:0:
448,192,11607,1,0,0:0:0:0:
64,192,11718,1,0,0:0:0:0:
192,192,11718,1,0,0:0:0:0:
320,192,11718,1,0,0:0:0:0:
448,192,11829,1,0,0:0:0:0:
192,192,11940,1,0,0:0:0:0:
320,192,12051,1,0,0:0:0:0:
64,192,12162,1,0,0:0:0:0:
192,192,12162,1,0,0:0:0:0:
320,192,12162,1,0,0:0:0:0:
448,192,12162,1,0,0:0:0:0:
64,192,12274,1,0,0:0:0:0:
192,192,12385,1,0,0:0:0:0:
320,192,12496,1,0,0:0:0:0:
448,192,12607,1,0,0:0:0:0:
192,192,12607,1,0,0:0:0:0:
64,192,12607,1,0,0:0:0:0:
320,192,12718,1,0,0:0:0:0:
192,192,12829,1,0,0:0:0:0:
320,192,12940,1,0,0:0:0:0:
64,192,13051,1,0,0:0:0:0:
192,192,13051,1,0,0:0:0:0:
320,192,13051,1,0,0:0:0:0:
448,192,13051,1,0,0:0:0:0:
64,192,13162,1,0,0:0:0:0:
192,192,13274,5,0,0:0:0:0:
320,192,13385,5,0,0:0:0:0:
64,192,13496,5,0,0:0:0:0:
192,192,13496,1,0,0:0:0:0:
448,192,13496,1,0,0:0:0:0:
320,192,13607,1,0,0:0:0:0:
192,192,13718,1,0,0:0:0:0:
64,192,13829,1,0,0:0:0:0:
64,192,13940,5,0,0:0:0:0:
192,192,13940,1,0,0:0:0:0:
320,192,13940,1,0,0:0:0:0:
448,192,13940,1,0,0:0:0:0:
192,192,14051,5,0,0:0:0:0:
320,192,14162,5,0,0:0:0:0:
448,192,14274,5,0,0:0:0:0:
64,192,14385,5,0,0:0:0:0:
192,192,14385,1,0,0:0:0:0:
320,192,14385,1,0,0:0:0:0:
448,192,14385,128,0,17940:0:0:0:0:
192,192,14607,1,0,0:0:0:0:
64,192,14829,1,0,0:0:0:0:
192,192,15051,1,0,0:0:0:0:
64,192,15274,1,0,0:0:0:0:
192,192,15496,1,0,0:0:0:0:
64,192,15718,1,0,0:0:0:0:
192,192,15940,1,0,0:0:0:0:
64,192,16162,1,0,0:0:0:0:
192,192,16385,1,0,0:0:0:0:
64,192,16607,1,0,0:0:0:0:
192,192,16829,1,0,0:0:0:0:
64,192,17051,1,0,0:0:0:0:
192,192,17274,1,0,0:0:0:0:
64,192,17496,1,0,0:0:0:0:
192,192,17718,1,0,0:0:0:0:
64,192,17940,1,0,0:0:0:0:
192,192,17940,1,0,0:0:0:0:
320,192,18162,1,0,0:0:0:0:
64,192,18385,1,0,0:0:0:0:
448,192,18385,1,0,0:0:0:0:
192,192,18607,1,0,0:0:0:0:
320,192,18829,1,0,0:0:0:0:
448,192,18829,1,0,0:0:0:0:
64,192,19051,1,0,0:0:0:0:
192,192,19274,1,0,0:0:0:0:
448,192,19274,1,0,0:0:0:0:
320,192,19496,1,0,0:0:0:0:
64,192,19718,1,0,0:0:0:0:
448,192,19718,1,0,0:0:0:0:
192,192,19940,1,0,0:0:0:0:
64,192,20162,1,0,0:0:0:0:
320,192,20162,1,0,0:0:0:0:
448,192,20385,1,0,0:0:0:0:
192,192,20607,1,0,0:0:0:0:
320,192,20607,1,0,0:0:0:0:
64,192,20829,1,0,0:0:0:0:
320,192,21051,1,0,0:0:0:0:
448,192,21051,1,0,0:0:0:0:
64,192,21274,1,0,0:0:0:0:
192,192,21496,1,0,0:0:0:0:
320,192,21496,1,0,0:0:0:0:
448,192,21718,1,0,0:0:0:0:
64,192,21940,1,0,0:0:0:0:
192,192,21940,1,0,0:0:0:0:
320,192,22162,1,0,0:0:0:0:
64,192,22385,1,0,0:0:0:0:
448,192,22385,1,0,0:0:0:0:
192,192,22607,1,0,0:0:0:0:
320,192,22829,1,0,0:0:0:0:
448,192,22829,1,0,0:0:0:0:
64,192,23051,1,0,0:0:0:0:
448,192,23274,1,0,0:0:0:0:
192,192,23274,1,0,0:0:0:0:
320,192,23496,1,0,0:0:0:0:
448,192,23718,1,0,0:0:0:0:
64,192,23718,1,0,0:0:0:0:
192,192,23940,1,0,0:0:0:0:
64,192,24162,1,0,0:0:0:0:
320,192,24162,1,0,0:0:0:0:
448,192,24385,1,0,0:0:0:0:
448,192,24496,1,0,0:0:0:0:
192,192,24607,1,0,0:0:0:0:
320,192,24607,1,0,0:0:0:0:
64,192,24829,1,0,0:0:0:0:
320,192,25051,1,0,0:0:0:0:
448,192,25051,1,0,0:0:0:0:
64,192,25274,1,0,0:0:0:0:
192,192,25496,1,0,0:0:0:0:
320,192,25496,1,0,0:0:0:0:
448,192,25718,1,0,0:0:0:0:
64,192,25940,1,0,0:0:0:0:
192,192,25940,1,0,0:0:0:0:
320,192,26162,1,0,0:0:0:0:
64,192,26385,1,0,0:0:0:0:
448,192,26385,1,0,0:0:0:0:
192,192,26607,1,0,0:0:0:0:
320,192,26829,1,0,0:0:0:0:
448,192,26829,1,0,0:0:0:0:
64,192,27051,1,0,0:0:0:0:
192,192,27274,1,0,0:0:0:0:
448,192,27274,1,0,0:0:0:0:
320,192,27496,1,0,0:0:0:0:
64,192,27718,1,0,0:0:0:0:
448,192,27718,1,0,0:0:0:0:
64,192,27940,1,0,0:0:0:0:
192,192,27940,1,0,0:0:0:0:
448,192,28051,1,0,0:0:0:0:
320,192,28079,1,0,0:0:0:0:
192,192,28107,1,0,0:0:0:0:
64,192,28135,1,0,0:0:0:0:
320,192,28162,1,0,0:0:0:0:
448,192,28162,1,0,0:0:0:0:
192,192,28385,128,0,28607:0:0:0:0:
320,192,28385,128,0,28607:0:0:0:0:
64,192,28607,1,0,0:0:0:0:
448,192,28607,1,0,0:0:0:0:
320,192,28829,1,0,0:0:0:0:
448,192,28829,1,0,0:0:0:0:
64,192,29051,1,0,0:0:0:0:
192,192,29051,1,0,0:0:0:0:
448,192,29051,1,0,0:0:0:0:
320,192,29051,1,0,0:0:0:0:
192,192,29274,1,0,0:0:0:0:
320,192,29274,1,0,0:0:0:0:
64,192,29496,1,0,0:0:0:0:
448,192,29496,1,0,0:0:0:0:
192,192,29496,1,0,0:0:0:0:
192,192,29718,1,0,0:0:0:0:
320,192,29718,1,0,0:0:0:0:
192,192,29829,1,0,0:0:0:0:
64,192,29940,1,0,0:0:0:0:
192,192,29940,1,0,0:0:0:0:
320,192,29940,1,0,0:0:0:0:
448,192,29940,1,0,0:0:0:0:
320,192,30162,1,0,0:0:0:0:
448,192,30162,1,0,0:0:0:0:
64,192,30385,1,0,0:0:0:0:
448,192,30385,1,0,0:0:0:0:
192,192,30385,1,0,0:0:0:0:
320,192,30607,1,0,0:0:0:0:
64,192,30607,1,0,0:0:0:0:
64,192,30829,1,0,0:0:0:0:
192,192,30829,1,0,0:0:0:0:
320,192,30829,1,0,0:0:0:0:
448,192,30829,1,0,0:0:0:0:
192,192,31051,1,0,0:0:0:0:
320,192,31051,1,0,0:0:0:0:
320,192,31274,1,0,0:0:0:0:
448,192,31274,1,0,0:0:0:0:
64,192,31274,1,0,0:0:0:0:
320,192,31496,1,0,0:0:0:0:
64,192,31496,1,0,0:0:0:0:
320,192,31607,1,0,0:0:0:0:
320,192,31718,1,0,0:0:0:0:
448,192,31718,1,0,0:0:0:0:
192,192,31718,1,0,0:0:0:0:
64,192,31718,1,0,0:0:0:0:
64,192,31940,1,0,0:0:0:0:
320,192,31940,1,0,0:0:0:0:
192,192,32162,1,0,0:0:0:0:
320,192,32162,1,0,0:0:0:0:
448,192,32162,1,0,0:0:0:0:
192,192,32385,1,0,0:0:0:0:
320,192,32385,1,0,0:0:0:0:
64,192,32607,1,0,0:0:0:0:
192,192,32607,1,0,0:0:0:0:
320,192,32607,1,0,0:0:0:0:
448,192,32607,1,0,0:0:0:0:
64,192,32829,1,0,0:0:0:0:
320,192,32829,1,0,0:0:0:0:
192,192,33051,1,0,0:0:0:0:
320,192,33051,1,0,0:0:0:0:
448,192,33051,1,0,0:0:0:0:
64,192,33274,1,0,0:0:0:0:
320,192,33274,1,0,0:0:0:0:
320,192,33385,1,0,0:0:0:0:
64,192,33496,1,0,0:0:0:0:
192,192,33496,1,0,0:0:0:0:
320,192,33496,1,0,0:0:0:0:
448,192,33496,1,0,0:0:0:0:
192,192,33718,1,0,0:0:0:0:
64,192,33718,1,0,0:0:0:0:
192,192,33940,1,0,0:0:0:0:
320,192,33940,1,0,0:0:0:0:
448,192,33940,1,0,0:0:0:0:
64,192,34162,1,0,0:0:0:0:
448,192,34162,1,0,0:0:0:0:
64,192,34385,1,0,0:0:0:0:
192,192,34385,1,0,0:0:0:0:
448,192,34385,1,0,0:0:0:0:
320,192,34385,1,0,0:0:0:0:
192,192,34607,1,0,0:0:0:0:
320,192,34607,1,0,0:0:0:0:
320,192,34829,1,0,0:0:0:0:
448,192,34829,1,0,0:0:0:0:
64,192,34829,1,0,0:0:0:0:
320,192,34940,1,0,0:0:0:0:
192,192,35051,1,0,0:0:0:0:
64,192,35051,1,0,0:0:0:0:
192,192,35162,1,0,0:0:0:0:
320,192,35274,1,0,0:0:0:0:
448,192,35274,1,0,0:0:0:0:
64,192,35274,1,0,0:0:0:0:
192,192,35274,1,0,0:0:0:0:
320,192,35496,1,0,0:0:0:0:
448,192,35496,1,0,0:0:0:0:
64,192,35718,1,0,0:0:0:0:
192,192,35718,1,0,0:0:0:0:
448,192,35718,1,0,0:0:0:0:
192,192,35940,1,0,0:0:0:0:
320,192,35940,1,0,0:0:0:0:
64,192,36162,1,0,0:0:0:0:
192,192,36162,1,0,0:0:0:0:
320,192,36162,1,0,0:0:0:0:
448,192,36162,1,0,0:0:0:0:
64,192,36385,1,0,0:0:0:0:
192,192,36385,1,0,0:0:0:0:
320,192,36607,1,0,0:0:0:0:
448,192,36607,1,0,0:0:0:0:
64,192,36607,1,0,0:0:0:0:
192,192,36829,1,0,0:0:0:0:
448,192,36829,1,0,0:0:0:0:
448,192,36940,1,0,0:0:0:0:
448,192,37051,1,0,0:0:0:0:
320,192,37051,1,0,0:0:0:0:
192,192,37051,1,0,0:0:0:0:
64,192,37051,1,0,0:0:0:0:
64,192,37274,1,0,0:0:0:0:
320,192,37274,1,0,0:0:0:0:
64,192,37496,1,0,0:0:0:0:
192,192,37496,1,0,0:0:0:0:
448,192,37496,1,0,0:0:0:0:
192,192,37718,1,0,0:0:0:0:
320,192,37718,1,0,0:0:0:0:
64,192,37940,1,0,0:0:0:0:
192,192,37940,1,0,0:0:0:0:
320,192,37940,1,0,0:0:0:0:
448,192,37940,1,0,0:0:0:0:
64,192,38162,1,0,0:0:0:0:
320,192,38162,1,0,0:0:0:0:
64,192,38385,1,0,0:0:0:0:
192,192,38385,1,0,0:0:0:0:
448,192,38385,1,0,0:0:0:0:
64,192,38607,1,0,0:0:0:0:
448,192,38607,1,0,0:0:0:0:
64,192,38718,1,0,0:0:0:0:
64,192,38829,1,0,0:0:0:0:
192,192,38829,1,0,0:0:0:0:
320,192,38829,1,0,0:0:0:0:
448,192,38829,1,0,0:0:0:0:
192,192,39051,1,0,0:0:0:0:
448,192,39051,1,0,0:0:0:0:
64,192,39274,1,0,0:0:0:0:
320,192,39274,1,0,0:0:0:0:
448,192,39274,1,0,0:0:0:0:
192,192,39496,1,0,0:0:0:0:
320,192,39496,1,0,0:0:0:0:
64,192,39718,1,0,0:0:0:0:
192,192,39718,1,0,0:0:0:0:
320,192,39718,1,0,0:0:0:0:
448,192,39718,1,0,0:0:0:0:
64,192,39940,1,0,0:0:0:0:
320,192,39940,1,0,0:0:0:0:
64,192,40162,1,0,0:0:0:0:
192,192,40162,1,0,0:0:0:0:
448,192,40162,1,0,0:0:0:0:
64,192,40385,1,0,0:0:0:0:
320,192,40385,1,0,0:0:0:0:
320,192,40496,1,0,0:0:0:0:
64,192,40607,1,0,0:0:0:0:
192,192,40607,1,0,0:0:0:0:
320,192,40607,1,0,0:0:0:0:
448,192,40607,1,0,0:0:0:0:
192,192,40829,1,0,0:0:0:0:
448,192,40829,1,0,0:0:0:0:
64,192,41051,1,0,0:0:0:0:
448,192,41051,1,0,0:0:0:0:
320,192,41051,1,0,0:0:0:0:
192,192,41274,1,0,0:0:0:0:
320,192,41274,1,0,0:0:0:0:
64,192,41496,1,0,0:0:0:0:
192,192,41496,1,0,0:0:0:0:
320,192,41496,1,0,0:0:0:0:
448,192,41496,1,0,0:0:0:0:
64,192,41718,5,0,0:0:0:0:
192,192,41718,1,0,0:0:0:0:
448,192,41940,1,0,0:0:0:0:
192,192,41940,1,0,0:0:0:0:
320,192,41940,1,0,0:0:0:0:
64,192,42162,1,0,0:0:0:0:
192,192,42162,1,0,0:0:0:0:
64,192,42274,1,0,0:0:0:0:
192,192,42274,1,0,0:0:0:0:
64,192,42385,1,0,0:0:0:0:
192,192,42385,1,0,0:0:0:0:
320,192,42385,1,0,0:0:0:0:
448,192,42385,1,0,0:0:0:0:
448,192,42607,1,0,0:0:0:0:
192,192,42607,1,0,0:0:0:0:
64,192,42829,5,0,0:0:0:0:
192,192,42829,1,0,0:0:0:0:
320,192,42829,1,0,0:0:0:0:
448,192,42829,1,0,0:0:0:0:
64,192,43051,1,0,0:0:0:0:
320,192,43051,1,0,0:0:0:0:
448,192,43162,1,0,0:0:0:0:
192,192,43162,1,0,0:0:0:0:
64,192,43274,1,0,0:0:0:0:
320,192,43274,1,0,0:0:0:0:
192,192,43274,1,0,0:0:0:0:
448,192,43274,1,0,0:0:0:0:
320,192,43385,1,0,0:0:0:0:
64,192,43496,1,0,0:0:0:0:
192,192,43496,1,0,0:0:0:0:
448,192,43607,1,0,0:0:0:0:
320,192,43607,1,0,0:0:0:0:
192,192,43718,1,0,0:0:0:0:
64,192,43718,1,0,0:0:0:0:
320,192,43718,1,0,0:0:0:0:
448,192,43829,1,0,0:0:0:0:
192,192,43940,1,0,0:0:0:0:
320,192,43940,1,0,0:0:0:0:
448,192,44051,1,0,0:0:0:0:
64,192,44051,1,0,0:0:0:0:
192,192,44162,1,0,0:0:0:0:
320,192,44162,1,0,0:0:0:0:
64,192,44162,1,0,0:0:0:0:
448,192,44162,1,0,0:0:0:0:
320,192,44274,1,0,0:0:0:0:
64,192,44385,1,0,0:0:0:0:
192,192,44385,1,0,0:0:0:0:
448,192,44496,1,0,0:0:0:0:
320,192,44496,1,0,0:0:0:0:
64,192,44607,1,0,0:0:0:0:
192,192,44607,1,0,0:0:0:0:
448,192,44607,1,0,0:0:0:0:
320,192,44718,1,0,0:0:0:0:
64,192,44829,1,0,0:0:0:0:
448,192,44829,1,0,0:0:0:0:
192,192,44940,1,0,0:0:0:0:
320,192,44940,1,0,0:0:0:0:
64,192,45051,1,0,0:0:0:0:
192,192,45051,1,0,0:0:0:0:
320,192,45051,1,0,0:0:0:0:
448,192,45051,1,0,0:0:0:0:
64,192,45162,1,0,0:0:0:0:
192,192,45274,1,0,0:0:0:0:
448,192,45274,1,0,0:0:0:0:
320,192,45385,1,0,0:0:0:0:
64,192,45385,1,0,0:0:0:0:
448,192,45496,1,0,0:0:0:0:
192,192,45496,1,0,0:0:0:0:
320,192,45496,1,0,0:0:0:0:
64,192,45607,1,0,0:0:0:0:
320,192,45718,1,0,0:0:0:0:
448,192,45718,1,0,0:0:0:0:
64,192,45829,1,0,0:0:0:0:
192,192,45829,1,0,0:0:0:0:
64,192,45940,1,0,0:0:0:0:
192,192,45940,1,0,0:0:0:0:
320,192,45940,1,0,0:0:0:0:
448,192,45940,1,0,0:0:0:0:
320,192,46051,1,0,0:0:0:0:
448,192,46162,1,0,0:0:0:0:
192,192,46162,1,0,0:0:0:0:
320,192,46274,1,0,0:0:0:0:
64,192,46274,1,0,0:0:0:0:
64,192,46385,1,0,0:0:0:0:
192,192,46385,1,0,0:0:0:0:
448,192,46385,1,0,0:0:0:0:
320,192,46496,1,0,0:0:0:0:
192,192,46607,1,0,0:0:0:0:
64,192,46607,1,0,0:0:0:0:
320,192,46718,1,0,0:0:0:0:
448,192,46718,1,0,0:0:0:0:
64,192,46829,1,0,0:0:0:0:
192,192,46829,1,0,0:0:0:0:
320,192,46829,1,0,0:0:0:0:
448,192,46829,1,0,0:0:0:0:
192,192,46940,1,0,0:0:0:0:
64,192,47051,1,0,0:0:0:0:
448,192,47051,1,0,0:0:0:0:
192,192,47162,1,0,0:0:0:0:
320,192,47162,1,0,0:0:0:0:
64,192,47274,1,0,0:0:0:0:
448,192,47274,1,0,0:0:0:0:
320,192,47274,1,0,0:0:0:0:
192,192,47385,1,0,0:0:0:0:
320,192,47496,1,0,0:0:0:0:
448,192,47496,1,0,0:0:0:0:
64,192,47607,1,0,0:0:0:0:
192,192,47607,1,0,0:0:0:0:
64,192,47718,1,0,0:0:0:0:
192,192,47718,1,0,0:0:0:0:
320,192,47718,1,0,0:0:0:0:
448,192,47718,1,0,0:0:0:0:
448,192,47829,1,0,0:0:0:0:
192,192,47940,1,0,0:0:0:0:
320,192,47940,1,0,0:0:0:0:
448,192,48051,1,0,0:0:0:0:
64,192,48051,1,0,0:0:0:0:
192,192,48162,1,0,0:0:0:0:
320,192,48162,1,0,0:0:0:0:
448,192,48162,1,0,0:0:0:0:
64,192,48274,1,0,0:0:0:0:
192,192,48385,1,0,0:0:0:0:
448,192,48385,1,0,0:0:0:0:
320,192,48496,1,0,0:0:0:0:
64,192,48496,1,0,0:0:0:0:
64,192,48607,1,0,0:0:0:0:
192,192,48607,1,0,0:0:0:0:
320,192,48607,1,0,0:0:0:0:
448,192,48607,1,0,0:0:0:0:
448,192,48718,1,0,0:0:0:0:
64,192,48829,1,0,0:0:0:0:
192,192,48829,1,0,0:0:0:0:
320,192,48940,1,0,0:0:0:0:
448,192,48940,1,0,0:0:0:0:
192,192,49051,1,0,0:0:0:0:
64,192,49051,1,0,0:0:0:0:
448,192,49051,1,0,0:0:0:0:
320,192,49162,1,0,0:0:0:0:
64,192,49274,1,0,0:0:0:0:
448,192,49274,1,0,0:0:0:0:
192,192,49385,1,0,0:0:0:0:
320,192,49385,1,0,0:0:0:0:
64,192,49496,1,0,0:0:0:0:
192,192,49496,1,0,0:0:0:0:
320,192,49496,1,0,0:0:0:0:
448,192,49496,1,0,0:0:0:0:
448,192,49607,1,0,0:0:0:0:
64,192,49718,1,0,0:0:0:0:
320,192,49718,1,0,0:0:0:0:
192,192,49829,1,0,0:0:0:0:
448,192,49829,1,0,0:0:0:0:
64,192,49940,1,0,0:0:0:0:
192,192,49940,1,0,0:0:0:0:
320,192,49940,1,0,0:0:0:0:
448,192,50051,1,0,0:0:0:0:
320,192,50162,1,0,0:0:0:0:
192,192,50162,1,0,0:0:0:0:
64,192,50274,1,0,0:0:0:0:
448,192,50274,1,0,0:0:0:0:
64,192,50385,1,0,0:0:0:0:
192,192,50385,1,0,0:0:0:0:
320,192,50385,1,0,0:0:0:0:
448,192,50385,1,0,0:0:0:0:
320,192,50496,1,0,0:0:0:0:
192,192,50607,1,0,0:0:0:0:
448,192,50607,1,0,0:0:0:0:
64,192,50718,1,0,0:0:0:0:
320,192,50718,1,0,0:0:0:0:
192,192,50829,1,0,0:0:0:0:
448,192,50829,1,0,0:0:0:0:
320,192,50829,1,0,0:0:0:0:
64,192,50940,1,0,0:0:0:0:
320,192,51051,1,0,0:0:0:0:
448,192,51051,1,0,0:0:0:0:
64,192,51162,1,0,0:0:0:0:
192,192,51162,1,0,0:0:0:0:
64,192,51274,1,0,0:0:0:0:
192,192,51274,1,0,0:0:0:0:
320,192,51274,1,0,0:0:0:0:
448,192,51274,1,0,0:0:0:0:
320,192,51385,1,0,0:0:0:0:
64,192,51496,1,0,0:0:0:0:
192,192,51496,1,0,0:0:0:0:
320,192,51607,1,0,0:0:0:0:
448,192,51607,1,0,0:0:0:0:
64,192,51718,1,0,0:0:0:0:
192,192,51718,1,0,0:0:0:0:
320,192,51718,1,0,0:0:0:0:
448,192,51829,1,0,0:0:0:0:
64,192,51940,1,0,0:0:0:0:
320,192,51940,1,0,0:0:0:0:
192,192,52051,1,0,0:0:0:0:
448,192,52051,1,0,0:0:0:0:
64,192,52162,1,0,0:0:0:0:
192,192,52162,1,0,0:0:0:0:
320,192,52162,1,0,0:0:0:0:
448,192,52162,1,0,0:0:0:0:
320,192,52274,1,0,0:0:0:0:
192,192,52385,1,0,0:0:0:0:
448,192,52385,1,0,0:0:0:0:
64,192,52496,1,0,0:0:0:0:
320,192,52496,1,0,0:0:0:0:
448,192,52607,1,0,0:0:0:0:
64,192,52607,1,0,0:0:0:0:
192,192,52607,1,0,0:0:0:0:
320,192,52718,1,0,0:0:0:0:
64,192,52829,1,0,0:0:0:0:
448,192,52829,1,0,0:0:0:0:
192,192,52940,1,0,0:0:0:0:
320,192,52940,1,0,0:0:0:0:
64,192,53051,1,0,0:0:0:0:
192,192,53051,1,0,0:0:0:0:
320,192,53051,1,0,0:0:0:0:
448,192,53051,1,0,0:0:0:0:
448,192,53162,1,0,0:0:0:0:
64,192,53274,1,0,0:0:0:0:
192,192,53274,1,0,0:0:0:0:
448,192,53385,1,0,0:0:0:0:
320,192,53385,1,0,0:0:0:0:
64,192,53496,1,0,0:0:0:0:
192,192,53496,1,0,0:0:0:0:
448,192,53496,1,0,0:0:0:0:
320,192,53607,1,0,0:0:0:0:
64,192,53718,1,0,0:0:0:0:
448,192,53718,1,0,0:0:0:0:
192,192,53829,1,0,0:0:0:0:
320,192,53829,1,0,0:0:0:0:
64,192,53940,1,0,0:0:0:0:
192,192,53940,1,0,0:0:0:0:
320,192,53940,1,0,0:0:0:0:
448,192,53940,1,0,0:0:0:0:
64,192,54051,1,0,0:0:0:0:
192,192,54162,1,0,0:0:0:0:
448,192,54162,1,0,0:0:0:0:
320,192,54274,1,0,0:0:0:0:
64,192,54274,1,0,0:0:0:0:
192,192,54385,1,0,0:0:0:0:
448,192,54385,1,0,0:0:0:0:
320,192,54385,1,0,0:0:0:0:
64,192,54496,1,0,0:0:0:0:
192,192,54607,1,0,0:0:0:0:
320,192,54607,1,0,0:0:0:0:
448,192,54718,1,0,0:0:0:0:
64,192,54718,1,0,0:0:0:0:
64,192,54829,1,0,0:0:0:0:
192,192,54829,1,0,0:0:0:0:
320,192,54829,1,0,0:0:0:0:
448,192,54829,1,0,0:0:0:0:
192,192,54940,1,0,0:0:0:0:
64,192,55051,1,0,0:0:0:0:
320,192,55051,1,0,0:0:0:0:
192,192,55162,1,0,0:0:0:0:
448,192,55162,1,0,0:0:0:0:
320,192,55274,1,0,0:0:0:0:
64,192,55274,1,0,0:0:0:0:
448,192,55274,1,0,0:0:0:0:
192,192,55385,1,0,0:0:0:0:
320,192,55496,1,0,0:0:0:0:
448,192,55496,1,0,0:0:0:0:
64,192,55607,1,0,0:0:0:0:
192,192,55607,1,0,0:0:0:0:
64,192,55718,1,0,0:0:0:0:
192,192,55718,1,0,0:0:0:0:
320,192,55718,1,0,0:0:0:0:
448,192,55718,1,0,0:0:0:0:
320,192,55829,1,0,0:0:0:0:
192,192,55940,1,0,0:0:0:0:
64,192,55940,1,0,0:0:0:0:
320,192,56051,1,0,0:0:0:0:
448,192,56051,1,0,0:0:0:0:
192,192,56162,1,0,0:0:0:0:
320,192,56162,1,0,0:0:0:0:
64,192,56162,1,0,0:0:0:0:
448,192,56274,1,0,0:0:0:0:
192,192,56385,1,0,0:0:0:0:
320,192,56385,1,0,0:0:0:0:
64,192,56385,1,0,0:0:0:0:
64,192,56496,1,0,0:0:0:0:
448,192,56496,1,0,0:0:0:0:
64,192,56607,1,0,0:0:0:0:
192,192,56607,1,0,0:0:0:0:
320,192,56607,1,0,0:0:0:0:
448,192,56607,1,0,0:0:0:0:
320,192,56718,1,0,0:0:0:0:
192,192,56718,1,0,0:0:0:0:
192,192,56829,1,0,0:0:0:0:
64,192,56829,1,0,0:0:0:0:
448,192,56829,1,0,0:0:0:0:
320,192,56940,1,0,0:0:0:0:
448,192,56940,1,0,0:0:0:0:
64,192,57051,1,0,0:0:0:0:
320,192,57051,1,0,0:0:0:0:
448,192,57051,1,0,0:0:0:0:
192,192,57051,1,0,0:0:0:0:
192,192,57162,1,0,0:0:0:0:
64,192,57274,1,0,0:0:0:0:
320,192,57274,1,0,0:0:0:0:
192,192,57385,1,0,0:0:0:0:
448,192,57385,1,0,0:0:0:0:
64,192,57496,1,0,0:0:0:0:
192,192,57496,1,0,0:0:0:0:
320,192,57496,1,0,0:0:0:0:
448,192,57496,1,0,0:0:0:0:
320,192,57607,1,0,0:0:0:0:
64,192,57718,1,0,0:0:0:0:
448,192,57718,1,0,0:0:0:0:
192,192,57829,1,0,0:0:0:0:
320,192,57829,1,0,0:0:0:0:
64,192,57940,1,0,0:0:0:0:
320,192,57940,1,0,0:0:0:0:
448,192,57940,1,0,0:0:0:0:
192,192,58051,1,0,0:0:0:0:
64,192,58162,1,0,0:0:0:0:
320,192,58162,1,0,0:0:0:0:
192,192,58274,1,0,0:0:0:0:
448,192,58274,1,0,0:0:0:0:
64,192,58385,1,0,0:0:0:0:
192,192,58385,1,0,0:0:0:0:
320,192,58385,1,0,0:0:0:0:
448,192,58385,1,0,0:0:0:0:
320,192,58496,1,0,0:0:0:0:
448,192,58607,1,0,0:0:0:0:
192,192,58607,1,0,0:0:0:0:
64,192,58718,1,0,0:0:0:0:
320,192,58718,1,0,0:0:0:0:
448,192,58829,1,0,0:0:0:0:
64,192,58829,1,0,0:0:0:0:
192,192,58829,1,0,0:0:0:0:
320,192,58940,1,0,0:0:0:0:
64,192,59051,1,0,0:0:0:0:
192,192,59051,1,0,0:0:0:0:
320,192,59162,1,0,0:0:0:0:
448,192,59162,1,0,0:0:0:0:
64,192,59274,1,0,0:0:0:0:
192,192,59274,1,0,0:0:0:0:
320,192,59274,1,0,0:0:0:0:
448,192,59274,1,0,0:0:0:0:
64,192,59385,1,0,0:0:0:0:
192,192,59496,1,0,0:0:0:0:
320,192,59496,1,0,0:0:0:0:
448,192,59607,1,0,0:0:0:0:
64,192,59607,1,0,0:0:0:0:
192,192,59718,1,0,0:0:0:0:
320,192,59718,1,0,0:0:0:0:
64,192,59718,1,0,0:0:0:0:
448,192,59829,1,0,0:0:0:0:
64,192,59940,1,0,0:0:0:0:
192,192,59940,1,0,0:0:0:0:
320,192,60051,1,0,0:0:0:0:
448,192,60051,1,0,0:0:0:0:
64,192,60162,1,0,0:0:0:0:
192,192,60162,1,0,0:0:0:0:
320,192,60162,1,0,0:0:0:0:
448,192,60162,1,0,0:0:0:0:
192,192,60274,1,0,0:0:0:0:
64,192,60385,1,0,0:0:0:0:
448,192,60385,1,0,0:0:0:0:
192,192,60496,1,0,0:0:0:0:
320,192,60496,1,0,0:0:0:0:
320,192,60607,1,0,0:0:0:0:
64,192,60607,1,0,0:0:0:0:
448,192,60607,1,0,0:0:0:0:
192,192,60718,1,0,0:0:0:0:
64,192,60829,1,0,0:0:0:0:
320,192,60829,1,0,0:0:0:0:
192,192,60940,1,0,0:0:0:0:
448,192,60940,1,0,0:0:0:0:
64,192,61051,1,0,0:0:0:0:
192,192,61051,1,0,0:0:0:0:
320,192,61051,1,0,0:0:0:0:
448,192,61051,1,0,0:0:0:0:
320,192,61162,1,0,0:0:0:0:
64,192,61274,1,0,0:0:0:0:
192,192,61274,1,0,0:0:0:0:
320,192,61385,1,0,0:0:0:0:
448,192,61385,1,0,0:0:0:0:
64,192,61496,1,0,0:0:0:0:
192,192,61496,1,0,0:0:0:0:
448,192,61496,1,0,0:0:0:0:
320,192,61607,1,0,0:0:0:0:
192,192,61718,1,0,0:0:0:0:
448,192,61718,1,0,0:0:0:0:
64,192,61829,1,0,0:0:0:0:
320,192,61829,1,0,0:0:0:0:
64,192,61940,1,0,0:0:0:0:
192,192,61940,1,0,0:0:0:0:
320,192,61940,1,0,0:0:0:0:
448,192,61940,1,0,0:0:0:0:
192,192,62051,1,0,0:0:0:0:
64,192,62162,1,0,0:0:0:0:
320,192,62162,1,0,0:0:0:0:
192,192,62274,1,0,0:0:0:0:
448,192,62274,1,0,0:0:0:0:
64,192,62385,1,0,0:0:0:0:
192,192,62385,1,0,0:0:0:0:
320,192,62385,1,0,0:0:0:0:
448,192,62496,1,0,0:0:0:0:
192,192,62607,1,0,0:0:0:0:
320,192,62607,1,0,0:0:0:0:
64,192,62718,1,0,0:0:0:0:
448,192,62718,1,0,0:0:0:0:
64,192,62829,1,0,0:0:0:0:
448,192,62829,1,0,0:0:0:0:
320,192,62829,1,0,0:0:0:0:
192,192,62829,1,0,0:0:0:0:
320,192,62940,1,0,0:0:0:0:
192,192,63051,1,0,0:0:0:0:
64,192,63051,1,0,0:0:0:0:
320,192,63162,1,0,0:0:0:0:
448,192,63162,1,0,0:0:0:0:
64,192,63274,1,0,0:0:0:0:
192,192,63274,1,0,0:0:0:0:
320,192,63274,1,0,0:0:0:0:
448,192,63385,1,0,0:0:0:0:
320,192,63496,1,0,0:0:0:0:
64,192,63496,1,0,0:0:0:0:
192,192,63607,1,0,0:0:0:0:
448,192,63607,1,0,0:0:0:0:
64,192,63718,1,0,0:0:0:0:
192,192,63718,1,0,0:0:0:0:
320,192,63718,1,0,0:0:0:0:
448,192,63718,1,0,0:0:0:0:
64,192,63829,1,0,0:0:0:0:
192,192,63940,1,0,0:0:0:0:
320,192,63940,1,0,0:0:0:0:
64,192,64051,1,0,0:0:0:0:
448,192,64051,1,0,0:0:0:0:
64,192,64162,1,0,0:0:0:0:
192,192,64162,1,0,0:0:0:0:
320,192,64162,1,0,0:0:0:0:
448,192,64274,1,0,0:0:0:0:
64,192,64385,1,0,0:0:0:0:
320,192,64385,1,0,0:0:0:0:
192,192,64496,1,0,0:0:0:0:
448,192,64496,1,0,0:0:0:0:
64,192,64607,1,0,0:0:0:0:
192,192,64607,1,0,0:0:0:0:
320,192,64607,1,0,0:0:0:0:
448,192,64607,1,0,0:0:0:0:
320,192,64718,1,0,0:0:0:0:
64,192,64829,1,0,0:0:0:0:
448,192,64829,1,0,0:0:0:0:
192,192,64940,1,0,0:0:0:0:
320,192,64940,1,0,0:0:0:0:
64,192,65051,1,0,0:0:0:0:
192,192,65051,1,0,0:0:0:0:
448,192,65051,1,0,0:0:0:0:
320,192,65162,1,0,0:0:0:0:
192,192,65274,1,0,0:0:0:0:
448,192,65274,1,0,0:0:0:0:
64,192,65385,1,0,0:0:0:0:
320,192,65385,1,0,0:0:0:0:
64,192,65496,1,0,0:0:0:0:
192,192,65496,1,0,0:0:0:0:
320,192,65496,1,0,0:0:0:0:
448,192,65496,1,0,0:0:0:0:
192,192,65607,1,0,0:0:0:0:
64,192,65718,1,0,0:0:0:0:
448,192,65718,1,0,0:0:0:0:
192,192,65829,1,0,0:0:0:0:
320,192,65829,1,0,0:0:0:0:
448,192,65940,1,0,0:0:0:0:
64,192,65940,1,0,0:0:0:0:
192,192,65940,1,0,0:0:0:0:
320,192,66051,1,0,0:0:0:0:
64,192,66162,1,0,0:0:0:0:
192,192,66162,1,0,0:0:0:0:
320,192,66274,1,0,0:0:0:0:
448,192,66274,1,0,0:0:0:0:
64,192,66385,1,0,0:0:0:0:
192,192,66385,1,0,0:0:0:0:
320,192,66385,1,0,0:0:0:0:
448,192,66385,1,0,0:0:0:0:
64,192,66496,1,0,0:0:0:0:
192,192,66607,1,0,0:0:0:0:
448,192,66607,1,0,0:0:0:0:
64,192,66718,1,0,0:0:0:0:
320,192,66718,1,0,0:0:0:0:
64,192,66829,1,0,0:0:0:0:
192,192,66829,1,0,0:0:0:0:
448,192,66829,1,0,0:0:0:0:
320,192,66940,1,0,0:0:0:0:
64,192,67051,1,0,0:0:0:0:
448,192,67051,1,0,0:0:0:0:
192,192,67162,1,0,0:0:0:0:
320,192,67162,1,0,0:0:0:0:
320,192,67274,1,0,0:0:0:0:
448,192,67274,1,0,0:0:0:0:
192,192,67274,1,0,0:0:0:0:
64,192,67274,1,0,0:0:0:0:
448,192,67385,1,0,0:0:0:0:
64,192,67496,1,0,0:0:0:0:
320,192,67496,1,0,0:0:0:0:
192,192,67607,1,0,0:0:0:0:
448,192,67607,1,0,0:0:0:0:
320,192,67718,1,0,0:0:0:0:
64,192,67718,1,0,0:0:0:0:
192,192,67718,1,0,0:0:0:0:
448,192,67829,1,0,0:0:0:0:
320,192,67940,1,0,0:0:0:0:
192,192,67940,1,0,0:0:0:0:
64,192,68051,1,0,0:0:0:0:
448,192,68051,1,0,0:0:0:0:
192,192,68162,1,0,0:0:0:0:
64,192,68162,1,0,0:0:0:0:
320,192,68162,1,0,0:0:0:0:
448,192,68162,1,0,0:0:0:0:
192,192,68274,1,0,0:0:0:0:
64,192,68385,1,0,0:0:0:0:
320,192,68385,1,0,0:0:0:0:
192,192,68496,1,0,0:0:0:0:
448,192,68496,1,0,0:0:0:0:
320,192,68607,1,0,0:0:0:0:
64,192,68607,1,0,0:0:0:0:
448,192,68607,1,0,0:0:0:0:
192,192,68718,1,0,0:0:0:0:
64,192,68829,1,0,0:0:0:0:
448,192,68829,1,0,0:0:0:0:
192,192,68940,1,0,0:0:0:0:
320,192,68940,1,0,0:0:0:0:
320,192,69051,1,0,0:0:0:0:
448,192,69051,1,0,0:0:0:0:
192,192,69051,1,0,0:0:0:0:
64,192,69051,1,0,0:0:0:0:
448,192,69162,1,0,0:0:0:0:
320,192,69274,1,0,0:0:0:0:
192,192,69274,1,0,0:0:0:0:
64,192,69385,1,0,0:0:0:0:
448,192,69385,1,0,0:0:0:0:
64,192,69496,1,0,0:0:0:0:
320,192,69496,1,0,0:0:0:0:
192,192,69496,1,0,0:0:0:0:
448,192,69607,1,0,0:0:0:0:
64,192,69718,1,0,0:0:0:0:
192,192,69718,1,0,0:0:0:0:
320,192,69829,1,0,0:0:0:0:
448,192,69829,1,0,0:0:0:0:
192,192,69940,1,0,0:0:0:0:
64,192,69940,1,0,0:0:0:0:
320,192,69940,1,0,0:0:0:0:
448,192,69940,1,0,0:0:0:0:
192,192,70051,1,0,0:0:0:0:
64,192,70162,1,0,0:0:0:0:
320,192,70162,1,0,0:0:0:0:
192,192,70274,1,0,0:0:0:0:
448,192,70274,1,0,0:0:0:0:
64,192,70385,1,0,0:0:0:0:
320,192,70385,1,0,0:0:0:0:
448,192,70385,1,0,0:0:0:0:
192,192,70496,1,0,0:0:0:0:
320,192,70607,1,0,0:0:0:0:
448,192,70607,1,0,0:0:0:0:
64,192,70607,1,0,0:0:0:0:
64,192,70718,1,0,0:0:0:0:
192,192,70718,1,0,0:0:0:0:
64,192,70829,1,0,0:0:0:0:
320,192,70829,1,0,0:0:0:0:
448,192,70829,1,0,0:0:0:0:
192,192,70829,1,0,0:0:0:0:
448,192,70940,1,0,0:0:0:0:
320,192,70940,1,0,0:0:0:0:
64,192,71051,1,0,0:0:0:0:
192,192,71051,1,0,0:0:0:0:
320,192,71051,1,0,0:0:0:0:
64,192,71162,1,0,0:0:0:0:
192,192,71162,1,0,0:0:0:0:
64,192,71274,1,0,0:0:0:0:
192,192,71274,1,0,0:0:0:0:
320,192,71274,1,0,0:0:0:0:
448,192,71274,1,0,0:0:0:0:
192,192,71718,1,0,0:0:0:0:
192,192,72162,1,0,0:0:0:0:
192,192,72607,1,0,0:0:0:0:
448,192,73051,1,0,0:0:0:0:
448,192,73496,1,0,0:0:0:0:
448,192,73940,1,0,0:0:0:0:
448,192,74385,1,0,0:0:0:0:
320,192,74829,1,0,0:0:0:0:
320,192,75274,1,0,0:0:0:0:
320,192,75718,1,0,0:0:0:0:
320,192,76162,1,0,0:0:0:0:
64,192,76607,1,0,0:0:0:0:
64,192,77051,1,0,0:0:0:0:
64,192,77496,1,0,0:0:0:0:
64,192,77940,128,0,78385:0:0:0:0:
192,192,78385,1,0,0:0:0:0:
192,192,78829,1,0,0:0:0:0:
192,192,79274,1,0,0:0:0:0:
192,192,79718,1,0,0:0:0:0:
448,192,80162,1,0,0:0:0:0:
448,192,80607,1,0,0:0:0:0:
448,192,81051,1,0,0:0:0:0:
448,192,81496,1,0,0:0:0:0:
320,192,81940,1,0,0:0:0:0:
320,192,82385,1,0,0:0:0:0:
320,192,82829,1,0,0:0:0:0:
320,192,83274,1,0,0:0:0:0:
64,192,83718,1,0,0:0:0:0:
192,192,83940,1,0,0:0:0:0:
320,192,84051,1,0,0:0:0:0:
64,192,84162,1,0,0:0:0:0:
192,192,84385,1,0,0:0:0:0:
448,192,84496,1,0,0:0:0:0:
320,192,84496,1,0,0:0:0:0:
64,192,84607,1,0,0:0:0:0:
64,192,84829,1,0,0:0:0:0:
448,192,84829,1,0,0:0:0:0:
192,192,84940,1,0,0:0:0:0:
320,192,84940,1,0,0:0:0:0:
64,192,85051,128,0,85496:0:0:0:0:
448,192,85051,128,0,85496:0:0:0:0:
192,192,85496,1,0,0:0:0:0:
320,192,85496,1,0,0:0:0:0:
64,192,85718,1,0,0:0:0:0:
448,192,85718,1,0,0:0:0:0:
192,192,85718,1,0,0:0:0:0:
192,192,85940,1,0,0:0:0:0:
320,192,85940,1,0,0:0:0:0:
448,192,85940,1,0,0:0:0:0:
64,192,85940,1,0,0:0:0:0:
64,192,86162,1,0,0:0:0:0:
320,192,86162,1,0,0:0:0:0:
320,192,86274,1,0,0:0:0:0:
448,192,86274,1,0,0:0:0:0:
448,192,86385,1,0,0:0:0:0:
192,192,86385,1,0,0:0:0:0:
64,192,86385,1,0,0:0:0:0:
320,192,86496,1,0,0:0:0:0:
192,192,86496,1,0,0:0:0:0:
64,192,86607,1,0,0:0:0:0:
320,192,86607,1,0,0:0:0:0:
448,192,86718,1,0,0:0:0:0:
64,192,86829,1,0,0:0:0:0:
448,192,86829,1,0,0:0:0:0:
192,192,86829,1,0,0:0:0:0:
320,192,86829,1,0,0:0:0:0:
320,192,86940,1,0,0:0:0:0:
64,192,87051,1,0,0:0:0:0:
192,192,87051,1,0,0:0:0:0:
448,192,87162,1,0,0:0:0:0:
192,192,87162,1,0,0:0:0:0:
64,192,87274,1,0,0:0:0:0:
320,192,87274,1,0,0:0:0:0:
448,192,87274,1,0,0:0:0:0:
192,192,87385,1,0,0:0:0:0:
448,192,87496,1,0,0:0:0:0:
320,192,87496,1,0,0:0:0:0:
64,192,87570,1,0,0:0:0:0:
192,192,87570,1,0,0:0:0:0:
320,192,87644,1,0,0:0:0:0:
448,192,87644,1,0,0:0:0:0:
448,192,87718,1,0,0:0:0:0:
64,192,87718,1,0,0:0:0:0:
192,192,87718,1,0,0:0:0:0:
320,192,87718,1,0,0:0:0:0:
320,192,87829,1,0,0:0:0:0:
64,192,87940,1,0,0:0:0:0:
192,192,87940,1,0,0:0:0:0:
320,192,88014,1,0,0:0:0:0:
448,192,88014,1,0,0:0:0:0:
64,192,88088,1,0,0:0:0:0:
192,192,88088,1,0,0:0:0:0:
64,192,88162,1,0,0:0:0:0:
320,192,88162,1,0,0:0:0:0:
448,192,88162,1,0,0:0:0:0:
320,192,88274,1,0,0:0:0:0:
448,192,88274,1,0,0:0:0:0:
64,192,88385,1,0,0:0:0:0:
192,192,88385,1,0,0:0:0:0:
448,192,88385,1,0,0:0:0:0:
320,192,88496,1,0,0:0:0:0:
64,192,88607,1,0,0:0:0:0:
192,192,88607,1,0,0:0:0:0:
448,192,88607,1,0,0:0:0:0:
320,192,88607,1,0,0:0:0:0:
448,192,88718,1,0,0:0:0:0:
192,192,88718,1,0,0:0:0:0:
192,192,88829,1,0,0:0:0:0:
320,192,88829,1,0,0:0:0:0:
64,192,88940,1,0,0:0:0:0:
320,192,88940,1,0,0:0:0:0:
192,192,89051,1,0,0:0:0:0:
320,192,89051,1,0,0:0:0:0:
448,192,89051,1,0,0:0:0:0:
448,192,89162,1,0,0:0:0:0:
64,192,89274,1,0,0:0:0:0:
320,192,89274,1,0,0:0:0:0:
320,192,89385,1,0,0:0:0:0:
448,192,89385,1,0,0:0:0:0:
64,192,89496,1,0,0:0:0:0:
192,192,89496,1,0,0:0:0:0:
448,192,89496,1,0,0:0:0:0:
320,192,89496,1,0,0:0:0:0:
64,192,89607,1,0,0:0:0:0:
192,192,89607,1,0,0:0:0:0:
448,192,89718,1,0,0:0:0:0:
192,192,89718,1,0,0:0:0:0:
448,192,89829,1,0,0:0:0:0:
320,192,89829,1,0,0:0:0:0:
64,192,89940,1,0,0:0:0:0:
448,192,89940,1,0,0:0:0:0:
192,192,89940,1,0,0:0:0:0:
192,192,90051,1,0,0:0:0:0:
320,192,90051,1,0,0:0:0:0:
64,192,90162,1,0,0:0:0:0:
448,192,90162,1,0,0:0:0:0:
320,192,90162,1,0,0:0:0:0:
192,192,90274,1,0,0:0:0:0:
448,192,90385,1,0,0:0:0:0:
192,192,90385,1,0,0:0:0:0:
320,192,90385,1,0,0:0:0:0:
64,192,90385,1,0,0:0:0:0:
64,192,90496,1,0,0:0:0:0:
320,192,90496,1,0,0:0:0:0:
192,192,90607,1,0,0:0:0:0:
320,192,90607,1,0,0:0:0:0:
192,192,90718,1,0,0:0:0:0:
448,192,90829,1,0,0:0:0:0:
64,192,90829,1,0,0:0:0:0:
320,192,90829,1,0,0:0:0:0:
320,192,90940,1,0,0:0:0:0:
64,192,91051,1,0,0:0:0:0:
192,192,91051,1,0,0:0:0:0:
320,192,91125,1,0,0:0:0:0:
448,192,91125,1,0,0:0:0:0:
192,192,91200,1,0,0:0:0:0:
64,192,91200,1,0,0:0:0:0:
320,192,91274,1,0,0:0:0:0:
448,192,91274,1,0,0:0:0:0:
192,192,91274,1,0,0:0:0:0:
64,192,91274,1,0,0:0:0:0:
320,192,91385,1,0,0:0:0:0:
448,192,91385,1,0,0:0:0:0:
192,192,91496,1,0,0:0:0:0:
448,192,91496,1,0,0:0:0:0:
192,192,91607,1,0,0:0:0:0:
320,192,91607,1,0,0:0:0:0:
64,192,91607,1,0,0:0:0:0:
64,192,91718,1,0,0:0:0:0:
448,192,91718,1,0,0:0:0:0:
320,192,91718,1,0,0:0:0:0:
192,192,91829,1,0,0:0:0:0:
448,192,91829,1,0,0:0:0:0:
320,192,91940,1,0,0:0:0:0:
192,192,91940,1,0,0:0:0:0:
64,192,91940,1,0,0:0:0:0:
320,192,92051,1,0,0:0:0:0:
64,192,92162,1,0,0:0:0:0:
448,192,92162,1,0,0:0:0:0:
320,192,92162,1,0,0:0:0:0:
192,192,92162,1,0,0:0:0:0:
192,192,92274,1,0,0:0:0:0:
64,192,92385,1,0,0:0:0:0:
320,192,92385,1,0,0:0:0:0:
448,192,92385,1,0,0:0:0:0:
64,192,92496,1,0,0:0:0:0:
320,192,92496,1,0,0:0:0:0:
448,192,92496,1,0,0:0:0:0:
448,192,92607,1,0,0:0:0:0:
64,192,92607,1,0,0:0:0:0:
192,192,92607,1,0,0:0:0:0:
320,192,92607,1,0,0:0:0:0:
192,192,92718,1,0,0:0:0:0:
320,192,92829,1,0,0:0:0:0:
448,192,92829,1,0,0:0:0:0:
64,192,92940,1,0,0:0:0:0:
320,192,92940,1,0,0:0:0:0:
192,192,93051,1,0,0:0:0:0:
320,192,93051,1,0,0:0:0:0:
448,192,93051,1,0,0:0:0:0:
64,192,93051,1,0,0:0:0:0:
192,192,93162,1,0,0:0:0:0:
64,192,93274,1,0,0:0:0:0:
320,192,93274,1,0,0:0:0:0:
448,192,93385,1,0,0:0:0:0:
192,192,93385,1,0,0:0:0:0:
192,192,93496,1,0,0:0:0:0:
320,192,93496,1,0,0:0:0:0:
64,192,93496,1,0,0:0:0:0:
320,192,93607,1,0,0:0:0:0:
192,192,93718,1,0,0:0:0:0:
448,192,93718,1,0,0:0:0:0:
448,192,93829,1,0,0:0:0:0:
64,192,93829,1,0,0:0:0:0:
320,192,93940,1,0,0:0:0:0:
192,192,93940,1,0,0:0:0:0:
64,192,93940,1,0,0:0:0:0:
448,192,93940,1,0,0:0:0:0:
192,192,94051,1,0,0:0:0:0:
64,192,94162,1,0,0:0:0:0:
448,192,94162,1,0,0:0:0:0:
320,192,94274,1,0,0:0:0:0:
192,192,94274,1,0,0:0:0:0:
64,192,94385,1,0,0:0:0:0:
320,192,94385,1,0,0:0:0:0:
448,192,94385,1,0,0:0:0:0:
448,192,94496,1,0,0:0:0:0:
64,192,94607,1,0,0:0:0:0:
192,192,94607,1,0,0:0:0:0:
320,192,94681,1,0,0:0:0:0:
448,192,94681,1,0,0:0:0:0:
64,192,94755,1,0,0:0:0:0:
192,192,94755,1,0,0:0:0:0:
64,192,94829,1,0,0:0:0:0:
192,192,94829,1,0,0:0:0:0:
448,192,94829,1,0,0:0:0:0:
320,192,94829,1,0,0:0:0:0:
320,192,94940,1,0,0:0:0:0:
448,192,94940,1,0,0:0:0:0:
64,192,95051,1,0,0:0:0:0:
192,192,95051,1,0,0:0:0:0:
320,192,95125,1,0,0:0:0:0:
448,192,95125,1,0,0:0:0:0:
64,192,95200,1,0,0:0:0:0:
192,192,95200,1,0,0:0:0:0:
192,192,95274,1,0,0:0:0:0:
320,192,95274,1,0,0:0:0:0:
448,192,95274,1,0,0:0:0:0:
448,192,95385,1,0,0:0:0:0:
64,192,95385,1,0,0:0:0:0:
64,192,95496,1,0,0:0:0:0:
192,192,95496,1,0,0:0:0:0:
320,192,95496,1,0,0:0:0:0:
448,192,95607,1,0,0:0:0:0:
64,192,95718,1,0,0:0:0:0:
448,192,95718,1,0,0:0:0:0:
192,192,95718,1,0,0:0:0:0:
320,192,95718,1,0,0:0:0:0:
320,192,95829,1,0,0:0:0:0:
64,192,95940,1,0,0:0:0:0:
192,192,95940,1,0,0:0:0:0:
320,192,95996,1,0,0:0:0:0:
448,192,95996,1,0,0:0:0:0:
64,192,96051,1,0,0:0:0:0:
192,192,96051,1,0,0:0:0:0:
320,192,96107,1,0,0:0:0:0:
448,192,96107,1,0,0:0:0:0:
64,192,96162,1,0,0:0:0:0:
192,192,96162,1,0,0:0:0:0:
320,192,96274,1,0,0:0:0:0:
320,192,96385,1,0,0:0:0:0:
448,192,96385,1,0,0:0:0:0:
64,192,96385,1,0,0:0:0:0:
192,192,96496,1,0,0:0:0:0:
64,192,96496,1,0,0:0:0:0:
192,192,96607,1,0,0:0:0:0:
320,192,96607,1,0,0:0:0:0:
448,192,96607,1,0,0:0:0:0:
64,192,96607,1,0,0:0:0:0:
320,192,96718,1,0,0:0:0:0:
448,192,96829,1,0,0:0:0:0:
192,192,96829,1,0,0:0:0:0:
192,192,96940,1,0,0:0:0:0:
64,192,96940,1,0,0:0:0:0:
448,192,97051,1,0,0:0:0:0:
320,192,97051,1,0,0:0:0:0:
64,192,97051,1,0,0:0:0:0:
192,192,97162,1,0,0:0:0:0:
320,192,97162,1,0,0:0:0:0:
448,192,97274,1,0,0:0:0:0:
192,192,97274,1,0,0:0:0:0:
64,192,97385,1,0,0:0:0:0:
64,192,97496,1,0,0:0:0:0:
320,192,97496,1,0,0:0:0:0:
448,192,97496,1,0,0:0:0:0:
192,192,97496,1,0,0:0:0:0:
192,192,97607,1,0,0:0:0:0:
320,192,97607,1,0,0:0:0:0:
64,192,97718,1,0,0:0:0:0:
320,192,97718,1,0,0:0:0:0:
192,192,97829,1,0,0:0:0:0:
192,192,97940,1,0,0:0:0:0:
64,192,97940,1,0,0:0:0:0:
448,192,97940,1,0,0:0:0:0:
448,192,98051,1,0,0:0:0:0:
192,192,98162,1,0,0:0:0:0:
64,192,98162,1,0,0:0:0:0:
320,192,98237,1,0,0:0:0:0:
448,192,98237,1,0,0:0:0:0:
64,192,98311,1,0,0:0:0:0:
192,192,98311,1,0,0:0:0:0:
64,192,98385,1,0,0:0:0:0:
448,192,98385,1,0,0:0:0:0:
320,192,98385,1,0,0:0:0:0:
192,192,98496,1,0,0:0:0:0:
448,192,98607,5,0,0:0:0:0:
64,192,98607,1,0,0:0:0:0:
192,192,98607,1,0,0:0:0:0:
64,192,98718,1,0,0:0:0:0:
192,192,98718,1,0,0:0:0:0:
448,192,98718,1,0,0:0:0:0:
64,192,98829,1,0,0:0:0:0:
448,192,98829,1,0,0:0:0:0:
320,192,98829,1,0,0:0:0:0:
192,192,98940,1,0,0:0:0:0:
64,192,98940,1,0,0:0:0:0:
448,192,99051,1,0,0:0:0:0:
320,192,99051,1,0,0:0:0:0:
192,192,99051,1,0,0:0:0:0:
64,192,99162,1,0,0:0:0:0:
64,192,99274,1,0,0:0:0:0:
192,192,99274,1,0,0:0:0:0:
448,192,99274,1,0,0:0:0:0:
320,192,99274,1,0,0:0:0:0:
448,192,99348,1,0,0:0:0:0:
64,192,99422,1,0,0:0:0:0:
192,192,99422,1,0,0:0:0:0:
448,192,99496,1,0,0:0:0:0:
320,192,99496,1,0,0:0:0:0:
192,192,99570,1,0,0:0:0:0:
64,192,99570,1,0,0:0:0:0:
320,192,99644,1,0,0:0:0:0:
448,192,99644,1,0,0:0:0:0:
64,192,99718,1,0,0:0:0:0:
192,192,99940,1,0,0:0:0:0:
320,192,100051,1,0,0:0:0:0:
192,192,100274,1,0,0:0:0:0:
448,192,100385,1,0,0:0:0:0:
64,192,100607,1,0,0:0:0:0:
192,192,100607,1,0,0:0:0:0:
448,192,100829,1,0,0:0:0:0:
320,192,101051,1,0,0:0:0:0:
192,192,101051,1,0,0:0:0:0:
192,192,101274,1,0,0:0:0:0:
64,192,101496,1,0,0:0:0:0:
320,192,101496,1,0,0:0:0:0:
64,192,101718,1,0,0:0:0:0:
192,192,101940,1,0,0:0:0:0:
448,192,101940,1,0,0:0:0:0:
64,192,102162,1,0,0:0:0:0:
320,192,102385,1,0,0:0:0:0:
448,192,102385,1,0,0:0:0:0:
320,192,102607,1,0,0:0:0:0:
64,192,102829,1,0,0:0:0:0:
192,192,102829,1,0,0:0:0:0:
192,192,103051,1,0,0:0:0:0:
64,192,103274,1,0,0:0:0:0:
448,192,103274,1,0,0:0:0:0:
64,192,103496,1,0,0:0:0:0:
320,192,103607,1,0,0:0:0:0:
192,192,103829,1,0,0:0:0:0:
448,192,103940,1,0,0:0:0:0:
64,192,104162,1,0,0:0:0:0:
192,192,104162,1,0,0:0:0:0:
320,192,104385,1,0,0:0:0:0:
448,192,104385,1,0,0:0:0:0:
64,192,104607,1,0,0:0:0:0:
192,192,104607,1,0,0:0:0:0:
320,192,104829,1,0,0:0:0:0:
320,192,105051,1,0,0:0:0:0:
192,192,105051,1,0,0:0:0:0:
64,192,105274,1,0,0:0:0:0:
64,192,105496,1,0,0:0:0:0:
320,192,105496,1,0,0:0:0:0:
192,192,105718,1,0,0:0:0:0:
192,192,105940,1,0,0:0:0:0:
448,192,105940,1,0,0:0:0:0:
320,192,106162,1,0,0:0:0:0:
64,192,106385,1,0,0:0:0:0:
320,192,106385,1,0,0:0:0:0:
192,192,106607,1,0,0:0:0:0:
64,192,106829,1,0,0:0:0:0:
192,192,106829,1,0,0:0:0:0:
192,192,107051,1,0,0:0:0:0:
320,192,107051,1,0,0:0:0:0:
448,192,107162,1,0,0:0:0:0:
192,192,107162,1,0,0:0:0:0:
192,192,107385,1,0,0:0:0:0:
320,192,107385,1,0,0:0:0:0:
320,192,107496,1,0,0:0:0:0:
448,192,107496,1,0,0:0:0:0:
64,192,107718,1,0,0:0:0:0:
192,192,107718,1,0,0:0:0:0:
320,192,107718,1,0,0:0:0:0:
320,192,107940,1,0,0:0:0:0:
448,192,107940,1,0,0:0:0:0:
64,192,108162,1,0,0:0:0:0:
192,192,108162,1,0,0:0:0:0:
448,192,108162,1,0,0:0:0:0:
320,192,108385,1,0,0:0:0:0:
192,192,108607,1,0,0:0:0:0:
320,192,108607,1,0,0:0:0:0:
192,192,108829,1,0,0:0:0:0:
64,192,109051,1,0,0:0:0:0:
192,192,109051,1,0,0:0:0:0:
448,192,109051,1,0,0:0:0:0:
320,192,109274,1,0,0:0:0:0:
320,192,109496,1,0,0:0:0:0:
192,192,109496,1,0,0:0:0:0:
64,192,109718,1,0,0:0:0:0:
448,192,109940,1,0,0:0:0:0:
64,192,109940,1,0,0:0:0:0:
320,192,109940,1,0,0:0:0:0:
192,192,110162,1,0,0:0:0:0:
64,192,110385,1,0,0:0:0:0:
320,192,110385,1,0,0:0:0:0:
448,192,110385,1,0,0:0:0:0:
64,192,110607,1,0,0:0:0:0:
192,192,110607,1,0,0:0:0:0:
64,192,110718,1,0,0:0:0:0:
320,192,110718,1,0,0:0:0:0:
64,192,110940,1,0,0:0:0:0:
192,192,110940,1,0,0:0:0:0:
64,192,111051,1,0,0:0:0:0:
448,192,111051,1,0,0:0:0:0:
64,192,111274,1,0,0:0:0:0:
192,192,111274,1,0,0:0:0:0:
320,192,111274,1,0,0:0:0:0:
320,192,111496,1,0,0:0:0:0:
448,192,111496,1,0,0:0:0:0:
64,192,111718,1,0,0:0:0:0:
192,192,111718,1,0,0:0:0:0:
448,192,111718,1,0,0:0:0:0:
192,192,111940,1,0,0:0:0:0:
64,192,112162,1,0,0:0:0:0:
448,192,112162,1,0,0:0:0:0:
64,192,112385,5,0,0:0:0:0:
192,192,112607,1,0,0:0:0:0:
448,192,112607,1,0,0:0:0:0:
320,192,112607,1,0,0:0:0:0:
192,192,112829,1,0,0:0:0:0:
64,192,113051,1,0,0:0:0:0:
320,192,113051,1,0,0:0:0:0:
64,192,113274,1,0,0:0:0:0:
448,192,113496,1,0,0:0:0:0:
64,192,113496,1,0,0:0:0:0:
320,192,113551,1,0,0:0:0:0:
192,192,113607,1,0,0:0:0:0:
64,192,113662,1,0,0:0:0:0:
448,192,113718,1,0,0:0:0:0:
320,192,113774,1,0,0:0:0:0:
192,192,113829,1,0,0:0:0:0:
64,192,113885,1,0,0:0:0:0:
320,192,113940,1,0,0:0:0:0:
448,192,113940,1,0,0:0:0:0:
64,192,114162,1,0,0:0:0:0:
192,192,114162,1,0,0:0:0:0:
448,192,114274,1,0,0:0:0:0:
320,192,114274,1,0,0:0:0:0:
64,192,114385,1,0,0:0:0:0:
192,192,114385,1,0,0:0:0:0:
320,192,114385,1,0,0:0:0:0:
448,192,114385,1,0,0:0:0:0:
64,192,114496,1,0,0:0:0:0:
192,192,114496,1,0,0:0:0:0:
320,192,114607,1,0,0:0:0:0:
448,192,114607,1,0,0:0:0:0:
320,192,114829,1,0,0:0:0:0:
448,192,114829,1,0,0:0:0:0:
64,192,114829,1,0,0:0:0:0:
192,192,115051,1,0,0:0:0:0:
320,192,115051,1,0,0:0:0:0:
64,192,115274,1,0,0:0:0:0:
192,192,115274,1,0,0:0:0:0:
320,192,115274,1,0,0:0:0:0:
448,192,115274,1,0,0:0:0:0:
64,192,115718,1,0,0:0:0:0:
192,192,115718,1,0,0:0:0:0:
448,192,115718,1,0,0:0:0:0:
320,192,115940,1,0,0:0:0:0:
192,192,115940,1,0,0:0:0:0:
448,192,116051,1,0,0:0:0:0:
64,192,116051,1,0,0:0:0:0:
64,192,116162,1,0,0:0:0:0:
192,192,116162,1,0,0:0:0:0:
320,192,116162,1,0,0:0:0:0:
448,192,116162,1,0,0:0:0:0:
192,192,116274,1,0,0:0:0:0:
320,192,116274,1,0,0:0:0:0:
448,192,116385,1,0,0:0:0:0:
64,192,116385,1,0,0:0:0:0:
64,192,116607,1,0,0:0:0:0:
192,192,116607,1,0,0:0:0:0:
448,192,116607,1,0,0:0:0:0:
64,192,116829,1,0,0:0:0:0:
192,192,116829,1,0,0:0:0:0:
320,192,117051,1,0,0:0:0:0:
448,192,117051,1,0,0:0:0:0:
192,192,117051,1,0,0:0:0:0:
64,192,117051,1,0,0:0:0:0:
320,192,117162,1,0,0:0:0:0:
448,192,117274,1,0,0:0:0:0:
192,192,117274,1,0,0:0:0:0:
448,192,117385,1,0,0:0:0:0:
192,192,117385,1,0,0:0:0:0:
64,192,117496,1,0,0:0:0:0:
192,192,117496,1,0,0:0:0:0:
448,192,117496,1,0,0:0:0:0:
64,192,117718,1,0,0:0:0:0:
320,192,117718,1,0,0:0:0:0:
192,192,117829,1,0,0:0:0:0:
448,192,117829,1,0,0:0:0:0:
64,192,117940,1,0,0:0:0:0:
192,192,117940,1,0,0:0:0:0:
320,192,117940,1,0,0:0:0:0:
448,192,117940,1,0,0:0:0:0:
64,192,118051,1,0,0:0:0:0:
320,192,118051,1,0,0:0:0:0:
192,192,118162,1,0,0:0:0:0:
448,192,118162,1,0,0:0:0:0:
64,192,118385,1,0,0:0:0:0:
448,192,118385,1,0,0:0:0:0:
320,192,118385,1,0,0:0:0:0:
192,192,118607,1,0,0:0:0:0:
320,192,118607,1,0,0:0:0:0:
64,192,118829,1,0,0:0:0:0:
192,192,118829,1,0,0:0:0:0:
320,192,118829,1,0,0:0:0:0:
448,192,118829,1,0,0:0:0:0:
192,192,119051,1,0,0:0:0:0:
320,192,119051,1,0,0:0:0:0:
64,192,119274,1,0,0:0:0:0:
192,192,119274,1,0,0:0:0:0:
448,192,119274,1,0,0:0:0:0:
448,192,119496,1,0,0:0:0:0:
192,192,119496,1,0,0:0:0:0:
320,192,119607,1,0,0:0:0:0:
64,192,119607,1,0,0:0:0:0:
64,192,119718,1,0,0:0:0:0:
192,192,119718,1,0,0:0:0:0:
320,192,119718,1,0,0:0:0:0:
448,192,119718,1,0,0:0:0:0:
448,192,119829,1,0,0:0:0:0:
192,192,119829,1,0,0:0:0:0:
320,192,119940,1,0,0:0:0:0:
64,192,119940,1,0,0:0:0:0:
448,192,120051,1,0,0:0:0:0:
192,192,120051,1,0,0:0:0:0:
64,192,120051,1,0,0:0:0:0:
320,192,120162,1,0,0:0:0:0:
192,192,120162,1,0,0:0:0:0:
448,192,120162,1,0,0:0:0:0:
320,192,120274,1,0,0:0:0:0:
64,192,120385,1,0,0:0:0:0:
448,192,120385,1,0,0:0:0:0:
192,192,120440,1,0,0:0:0:0:
320,192,120496,1,0,0:0:0:0:
448,192,120551,1,0,0:0:0:0:
64,192,120607,1,0,0:0:0:0:
192,192,120607,1,0,0:0:0:0:
192,192,120829,1,0,0:0:0:0:
320,192,120829,1,0,0:0:0:0:
64,192,121051,1,0,0:0:0:0:
320,192,121051,1,0,0:0:0:0:
448,192,121051,1,0,0:0:0:0:
448,192,121274,1,0,0:0:0:0:
320,192,121274,1,0,0:0:0:0:
192,192,121385,1,0,0:0:0:0:
64,192,121385,1,0,0:0:0:0:
448,192,121496,1,0,0:0:0:0:
320,192,121496,1,0,0:0:0:0:
192,192,121496,1,0,0:0:0:0:
64,192,121496,1,0,0:0:0:0:
448,192,121607,1,0,0:0:0:0:
320,192,121607,1,0,0:0:0:0:
192,192,121718,1,0,0:0:0:0:
64,192,121718,1,0,0:0:0:0:
64,192,121940,1,0,0:0:0:0:
192,192,121940,1,0,0:0:0:0:
448,192,121940,1,0,0:0:0:0:
192,192,122162,1,0,0:0:0:0:
320,192,122162,1,0,0:0:0:0:
64,192,122385,1,0,0:0:0:0:
192,192,122385,1,0,0:0:0:0:
320,192,122385,1,0,0:0:0:0:
448,192,122385,1,0,0:0:0:0:
192,192,122607,1,0,0:0:0:0:
448,192,122607,1,0,0:0:0:0:
64,192,122829,1,0,0:0:0:0:
192,192,122829,1,0,0:0:0:0:
448,192,122829,1,0,0:0:0:0:
448,192,123051,1,0,0:0:0:0:
192,192,123051,1,0,0:0:0:0:
320,192,123162,1,0,0:0:0:0:
64,192,123162,1,0,0:0:0:0:
448,192,123274,1,0,0:0:0:0:
320,192,123274,1,0,0:0:0:0:
192,192,123274,1,0,0:0:0:0:
64,192,123274,1,0,0:0:0:0:
448,192,123385,1,0,0:0:0:0:
192,192,123385,1,0,0:0:0:0:
320,192,123496,1,0,0:0:0:0:
64,192,123496,1,0,0:0:0:0:
64,192,123718,1,0,0:0:0:0:
320,192,123718,1,0,0:0:0:0:
448,192,123718,1,0,0:0:0:0:
64,192,123940,1,0,0:0:0:0:
448,192,123940,1,0,0:0:0:0:
320,192,123996,1,0,0:0:0:0:
64,192,124051,1,0,0:0:0:0:
192,192,124051,1,0,0:0:0:0:
448,192,124107,1,0,0:0:0:0:
320,192,124107,1,0,0:0:0:0:
64,192,124162,1,0,0:0:0:0:
192,192,124162,1,0,0:0:0:0:
320,192,124274,1,0,0:0:0:0:
448,192,124274,1,0,0:0:0:0:
64,192,124385,1,0,0:0:0:0:
320,192,124385,1,0,0:0:0:0:
64,192,124496,1,0,0:0:0:0:
192,192,124496,1,0,0:0:0:0:
192,192,124607,1,0,0:0:0:0:
320,192,124607,1,0,0:0:0:0:
448,192,124607,1,0,0:0:0:0:
448,192,124829,1,0,0:0:0:0:
64,192,124829,1,0,0:0:0:0:
320,192,124940,1,0,0:0:0:0:
192,192,124940,1,0,0:0:0:0:
64,192,125051,1,0,0:0:0:0:
192,192,125051,1,0,0:0:0:0:
320,192,125051,1,0,0:0:0:0:
448,192,125051,1,0,0:0:0:0:
448,192,125162,1,0,0:0:0:0:
64,192,125162,1,0,0:0:0:0:
320,192,125274,1,0,0:0:0:0:
192,192,125274,1,0,0:0:0:0:
64,192,125496,1,0,0:0:0:0:
448,192,125496,1,0,0:0:0:0:
192,192,125496,1,0,0:0:0:0:
448,192,125718,1,0,0:0:0:0:
192,192,125718,1,0,0:0:0:0:
64,192,125940,1,0,0:0:0:0:
192,192,125940,1,0,0:0:0:0:
320,192,125940,1,0,0:0:0:0:
448,192,125940,1,0,0:0:0:0:
320,192,126162,1,0,0:0:0:0:
448,192,126162,1,0,0:0:0:0:
64,192,126385,1,0,0:0:0:0:
192,192,126385,1,0,0:0:0:0:
448,192,126385,1,0,0:0:0:0:
64,192,126607,1,0,0:0:0:0:
448,192,126607,1,0,0:0:0:0:
192,192,126607,1,0,0:0:0:0:
192,192,126718,1,0,0:0:0:0:
320,192,126718,1,0,0:0:0:0:
64,192,126829,1,0,0:0:0:0:
448,192,126829,1,0,0:0:0:0:
320,192,126829,1,0,0:0:0:0:
64,192,127051,1,0,0:0:0:0:
192,192,127051,1,0,0:0:0:0:
64,192,127162,1,0,0:0:0:0:
320,192,127162,1,0,0:0:0:0:
64,192,127274,1,0,0:0:0:0:
448,192,127274,1,0,0:0:0:0:
192,192,127274,1,0,0:0:0:0:
192,192,127496,1,0,0:0:0:0:
448,192,127496,1,0,0:0:0:0:
64,192,127496,1,0,0:0:0:0:
320,192,127718,1,0,0:0:0:0:
448,192,127718,1,0,0:0:0:0:
64,192,127718,1,0,0:0:0:0:
192,192,127940,1,0,0:0:0:0:
320,192,127940,1,0,0:0:0:0:
64,192,128162,1,0,0:0:0:0:
192,192,128162,1,0,0:0:0:0:
320,192,128162,128,0,128385:0:0:0:0:
448,192,128162,128,0,128385:0:0:0:0:
64,192,128607,1,0,0:0:0:0:
192,192,128607,1,0,0:0:0:0:
320,192,128607,128,0,128829:0:0:0:0:
448,192,128607,128,0,128829:0:0:0:0:
192,192,128940,1,0,0:0:0:0:
192,192,129051,1,0,0:0:0:0:
64,192,129051,1,0,0:0:0:0:
448,192,129051,1,0,0:0:0:0:
320,192,129274,128,0,129496:0:0:0:0:
64,192,129274,128,0,129496:0:0:0:0:
192,192,129496,1,0,0:0:0:0:
448,192,129496,1,0,0:0:0:0:
64,192,129718,128,0,129829:0:0:0:0:
320,192,129718,128,0,129829:0:0:0:0:
448,192,129718,1,0,0:0:0:0:
192,192,129940,128,0,130162:0:0:0:0:
448,192,129940,128,0,130162:0:0:0:0:
64,192,129940,1,0,0:0:0:0:
192,192,130385,128,0,130607:0:0:0:0:
448,192,130385,128,0,130607:0:0:0:0:
320,192,130385,1,0,0:0:0:0:
64,192,130385,1,0,0:0:0:0:
64,192,130718,1,0,0:0:0:0:
64,192,130829,1,0,0:0:0:0:
320,192,130829,1,0,0:0:0:0:
448,192,130829,1,0,0:0:0:0:
64,192,131051,128,0,131274:0:0:0:0:
192,192,131051,128,0,131274:0:0:0:0:
320,192,131274,1,0,0:0:0:0:
448,192,131274,1,0,0:0:0:0:
64,192,131496,128,0,131607:0:0:0:0:
192,192,131496,128,0,131607:0:0:0:0:
320,192,131496,1,0,0:0:0:0:
320,192,131718,128,0,131940:0:0:0:0:
448,192,131718,128,0,131940:0:0:0:0:
64,192,131718,1,0,0:0:0:0:
64,192,132162,1,0,0:0:0:0:
192,192,132162,1,0,0:0:0:0:
320,192,132162,128,0,132385:0:0:0:0:
448,192,132162,128,0,132385:0:0:0:0:
448,192,132496,1,0,0:0:0:0:
64,192,132607,1,0,0:0:0:0:
192,192,132607,1,0,0:0:0:0:
448,192,132607,1,0,0:0:0:0:
192,192,132829,128,0,133051:0:0:0:0:
64,192,132829,128,0,133051:0:0:0:0:
448,192,133051,1,0,0:0:0:0:
320,192,133051,1,0,0:0:0:0:
64,192,133274,128,0,133385:0:0:0:0:
192,192,133274,128,0,133385:0:0:0:0:
448,192,133274,1,0,0:0:0:0:
320,192,133496,128,0,133718:0:0:0:0:
448,192,133496,128,0,133718:0:0:0:0:
192,192,133496,1,0,0:0:0:0:
320,192,133940,128,0,134162:0:0:0:0:
448,192,133940,128,0,134162:0:0:0:0:
64,192,133940,1,0,0:0:0:0:
192,192,133940,1,0,0:0:0:0:
64,192,134274,1,0,0:0:0:0:
64,192,134385,1,0,0:0:0:0:
320,192,134385,1,0,0:0:0:0:
448,192,134385,1,0,0:0:0:0:
64,192,134607,128,0,134829:0:0:0:0:
320,192,134607,128,0,134829:0:0:0:0:
192,192,134829,1,0,0:0:0:0:
448,192,134829,1,0,0:0:0:0:
64,192,135051,128,0,135162:0:0:0:0:
320,192,135051,128,0,135162:0:0:0:0:
192,192,135051,1,0,0:0:0:0:
192,192,135274,128,0,135496:0:0:0:0:
448,192,135274,128,0,135496:0:0:0:0:
64,192,135274,1,0,0:0:0:0:
192,192,135718,128,0,135940:0:0:0:0:
448,192,135718,128,0,135940:0:0:0:0:
64,192,135718,1,0,0:0:0:0:
320,192,135718,1,0,0:0:0:0:
320,192,136051,1,0,0:0:0:0:
64,192,136162,1,0,0:0:0:0:
448,192,136162,1,0,0:0:0:0:
320,192,136162,1,0,0:0:0:0:
320,192,136385,128,0,136607:0:0:0:0:
192,192,136385,128,0,136607:0:0:0:0:
64,192,136607,1,0,0:0:0:0:
448,192,136607,1,0,0:0:0:0:
320,192,136829,128,0,136940:0:0:0:0:
192,192,136829,128,0,136940:0:0:0:0:
64,192,136829,1,0,0:0:0:0:
64,192,137051,128,0,137274:0:0:0:0:
448,192,137051,128,0,137274:0:0:0:0:
320,192,137051,1,0,0:0:0:0:
64,192,137496,128,0,137718:0:0:0:0:
448,192,137496,128,0,137718:0:0:0:0:
192,192,137496,1,0,0:0:0:0:
320,192,137496,1,0,0:0:0:0:
192,192,137829,1,0,0:0:0:0:
192,192,137940,1,0,0:0:0:0:
448,192,137940,1,0,0:0:0:0:
64,192,137940,1,0,0:0:0:0:
320,192,138162,128,0,138385:0:0:0:0:
448,192,138162,128,0,138385:0:0:0:0:
64,192,138385,1,0,0:0:0:0:
192,192,138385,1,0,0:0:0:0:
320,192,138607,128,0,138718:0:0:0:0:
448,192,138607,128,0,138718:0:0:0:0:
192,192,138607,1,0,0:0:0:0:
64,192,138829,128,0,139051:0:0:0:0:
192,192,138829,128,0,139051:0:0:0:0:
448,192,138829,1,0,0:0:0:0:
64,192,139274,128,0,139496:0:0:0:0:
192,192,139274,128,0,139496:0:0:0:0:
448,192,139274,1,0,0:0:0:0:
320,192,139274,1,0,0:0:0:0:
320,192,139607,1,0,0:0:0:0:
320,192,139718,1,0,0:0:0:0:
64,192,139718,1,0,0:0:0:0:
448,192,139718,1,0,0:0:0:0:
320,192,139940,128,0,140162:0:0:0:0:
192,192,139940,128,0,140162:0:0:0:0:
448,192,140162,1,0,0:0:0:0:
64,192,140162,1,0,0:0:0:0:
192,192,140385,128,0,140496:0:0:0:0:
320,192,140385,128,0,140496:0:0:0:0:
448,192,140385,1,0,0:0:0:0:
64,192,140607,1,0,0:0:0:0:
192,192,140607,1,0,0:0:0:0:
448,192,140607,128,0,140829:0:0:0:0:
320,192,140607,128,0,140829:0:0:0:0:
192,192,141051,128,0,141107:0:0:0:0:
64,192,141107,1,0,0:0:0:0:
320,192,141162,128,0,141218:0:0:0:0:
448,192,141274,128,0,141329:0:0:0:0:
192,192,141496,128,0,141718:0:0:0:0:
64,192,141496,128,0,141718:0:0:0:0:
448,192,141718,1,0,0:0:0:0:
320,192,141718,1,0,0:0:0:0:
320,192,141829,1,0,0:0:0:0:
448,192,141829,1,0,0:0:0:0:
64,192,141940,1,0,0:0:0:0:
192,192,141940,1,0,0:0:0:0:
320,192,141940,1,0,0:0:0:0:
448,192,141940,1,0,0:0:0:0:
64,192,142051,1,0,0:0:0:0:
192,192,142051,1,0,0:0:0:0:
64,192,142162,128,0,142385:0:0:0:0:
192,192,142162,128,0,142385:0:0:0:0:
448,192,142162,1,0,0:0:0:0:
320,192,142385,1,0,0:0:0:0:
448,192,142385,1,0,0:0:0:0:
192,192,142496,1,0,0:0:0:0:
64,192,142607,1,0,0:0:0:0:
320,192,142607,1,0,0:0:0:0:
448,192,142607,1,0,0:0:0:0:
320,192,142718,1,0,0:0:0:0:
192,192,142718,1,0,0:0:0:0:
64,192,142829,1,0,0:0:0:0:
192,192,142829,1,0,0:0:0:0:
448,192,142829,1,0,0:0:0:0:
320,192,142829,1,0,0:0:0:0:
64,192,142940,1,0,0:0:0:0:
192,192,143051,1,0,0:0:0:0:
448,192,143051,1,0,0:0:0:0:
320,192,143051,1,0,0:0:0:0:
448,192,143162,1,0,0:0:0:0:
64,192,143162,1,0,0:0:0:0:
192,192,143274,1,0,0:0:0:0:
320,192,143274,1,0,0:0:0:0:
64,192,143274,1,0,0:0:0:0:
192,192,143385,1,0,0:0:0:0:
64,192,143496,1,0,0:0:0:0:
320,192,143496,1,0,0:0:0:0:
448,192,143496,1,0,0:0:0:0:
192,192,143607,1,0,0:0:0:0:
64,192,143607,1,0,0:0:0:0:
64,192,143718,1,0,0:0:0:0:
192,192,143718,1,0,0:0:0:0:
448,192,143718,1,0,0:0:0:0:
320,192,143718,1,0,0:0:0:0:
320,192,143829,1,0,0:0:0:0:
64,192,143940,1,0,0:0:0:0:
192,192,143940,1,0,0:0:0:0:
448,192,143940,1,0,0:0:0:0:
320,192,144051,1,0,0:0:0:0:
192,192,144051,1,0,0:0:0:0:
64,192,144162,1,0,0:0:0:0:
320,192,144162,1,0,0:0:0:0:
448,192,144162,1,0,0:0:0:0:
448,192,144274,1,0,0:0:0:0:
64,192,144385,1,0,0:0:0:0:
320,192,144385,1,0,0:0:0:0:
192,192,144385,1,0,0:0:0:0:
192,192,144496,1,0,0:0:0:0:
448,192,144496,1,0,0:0:0:0:
448,192,144607,1,0,0:0:0:0:
320,192,144607,1,0,0:0:0:0:
64,192,144607,1,0,0:0:0:0:
192,192,144607,1,0,0:0:0:0:
320,192,144718,1,0,0:0:0:0:
64,192,144829,1,0,0:0:0:0:
192,192,144829,1,0,0:0:0:0:
448,192,144829,1,0,0:0:0:0:
320,192,144940,1,0,0:0:0:0:
64,192,144940,1,0,0:0:0:0:
192,192,145051,1,0,0:0:0:0:
448,192,145051,1,0,0:0:0:0:
320,192,145051,1,0,0:0:0:0:
192,192,145162,1,0,0:0:0:0:
64,192,145274,1,0,0:0:0:0:
320,192,145274,1,0,0:0:0:0:
448,192,145274,1,0,0:0:0:0:
64,192,145385,1,0,0:0:0:0:
192,192,145385,1,0,0:0:0:0:
64,192,145496,1,0,0:0:0:0:
192,192,145496,1,0,0:0:0:0:
320,192,145496,1,0,0:0:0:0:
448,192,145496,1,0,0:0:0:0:
320,192,145607,1,0,0:0:0:0:
448,192,145718,1,0,0:0:0:0:
64,192,145718,1,0,0:0:0:0:
192,192,145718,1,0,0:0:0:0:
192,192,145829,1,0,0:0:0:0:
320,192,145829,1,0,0:0:0:0:
64,192,145940,1,0,0:0:0:0:
320,192,145940,1,0,0:0:0:0:
448,192,145940,1,0,0:0:0:0:
64,192,146051,1,0,0:0:0:0:
192,192,146162,1,0,0:0:0:0:
320,192,146162,1,0,0:0:0:0:
448,192,146162,1,0,0:0:0:0:
448,192,146274,1,0,0:0:0:0:
64,192,146274,1,0,0:0:0:0:
64,192,146385,1,0,0:0:0:0:
192,192,146385,1,0,0:0:0:0:
448,192,146385,1,0,0:0:0:0:
320,192,146385,1,0,0:0:0:0:
320,192,146496,1,0,0:0:0:0:
64,192,146607,1,0,0:0:0:0:
192,192,146607,1,0,0:0:0:0:
448,192,146607,1,0,0:0:0:0:
64,192,146718,1,0,0:0:0:0:
320,192,146718,1,0,0:0:0:0:
192,192,146829,1,0,0:0:0:0:
320,192,146829,1,0,0:0:0:0:
448,192,146829,1,0,0:0:0:0:
448,192,146940,1,0,0:0:0:0:
64,192,147051,1,0,0:0:0:0:
192,192,147051,1,0,0:0:0:0:
320,192,147051,1,0,0:0:0:0:
448,192,147162,1,0,0:0:0:0:
320,192,147162,1,0,0:0:0:0:
64,192,147274,1,0,0:0:0:0:
192,192,147274,1,0,0:0:0:0:
448,192,147274,1,0,0:0:0:0:
320,192,147274,1,0,0:0:0:0:
192,192,147385,1,0,0:0:0:0:
64,192,147496,1,0,0:0:0:0:
320,192,147496,1,0,0:0:0:0:
448,192,147496,1,0,0:0:0:0:
192,192,147607,1,0,0:0:0:0:
448,192,147607,1,0,0:0:0:0:
64,192,147718,1,0,0:0:0:0:
320,192,147718,1,0,0:0:0:0:
192,192,147718,1,0,0:0:0:0:
320,192,147829,1,0,0:0:0:0:
192,192,147940,1,0,0:0:0:0:
448,192,147940,1,0,0:0:0:0:
64,192,147940,1,0,0:0:0:0:
64,192,148051,1,0,0:0:0:0:
320,192,148051,1,0,0:0:0:0:
64,192,148162,1,0,0:0:0:0:
192,192,148162,1,0,0:0:0:0:
320,192,148162,1,0,0:0:0:0:
448,192,148162,1,0,0:0:0:0:
448,192,148274,1,0,0:0:0:0:
64,192,148385,1,0,0:0:0:0:
320,192,148385,1,0,0:0:0:0:
192,192,148385,1,0,0:0:0:0:
192,192,148496,1,0,0:0:0:0:
448,192,148496,1,0,0:0:0:0:
64,192,148607,1,0,0:0:0:0:
320,192,148607,1,0,0:0:0:0:
448,192,148607,1,0,0:0:0:0:
64,192,148718,1,0,0:0:0:0:
448,192,148829,1,0,0:0:0:0:
320,192,148829,1,0,0:0:0:0:
192,192,148829,1,0,0:0:0:0:
64,192,148940,1,0,0:0:0:0:
192,192,148940,1,0,0:0:0:0:
64,192,149051,1,0,0:0:0:0:
192,192,149051,1,0,0:0:0:0:
320,192,149051,1,0,0:0:0:0:
448,192,149051,1,0,0:0:0:0:
320,192,149162,1,0,0:0:0:0:
64,192,149274,1,0,0:0:0:0:
448,192,149274,1,0,0:0:0:0:
192,192,149274,1,0,0:0:0:0:
320,192,149385,1,0,0:0:0:0:
192,192,149385,1,0,0:0:0:0:
64,192,149496,1,0,0:0:0:0:
448,192,149496,1,0,0:0:0:0:
320,192,149496,1,0,0:0:0:0:
64,192,149607,1,0,0:0:0:0:
192,192,149718,1,0,0:0:0:0:
320,192,149718,1,0,0:0:0:0:
448,192,149718,1,0,0:0:0:0:
64,192,149829,1,0,0:0:0:0:
448,192,149829,1,0,0:0:0:0:
64,192,149940,1,0,0:0:0:0:
192,192,149940,1,0,0:0:0:0:
320,192,149940,1,0,0:0:0:0:
448,192,149940,1,0,0:0:0:0:
192,192,150051,1,0,0:0:0:0:
64,192,150162,1,0,0:0:0:0:
320,192,150162,1,0,0:0:0:0:
448,192,150162,1,0,0:0:0:0:
192,192,150274,1,0,0:0:0:0:
320,192,150274,1,0,0:0:0:0:
64,192,150385,1,0,0:0:0:0:
448,192,150385,1,0,0:0:0:0:
192,192,150385,1,0,0:0:0:0:
64,192,150496,1,0,0:0:0:0:
192,192,150607,1,0,0:0:0:0:
320,192,150607,1,0,0:0:0:0:
448,192,150607,1,0,0:0:0:0:
64,192,150718,1,0,0:0:0:0:
192,192,150718,1,0,0:0:0:0:
448,192,150829,1,0,0:0:0:0:
320,192,150829,1,0,0:0:0:0:
192,192,150829,1,0,0:0:0:0:
64,192,150829,1,0,0:0:0:0:
320,192,150940,1,0,0:0:0:0:
64,192,151051,1,0,0:0:0:0:
192,192,151051,1,0,0:0:0:0:
448,192,151051,1,0,0:0:0:0:
192,192,151162,1,0,0:0:0:0:
320,192,151162,1,0,0:0:0:0:
64,192,151274,1,0,0:0:0:0:
320,192,151274,1,0,0:0:0:0:
448,192,151274,1,0,0:0:0:0:
448,192,151385,1,0,0:0:0:0:
192,192,151496,1,0,0:0:0:0:
320,192,151496,1,0,0:0:0:0:
64,192,151496,1,0,0:0:0:0:
448,192,151607,1,0,0:0:0:0:
192,192,151607,1,0,0:0:0:0:
64,192,151718,1,0,0:0:0:0:
192,192,151718,1,0,0:0:0:0:
320,192,151718,1,0,0:0:0:0:
448,192,151718,1,0,0:0:0:0:
320,192,151829,1,0,0:0:0:0:
64,192,151940,1,0,0:0:0:0:
192,192,151940,1,0,0:0:0:0:
448,192,151940,1,0,0:0:0:0:
320,192,152051,1,0,0:0:0:0:
192,192,152051,1,0,0:0:0:0:
64,192,152162,1,0,0:0:0:0:
448,192,152162,1,0,0:0:0:0:
320,192,152162,1,0,0:0:0:0:
64,192,152274,1,0,0:0:0:0:
192,192,152385,1,0,0:0:0:0:
320,192,152385,1,0,0:0:0:0:
448,192,152385,1,0,0:0:0:0:
192,192,152496,1,0,0:0:0:0:
64,192,152496,1,0,0:0:0:0:
64,192,152607,1,0,0:0:0:0:
192,192,152607,1,0,0:0:0:0:
320,192,152607,1,0,0:0:0:0:
448,192,152607,1,0,0:0:0:0:
320,192,152718,1,0,0:0:0:0:
192,192,152829,1,0,0:0:0:0:
448,192,152829,1,0,0:0:0:0:
64,192,152829,1,0,0:0:0:0:
320,192,152940,1,0,0:0:0:0:
192,192,152940,1,0,0:0:0:0:
64,192,153051,1,0,0:0:0:0:
320,192,153051,1,0,0:0:0:0:
448,192,153051,1,0,0:0:0:0:
64,192,153162,1,0,0:0:0:0:
192,192,153274,1,0,0:0:0:0:
320,192,153274,1,0,0:0:0:0:
448,192,153274,1,0,0:0:0:0:
64,192,153385,1,0,0:0:0:0:
320,192,153385,1,0,0:0:0:0:
64,192,153496,1,0,0:0:0:0:
192,192,153496,1,0,0:0:0:0:
448,192,153496,1,0,0:0:0:0:
320,192,153496,1,0,0:0:0:0:
192,192,153607,1,0,0:0:0:0:
64,192,153718,1,0,0:0:0:0:
320,192,153718,1,0,0:0:0:0:
448,192,153718,1,0,0:0:0:0:
192,192,153829,1,0,0:0:0:0:
320,192,153829,1,0,0:0:0:0:
64,192,153940,1,0,0:0:0:0:
448,192,153940,1,0,0:0:0:0:
192,192,153940,1,0,0:0:0:0:
448,192,154051,1,0,0:0:0:0:
320,192,154162,1,0,0:0:0:0:
192,192,154162,1,0,0:0:0:0:
64,192,154162,1,0,0:0:0:0:
448,192,154274,1,0,0:0:0:0:
320,192,154274,1,0,0:0:0:0:
320,192,154385,1,0,0:0:0:0:
448,192,154385,1,0,0:0:0:0:
192,192,154385,1,0,0:0:0:0:
64,192,154385,1,0,0:0:0:0:
192,192,154496,1,0,0:0:0:0:
64,192,154607,1,0,0:0:0:0:
320,192,154607,1,0,0:0:0:0:
448,192,154607,1,0,0:0:0:0:
448,192,154718,1,0,0:0:0:0:
192,192,154718,1,0,0:0:0:0:
64,192,154829,1,0,0:0:0:0:
192,192,154829,1,0,0:0:0:0:
320,192,154829,1,0,0:0:0:0:
320,192,154940,1,0,0:0:0:0:
64,192,155051,1,0,0:0:0:0:
192,192,155051,1,0,0:0:0:0:
448,192,155051,1,0,0:0:0:0:
320,192,155162,1,0,0:0:0:0:
192,192,155162,1,0,0:0:0:0:
192,192,155274,1,0,0:0:0:0:
320,192,155274,1,0,0:0:0:0:
448,192,155274,1,0,0:0:0:0:
64,192,155274,1,0,0:0:0:0:
448,192,155385,1,0,0:0:0:0:
64,192,155496,1,0,0:0:0:0:
192,192,155496,1,0,0:0:0:0:
320,192,155496,1,0,0:0:0:0:
448,192,155607,1,0,0:0:0:0:
64,192,155607,1,0,0:0:0:0:
192,192,155718,1,0,0:0:0:0:
320,192,155718,1,0,0:0:0:0:
448,192,155718,1,0,0:0:0:0:
192,192,155829,1,0,0:0:0:0:
64,192,155940,1,0,0:0:0:0:
320,192,155940,1,0,0:0:0:0:
448,192,155940,1,0,0:0:0:0:
320,192,156051,1,0,0:0:0:0:
448,192,156051,1,0,0:0:0:0:
448,192,156162,1,0,0:0:0:0:
320,192,156162,1,0,0:0:0:0:
64,192,156162,1,0,0:0:0:0:
192,192,156162,1,0,0:0:0:0:
192,192,156274,1,0,0:0:0:0:
64,192,156274,1,0,0:0:0:0:
64,192,156385,1,0,0:0:0:0:
192,192,156385,1,0,0:0:0:0:
448,192,156385,1,0,0:0:0:0:
320,192,156496,1,0,0:0:0:0:
448,192,156496,1,0,0:0:0:0:
64,192,156607,1,0,0:0:0:0:
192,192,156607,1,0,0:0:0:0:
320,192,156607,1,0,0:0:0:0:
448,192,156607,1,0,0:0:0:0:
192,192,156718,1,0,0:0:0:0:
64,192,156829,1,0,0:0:0:0:
320,192,156829,1,0,0:0:0:0:
448,192,156829,1,0,0:0:0:0:
192,192,156940,1,0,0:0:0:0:
320,192,156940,1,0,0:0:0:0:
64,192,157051,1,0,0:0:0:0:
192,192,157051,1,0,0:0:0:0:
320,192,157051,1,0,0:0:0:0:
448,192,157051,1,0,0:0:0:0:
64,192,157162,1,0,0:0:0:0:
192,192,157274,1,0,0:0:0:0:
320,192,157274,1,0,0:0:0:0:
448,192,157274,1,0,0:0:0:0:
448,192,157385,1,0,0:0:0:0:
64,192,157385,1,0,0:0:0:0:
64,192,157496,1,0,0:0:0:0:
192,192,157496,1,0,0:0:0:0:
320,192,157496,1,0,0:0:0:0:
192,192,157607,1,0,0:0:0:0:
64,192,157718,1,0,0:0:0:0:
320,192,157718,1,0,0:0:0:0:
448,192,157718,1,0,0:0:0:0:
64,192,157829,1,0,0:0:0:0:
192,192,157829,1,0,0:0:0:0:
64,192,157940,1,0,0:0:0:0:
192,192,157940,1,0,0:0:0:0:
320,192,157940,1,0,0:0:0:0:
448,192,157940,1,0,0:0:0:0:
320,192,158051,1,0,0:0:0:0:
64,192,158162,1,0,0:0:0:0:
192,192,158162,1,0,0:0:0:0:
448,192,158162,1,0,0:0:0:0:
64,192,158274,1,0,0:0:0:0:
320,192,158274,1,0,0:0:0:0:
320,192,158385,1,0,0:0:0:0:
448,192,158385,1,0,0:0:0:0:
192,192,158385,1,0,0:0:0:0:
192,192,158496,1,0,0:0:0:0:
320,192,158607,1,0,0:0:0:0:
448,192,158607,1,0,0:0:0:0:
64,192,158607,1,0,0:0:0:0:
320,192,158718,1,0,0:0:0:0:
192,192,158718,1,0,0:0:0:0:
64,192,158829,1,0,0:0:0:0:
192,192,158829,1,0,0:0:0:0:
320,192,158829,1,0,0:0:0:0:
448,192,158829,1,0,0:0:0:0:
448,192,158940,1,0,0:0:0:0:
64,192,159051,1,0,0:0:0:0:
192,192,159051,1,0,0:0:0:0:
320,192,159051,1,0,0:0:0:0:
192,192,159162,1,0,0:0:0:0:
448,192,159162,1,0,0:0:0:0:
448,192,159274,1,0,0:0:0:0:
64,192,159274,1,0,0:0:0:0:
320,192,159274,1,0,0:0:0:0:
64,192,159385,1,0,0:0:0:0:
192,192,159496,1,0,0:0:0:0:
448,192,159496,1,0,0:0:0:0:
320,192,159496,1,0,0:0:0:0:
64,192,159607,1,0,0:0:0:0:
192,192,159607,1,0,0:0:0:0:
64,192,159718,1,0,0:0:0:0:
192,192,159718,1,0,0:0:0:0:
320,192,159718,1,0,0:0:0:0:
448,192,159718,1,0,0:0:0:0:
320,192,159829,1,0,0:0:0:0:
64,192,159940,1,0,0:0:0:0:
192,192,159940,1,0,0:0:0:0:
448,192,159940,1,0,0:0:0:0:
192,192,160051,1,0,0:0:0:0:
320,192,160051,1,0,0:0:0:0:
64,192,160162,1,0,0:0:0:0:
320,192,160162,1,0,0:0:0:0:
448,192,160162,1,0,0:0:0:0:
64,192,160274,1,0,0:0:0:0:
448,192,160385,1,0,0:0:0:0:
192,192,160385,1,0,0:0:0:0:
320,192,160385,1,0,0:0:0:0:
64,192,160496,1,0,0:0:0:0:
320,192,160496,1,0,0:0:0:0:
64,192,160607,1,0,0:0:0:0:
192,192,160607,1,0,0:0:0:0:
448,192,160607,1,0,0:0:0:0:
320,192,160607,1,0,0:0:0:0:
192,192,160718,1,0,0:0:0:0:
64,192,160829,1,0,0:0:0:0:
320,192,160829,1,0,0:0:0:0:
448,192,160829,1,0,0:0:0:0:
192,192,160940,1,0,0:0:0:0:
448,192,160940,1,0,0:0:0:0:
64,192,161051,1,0,0:0:0:0:
192,192,161051,1,0,0:0:0:0:
320,192,161051,1,0,0:0:0:0:
320,192,161162,1,0,0:0:0:0:
64,192,161274,1,0,0:0:0:0:
192,192,161274,1,0,0:0:0:0:
448,192,161274,1,0,0:0:0:0:
320,192,161385,1,0,0:0:0:0:
448,192,161385,1,0,0:0:0:0:
64,192,161496,1,0,0:0:0:0:
192,192,161496,1,0,0:0:0:0:
320,192,161496,1,0,0:0:0:0:
448,192,161496,1,0,0:0:0:0:
64,192,161607,1,0,0:0:0:0:
192,192,161718,1,0,0:0:0:0:
320,192,161718,1,0,0:0:0:0:
448,192,161718,1,0,0:0:0:0:
64,192,161829,1,0,0:0:0:0:
320,192,161829,1,0,0:0:0:0:
64,192,161940,1,0,0:0:0:0:
192,192,161940,1,0,0:0:0:0:
448,192,161940,1,0,0:0:0:0:
192,192,162051,1,0,0:0:0:0:
64,192,162162,1,0,0:0:0:0:
320,192,162162,1,0,0:0:0:0:
448,192,162162,1,0,0:0:0:0:
192,192,162274,1,0,0:0:0:0:
320,192,162274,1,0,0:0:0:0:
64,192,162385,1,0,0:0:0:0:
192,192,162385,1,0,0:0:0:0:
448,192,162385,1,0,0:0:0:0:
320,192,162385,1,0,0:0:0:0:
64,192,162496,1,0,0:0:0:0:
192,192,162607,1,0,0:0:0:0:
320,192,162607,1,0,0:0:0:0:
448,192,162607,1,0,0:0:0:0:
64,192,162718,1,0,0:0:0:0:
320,192,162718,1,0,0:0:0:0:
64,192,162829,1,0,0:0:0:0:
192,192,162829,1,0,0:0:0:0:
448,192,162829,1,0,0:0:0:0:
192,192,162940,1,0,0:0:0:0:
320,192,163051,1,0,0:0:0:0:
448,192,163051,1,0,0:0:0:0:
64,192,163051,1,0,0:0:0:0:
64,192,163162,1,0,0:0:0:0:
192,192,163162,1,0,0:0:0:0:
64,192,163274,1,0,0:0:0:0:
192,192,163274,1,0,0:0:0:0:
320,192,163274,1,0,0:0:0:0:
448,192,163274,1,0,0:0:0:0:
448,192,163385,1,0,0:0:0:0:
64,192,163496,1,0,0:0:0:0:
192,192,163496,1,0,0:0:0:0:
320,192,163496,1,0,0:0:0:0:
192,192,163607,1,0,0:0:0:0:
448,192,163607,1,0,0:0:0:0:
320,192,163718,1,0,0:0:0:0:
448,192,163718,1,0,0:0:0:0:
64,192,163718,1,0,0:0:0:0:
64,192,163829,1,0,0:0:0:0:
192,192,163940,1,0,0:0:0:0:
320,192,163940,1,0,0:0:0:0:
448,192,163940,1,0,0:0:0:0:
64,192,164051,1,0,0:0:0:0:
448,192,164051,1,0,0:0:0:0:
64,192,164162,1,0,0:0:0:0:
192,192,164162,1,0,0:0:0:0:
320,192,164162,1,0,0:0:0:0:
448,192,164162,1,0,0:0:0:0:
192,192,164274,1,0,0:0:0:0:
64,192,164385,1,0,0:0:0:0:
448,192,164385,1,0,0:0:0:0:
320,192,164385,1,0,0:0:0:0:
192,192,164496,1,0,0:0:0:0:
320,192,164496,1,0,0:0:0:0:
64,192,164607,1,0,0:0:0:0:
192,192,164607,1,0,0:0:0:0:
448,192,164607,1,0,0:0:0:0:
448,192,164718,1,0,0:0:0:0:
64,192,164829,1,0,0:0:0:0:
192,192,164829,1,0,0:0:0:0:
320,192,164829,1,0,0:0:0:0:
320,192,164940,1,0,0:0:0:0:
448,192,164940,1,0,0:0:0:0:
64,192,165051,1,0,0:0:0:0:
192,192,165051,1,0,0:0:0:0:
320,192,165051,1,0,0:0:0:0:
448,192,165051,1,0,0:0:0:0:
192,192,165162,1,0,0:0:0:0:
64,192,165274,1,0,0:0:0:0:
320,192,165274,1,0,0:0:0:0:
448,192,165274,1,0,0:0:0:0:
448,192,165385,1,0,0:0:0:0:
192,192,165385,1,0,0:0:0:0:
64,192,165496,1,0,0:0:0:0:
192,192,165496,1,0,0:0:0:0:
320,192,165496,1,0,0:0:0:0:
64,192,165607,1,0,0:0:0:0:
192,192,165718,1,0,0:0:0:0:
448,192,165718,1,0,0:0:0:0:
320,192,165718,1,0,0:0:0:0:
64,192,165829,1,0,0:0:0:0:
448,192,165829,1,0,0:0:0:0:
64,192,165940,1,0,0:0:0:0:
320,192,165940,1,0,0:0:0:0:
448,192,165940,1,0,0:0:0:0:
192,192,165940,1,0,0:0:0:0:
192,192,166051,1,0,0:0:0:0:
64,192,166162,1,0,0:0:0:0:
320,192,166162,1,0,0:0:0:0:
448,192,166162,1,0,0:0:0:0:
192,192,166274,1,0,0:0:0:0:
448,192,166274,1,0,0:0:0:0:
64,192,166385,1,0,0:0:0:0:
192,192,166385,1,0,0:0:0:0:
320,192,166385,1,0,0:0:0:0:
64,192,166496,1,0,0:0:0:0:
448,192,166607,1,0,0:0:0:0:
320,192,166607,1,0,0:0:0:0:
192,192,166607,1,0,0:0:0:0:
64,192,166718,1,0,0:0:0:0:
192,192,166718,1,0,0:0:0:0:
64,192,166829,1,0,0:0:0:0:
192,192,166829,1,0,0:0:0:0:
320,192,166829,1,0,0:0:0:0:
448,192,166829,1,0,0:0:0:0:
320,192,166940,1,0,0:0:0:0:
64,192,167051,1,0,0:0:0:0:
192,192,167051,1,0,0:0:0:0:
448,192,167051,1,0,0:0:0:0:
320,192,167162,1,0,0:0:0:0:
64,192,167162,1,0,0:0:0:0:
192,192,167274,1,0,0:0:0:0:
320,192,167274,1,0,0:0:0:0:
448,192,167274,1,0,0:0:0:0:
192,192,167385,1,0,0:0:0:0:
64,192,167496,1,0,0:0:0:0:
320,192,167496,1,0,0:0:0:0:
448,192,167496,1,0,0:0:0:0:
448,192,167607,1,0,0:0:0:0:
192,192,167607,1,0,0:0:0:0:
64,192,167718,1,0,0:0:0:0:
192,192,167718,1,0,0:0:0:0:
320,192,167718,1,0,0:0:0:0:
448,192,167718,1,0,0:0:0:0:
320,192,167829,1,0,0:0:0:0:
448,192,167940,1,0,0:0:0:0:
64,192,167940,1,0,0:0:0:0:
192,192,167940,1,0,0:0:0:0:
448,192,168051,1,0,0:0:0:0:
64,192,168051,1,0,0:0:0:0:
320,192,168162,1,0,0:0:0:0:
64,192,168162,1,0,0:0:0:0:
192,192,168162,1,0,0:0:0:0:
320,192,168274,1,0,0:0:0:0:
64,192,168385,1,0,0:0:0:0:
192,192,168385,1,0,0:0:0:0:
448,192,168385,1,0,0:0:0:0:
320,192,168496,1,0,0:0:0:0:
448,192,168496,1,0,0:0:0:0:
64,192,168607,1,0,0:0:0:0:
192,192,168607,1,0,0:0:0:0:
320,192,168607,1,0,0:0:0:0:
448,192,168607,1,0,0:0:0:0:
192,192,168718,1,0,0:0:0:0:
64,192,168829,5,0,0:0:0:0:
320,192,168829,1,0,0:0:0:0:
448,192,168829,1,0,0:0:0:0:
320,192,168940,1,0,0:0:0:0:
192,192,168940,1,0,0:0:0:0:
448,192,169051,1,0,0:0:0:0:
64,192,169051,1,0,0:0:0:0:
192,192,169051,1,0,0:0:0:0:
64,192,169162,1,0,0:0:0:0:
192,192,169274,1,0,0:0:0:0:
320,192,169274,1,0,0:0:0:0:
448,192,169274,1,0,0:0:0:0:
64,192,169385,1,0,0:0:0:0:
320,192,169385,1,0,0:0:0:0:
64,192,169496,5,0,0:0:0:0:
192,192,169496,1,0,0:0:0:0:
320,192,169496,1,0,0:0:0:0:
448,192,169496,1,0,0:0:0:0:
192,192,169607,1,0,0:0:0:0:
64,192,169718,5,0,0:0:0:0:
448,192,169718,1,0,0:0:0:0:
320,192,169718,1,0,0:0:0:0:
448,192,169829,1,0,0:0:0:0:
192,192,169829,1,0,0:0:0:0:
64,192,169940,5,0,0:0:0:0:
320,192,169940,1,0,0:0:0:0:
192,192,169940,1,0,0:0:0:0:
320,192,170051,1,0,0:0:0:0:
64,192,170162,5,0,0:0:0:0:
192,192,170162,1,0,0:0:0:0:
448,192,170162,1,0,0:0:0:0:
192,192,170274,1,0,0:0:0:0:
448,192,170274,1,0,0:0:0:0:
64,192,170274,1,0,0:0:0:0:
64,192,170385,1,0,0:0:0:0:
192,192,170385,1,0,0:0:0:0:
320,192,170385,1,0,0:0:0:0:
448,192,170385,1,0,0:0:0:0:
64,192,170496,1,0,0:0:0:0:
320,192,170496,1,0,0:0:0:0:
448,192,170496,1,0,0:0:0:0:
448,192,170607,1,0,0:0:0:0:
320,192,170607,1,0,0:0:0:0:
64,192,170607,1,0,0:0:0:0:
320,192,170718,1,0,0:0:0:0:
192,192,170718,1,0,0:0:0:0:
64,192,170829,5,0,0:0:0:0:
192,192,170829,1,0,0:0:0:0:
320,192,170829,1,0,0:0:0:0:
448,192,170829,1,0,0:0:0:0:
64,192,171051,1,0,0:0:0:0:
320,192,171051,1,0,0:0:0:0:
448,192,171162,1,0,0:0:0:0:
64,192,171162,1,0,0:0:0:0:
192,192,171274,1,0,0:0:0:0:
320,192,171274,1,0,0:0:0:0:
64,192,171274,1,0,0:0:0:0:
448,192,171274,1,0,0:0:0:0:
64,192,171496,1,0,0:0:0:0:
320,192,171496,1,0,0:0:0:0:
448,192,171607,1,0,0:0:0:0:
320,192,171607,1,0,0:0:0:0:
64,192,171718,1,0,0:0:0:0:
192,192,171718,1,0,0:0:0:0:
320,192,171718,1,0,0:0:0:0:
192,192,171940,1,0,0:0:0:0:
448,192,171940,1,0,0:0:0:0:
64,192,172051,1,0,0:0:0:0:
192,192,172051,1,0,0:0:0:0:
448,192,172162,1,0,0:0:0:0:
192,192,172162,1,0,0:0:0:0:
320,192,172162,1,0,0:0:0:0:
64,192,172162,1,0,0:0:0:0:
448,192,172385,1,0,0:0:0:0:
64,192,172385,1,0,0:0:0:0:
448,192,172496,1,0,0:0:0:0:
192,192,172496,1,0,0:0:0:0:
448,192,172607,1,0,0:0:0:0:
320,192,172607,1,0,0:0:0:0:
64,192,172607,1,0,0:0:0:0:
64,192,172829,1,0,0:0:0:0:
192,192,172829,1,0,0:0:0:0:
320,192,172940,1,0,0:0:0:0:
64,192,172940,1,0,0:0:0:0:
320,192,173051,1,0,0:0:0:0:
64,192,173051,1,0,0:0:0:0:
192,192,173051,1,0,0:0:0:0:
448,192,173051,1,0,0:0:0:0:
192,192,173274,1,0,0:0:0:0:
448,192,173274,1,0,0:0:0:0:
320,192,173385,1,0,0:0:0:0:
192,192,173385,1,0,0:0:0:0:
448,192,173496,1,0,0:0:0:0:
64,192,173496,1,0,0:0:0:0:
192,192,173496,1,0,0:0:0:0:
64,192,173718,1,0,0:0:0:0:
320,192,173718,1,0,0:0:0:0:
320,192,173829,1,0,0:0:0:0:
192,192,173829,1,0,0:0:0:0:
320,192,173940,1,0,0:0:0:0:
192,192,173940,1,0,0:0:0:0:
64,192,173940,1,0,0:0:0:0:
448,192,173940,1,0,0:0:0:0:
64,192,174162,1,0,0:0:0:0:
192,192,174162,1,0,0:0:0:0:
64,192,174274,1,0,0:0:0:0:
320,192,174274,1,0,0:0:0:0:
448,192,174385,1,0,0:0:0:0:
64,192,174385,1,0,0:0:0:0:
192,192,174385,1,0,0:0:0:0:
64,192,174607,1,0,0:0:0:0:
320,192,174607,1,0,0:0:0:0:
320,192,174718,1,0,0:0:0:0:
192,192,174718,1,0,0:0:0:0:
448,192,174829,1,0,0:0:0:0:
320,192,174829,1,0,0:0:0:0:
192,192,174829,1,0,0:0:0:0:
64,192,174829,1,0,0:0:0:0:
448,192,175051,1,0,0:0:0:0:
192,192,175051,1,0,0:0:0:0:
192,192,175162,1,0,0:0:0:0:
320,192,175162,1,0,0:0:0:0:
448,192,175274,1,0,0:0:0:0:
192,192,175274,1,0,0:0:0:0:
64,192,175274,1,0,0:0:0:0:
448,192,175496,1,0,0:0:0:0:
192,192,175496,1,0,0:0:0:0:
448,192,175607,1,0,0:0:0:0:
320,192,175607,1,0,0:0:0:0:
64,192,175718,1,0,0:0:0:0:
448,192,175718,1,0,0:0:0:0:
192,192,175718,1,0,0:0:0:0:
320,192,175718,1,0,0:0:0:0:
192,192,175940,1,0,0:0:0:0:
448,192,175940,1,0,0:0:0:0:
192,192,176051,1,0,0:0:0:0:
320,192,176051,1,0,0:0:0:0:
64,192,176162,1,0,0:0:0:0:
448,192,176162,1,0,0:0:0:0:
192,192,176162,1,0,0:0:0:0:
320,192,176385,1,0,0:0:0:0:
448,192,176385,1,0,0:0:0:0:
192,192,176496,1,0,0:0:0:0:
448,192,176496,1,0,0:0:0:0:
64,192,176607,1,0,0:0:0:0:
448,192,176607,1,0,0:0:0:0:
320,192,176607,1,0,0:0:0:0:
192,192,176607,1,0,0:0:0:0:
192,192,176829,1,0,0:0:0:0:
448,192,176829,1,0,0:0:0:0:
448,192,176940,1,0,0:0:0:0:
64,192,176940,1,0,0:0:0:0:
192,192,177051,1,0,0:0:0:0:
448,192,177051,1,0,0:0:0:0:
320,192,177051,1,0,0:0:0:0:
64,192,177274,1,0,0:0:0:0:
320,192,177274,1,0,0:0:0:0:
448,192,177385,1,0,0:0:0:0:
64,192,177385,1,0,0:0:0:0:
320,192,177496,1,0,0:0:0:0:
64,192,177496,1,0,0:0:0:0:
448,192,177496,1,0,0:0:0:0:
192,192,177496,1,0,0:0:0:0:
320,192,177718,1,0,0:0:0:0:
448,192,177718,1,0,0:0:0:0:
320,192,177829,1,0,0:0:0:0:
192,192,177829,1,0,0:0:0:0:
64,192,177940,1,0,0:0:0:0:
448,192,177940,1,0,0:0:0:0:
320,192,177940,1,0,0:0:0:0:
448,192,178162,1,0,0:0:0:0:
64,192,178162,1,0,0:0:0:0:
64,192,178274,1,0,0:0:0:0:
320,192,178274,1,0,0:0:0:0:
448,192,178385,1,0,0:0:0:0:
320,192,178385,1,0,0:0:0:0:
192,192,178385,1,0,0:0:0:0:
64,192,178385,1,0,0:0:0:0:
64,192,178607,1,0,0:0:0:0:
320,192,178607,1,0,0:0:0:0:
320,192,178718,1,0,0:0:0:0:
192,192,178718,1,0,0:0:0:0:
320,192,178829,1,0,0:0:0:0:
448,192,178829,1,0,0:0:0:0:
64,192,178829,1,0,0:0:0:0:
192,192,179051,1,0,0:0:0:0:
448,192,179051,1,0,0:0:0:0:
192,192,179162,1,0,0:0:0:0:
320,192,179162,1,0,0:0:0:0:
64,192,179274,1,0,0:0:0:0:
448,192,179274,1,0,0:0:0:0:
192,192,179274,1,0,0:0:0:0:
320,192,179274,1,0,0:0:0:0:
448,192,179496,1,0,0:0:0:0:
64,192,179496,1,0,0:0:0:0:
192,192,179607,1,0,0:0:0:0:
64,192,179607,1,0,0:0:0:0:
320,192,179718,1,0,0:0:0:0:
64,192,179718,1,0,0:0:0:0:
448,192,179718,1,0,0:0:0:0:
192,192,179940,1,0,0:0:0:0:
64,192,179940,1,0,0:0:0:0:
64,192,180051,1,0,0:0:0:0:
320,192,180051,1,0,0:0:0:0:
320,192,180162,1,0,0:0:0:0:
448,192,180162,1,0,0:0:0:0:
64,192,180162,1,0,0:0:0:0:
192,192,180162,1,0,0:0:0:0:
448,192,180385,1,0,0:0:0:0:
64,192,180385,1,0,0:0:0:0:
320,192,180496,1,0,0:0:0:0:
448,192,180496,1,0,0:0:0:0:
64,192,180607,1,0,0:0:0:0:
192,192,180607,1,0,0:0:0:0:
448,192,180607,1,0,0:0:0:0:
192,192,180829,1,0,0:0:0:0:
64,192,180829,1,0,0:0:0:0:
320,192,180940,1,0,0:0:0:0:
64,192,180940,1,0,0:0:0:0:
448,192,181051,1,0,0:0:0:0:
192,192,181051,1,0,0:0:0:0:
320,192,181051,1,0,0:0:0:0:
64,192,181051,1,0,0:0:0:0:
192,192,181274,1,0,0:0:0:0:
320,192,181274,1,0,0:0:0:0:
64,192,181385,1,0,0:0:0:0:
320,192,181385,1,0,0:0:0:0:
448,192,181496,1,0,0:0:0:0:
320,192,181496,1,0,0:0:0:0:
192,192,181496,1,0,0:0:0:0:
448,192,181718,1,0,0:0:0:0:
192,192,181718,1,0,0:0:0:0:
64,192,181829,1,0,0:0:0:0:
448,192,181829,1,0,0:0:0:0:
320,192,181940,1,0,0:0:0:0:
192,192,181940,1,0,0:0:0:0:
448,192,181940,1,0,0:0:0:0:
64,192,181940,1,0,0:0:0:0:
448,192,182162,1,0,0:0:0:0:
64,192,182162,1,0,0:0:0:0:
64,192,182274,1,0,0:0:0:0:
320,192,182274,1,0,0:0:0:0:
64,192,182385,1,0,0:0:0:0:
192,192,182385,1,0,0:0:0:0:
448,192,182385,1,0,0:0:0:0:
64,192,182607,1,0,0:0:0:0:
320,192,182607,1,0,0:0:0:0:
320,192,182718,1,0,0:0:0:0:
192,192,182718,1,0,0:0:0:0:
448,192,182829,1,0,0:0:0:0:
192,192,182829,1,0,0:0:0:0:
320,192,182829,1,0,0:0:0:0:
64,192,182829,1,0,0:0:0:0:
192,192,183051,1,0,0:0:0:0:
448,192,183051,1,0,0:0:0:0:
320,192,183162,1,0,0:0:0:0:
448,192,183162,1,0,0:0:0:0:
64,192,183274,1,0,0:0:0:0:
192,192,183274,1,0,0:0:0:0:
448,192,183274,1,0,0:0:0:0:
320,192,183496,1,0,0:0:0:0:
192,192,183496,1,0,0:0:0:0:
448,192,183607,1,0,0:0:0:0:
192,192,183607,1,0,0:0:0:0:
64,192,183718,1,0,0:0:0:0:
320,192,183718,1,0,0:0:0:0:
448,192,183718,1,0,0:0:0:0:
192,192,183718,1,0,0:0:0:0:
320,192,183940,5,0,0:0:0:0:
64,192,183940,1,0,0:0:0:0:
192,192,184051,1,0,0:0:0:0:
64,192,184051,1,0,0:0:0:0:
448,192,184162,1,0,0:0:0:0:
64,192,184162,1,0,0:0:0:0:
320,192,184162,1,0,0:0:0:0:
192,192,184385,1,0,0:0:0:0:
448,192,184385,1,0,0:0:0:0:
192,192,184496,1,0,0:0:0:0:
320,192,184496,1,0,0:0:0:0:
192,192,184607,1,0,0:0:0:0:
320,192,184607,1,0,0:0:0:0:
448,192,184607,1,0,0:0:0:0:
64,192,184607,1,0,0:0:0:0:
64,192,184829,1,0,0:0:0:0:
448,192,184829,1,0,0:0:0:0:
320,192,184829,1,0,0:0:0:0:
64,192,184940,1,0,0:0:0:0:
448,192,184940,1,0,0:0:0:0:
320,192,184940,1,0,0:0:0:0:
192,192,185051,1,0,0:0:0:0:
448,192,185051,1,0,0:0:0:0:
320,192,185051,1,0,0:0:0:0:
64,192,185051,1,0,0:0:0:0:
64,192,185274,1,0,0:0:0:0:
448,192,185274,1,0,0:0:0:0:
192,192,185385,1,0,0:0:0:0:
320,192,185385,1,0,0:0:0:0:
64,192,185496,1,0,0:0:0:0:
192,192,185496,1,0,0:0:0:0:
320,192,185496,1,0,0:0:0:0:
448,192,185496,1,0,0:0:0:0:
448,192,185718,1,0,0:0:0:0:
192,192,185718,1,0,0:0:0:0:
64,192,185829,1,0,0:0:0:0:
320,192,185829,1,0,0:0:0:0:
448,192,185940,1,0,0:0:0:0:
192,192,185940,1,0,0:0:0:0:
64,192,185940,1,0,0:0:0:0:
192,192,186162,1,0,0:0:0:0:
64,192,186162,1,0,0:0:0:0:
320,192,186274,1,0,0:0:0:0:
448,192,186274,1,0,0:0:0:0:
64,192,186385,1,0,0:0:0:0:
192,192,186385,1,0,0:0:0:0:
320,192,186385,1,0,0:0:0:0:
448,192,186385,1,0,0:0:0:0:
64,192,186607,1,0,0:0:0:0:
320,192,186607,1,0,0:0:0:0:
192,192,186718,1,0,0:0:0:0:
448,192,186718,1,0,0:0:0:0:
64,192,186829,1,0,0:0:0:0:
320,192,186829,1,0,0:0:0:0:
448,192,186829,1,0,0:0:0:0:
448,192,187051,1,0,0:0:0:0:
320,192,187051,1,0,0:0:0:0:
64,192,187162,1,0,0:0:0:0:
192,192,187162,1,0,0:0:0:0:
64,192,187274,1,0,0:0:0:0:
192,192,187274,1,0,0:0:0:0:
320,192,187274,1,0,0:0:0:0:
448,192,187274,1,0,0:0:0:0:
64,192,187496,1,0,0:0:0:0:
448,192,187496,1,0,0:0:0:0:
192,192,187607,1,0,0:0:0:0:
320,192,187607,1,0,0:0:0:0:
64,192,187718,1,0,0:0:0:0:
192,192,187718,1,0,0:0:0:0:
448,192,187718,1,0,0:0:0:0:
64,192,187940,1,0,0:0:0:0:
320,192,187940,1,0,0:0:0:0:
192,192,188051,1,0,0:0:0:0:
448,192,188051,1,0,0:0:0:0:
64,192,188162,1,0,0:0:0:0:
192,192,188162,1,0,0:0:0:0:
320,192,188162,1,0,0:0:0:0:
448,192,188162,1,0,0:0:0:0:
448,192,188385,1,0,0:0:0:0:
192,192,188385,1,0,0:0:0:0:
64,192,188496,1,0,0:0:0:0:
320,192,188496,1,0,0:0:0:0:
192,192,188607,1,0,0:0:0:0:
320,192,188607,1,0,0:0:0:0:
448,192,188607,1,0,0:0:0:0:
192,192,188829,1,0,0:0:0:0:
320,192,188829,1,0,0:0:0:0:
64,192,188940,1,0,0:0:0:0:
448,192,188940,1,0,0:0:0:0:
64,192,189051,1,0,0:0:0:0:
192,192,189051,1,0,0:0:0:0:
320,192,189051,1,0,0:0:0:0:
448,192,189051,1,0,0:0:0:0:
320,192,189274,1,0,0:0:0:0:
448,192,189274,1,0,0:0:0:0:
64,192,189385,1,0,0:0:0:0:
192,192,189385,1,0,0:0:0:0:
64,192,189496,1,0,0:0:0:0:
320,192,189496,1,0,0:0:0:0:
448,192,189496,1,0,0:0:0:0:
64,192,189718,1,0,0:0:0:0:
448,192,189718,1,0,0:0:0:0:
320,192,189829,1,0,0:0:0:0:
192,192,189829,1,0,0:0:0:0:
64,192,189940,1,0,0:0:0:0:
192,192,189940,1,0,0:0:0:0:
448,192,189940,1,0,0:0:0:0:
320,192,189940,1,0,0:0:0:0:
192,192,190162,1,0,0:0:0:0:
448,192,190162,1,0,0:0:0:0:
64,192,190274,1,0,0:0:0:0:
320,192,190274,1,0,0:0:0:0:
192,192,190385,1,0,0:0:0:0:
320,192,190385,1,0,0:0:0:0:
448,192,190385,1,0,0:0:0:0:
320,192,190607,1,0,0:0:0:0:
448,192,190607,1,0,0:0:0:0:
64,192,190718,1,0,0:0:0:0:
192,192,190718,1,0,0:0:0:0:
64,192,190829,1,0,0:0:0:0:
192,192,190829,1,0,0:0:0:0:
320,192,190829,1,0,0:0:0:0:
448,192,190829,1,0,0:0:0:0:
64,192,191051,1,0,0:0:0:0:
448,192,191051,1,0,0:0:0:0:
192,192,191162,1,0,0:0:0:0:
320,192,191162,1,0,0:0:0:0:
64,192,191274,1,0,0:0:0:0:
192,192,191274,1,0,0:0:0:0:
448,192,191274,1,0,0:0:0:0:
64,192,191496,1,0,0:0:0:0:
320,192,191496,1,0,0:0:0:0:
192,192,191607,1,0,0:0:0:0:
448,192,191607,1,0,0:0:0:0:
64,192,191718,1,0,0:0:0:0:
192,192,191718,1,0,0:0:0:0:
320,192,191718,1,0,0:0:0:0:
448,192,191718,1,0,0:0:0:0:
320,192,191940,1,0,0:0:0:0:
448,192,191940,1,0,0:0:0:0:
64,192,192051,1,0,0:0:0:0:
192,192,192051,1,0,0:0:0:0:
64,192,192162,1,0,0:0:0:0:
320,192,192162,1,0,0:0:0:0:
448,192,192162,1,0,0:0:0:0:
64,192,192385,1,0,0:0:0:0:
192,192,192385,1,0,0:0:0:0:
320,192,192496,1,0,0:0:0:0:
448,192,192496,1,0,0:0:0:0:
64,192,192607,1,0,0:0:0:0:
320,192,192607,1,0,0:0:0:0:
448,192,192607,1,0,0:0:0:0:
192,192,192607,1,0,0:0:0:0:
192,192,192829,1,0,0:0:0:0:
448,192,192829,1,0,0:0:0:0:
64,192,192940,1,0,0:0:0:0:
320,192,192940,1,0,0:0:0:0:
64,192,193051,1,0,0:0:0:0:
192,192,193051,1,0,0:0:0:0:
448,192,193051,1,0,0:0:0:0:
64,192,193274,1,0,0:0:0:0:
320,192,193274,1,0,0:0:0:0:
192,192,193385,1,0,0:0:0:0:
448,192,193385,1,0,0:0:0:0:
320,192,193496,1,0,0:0:0:0:
448,192,193496,1,0,0:0:0:0:
64,192,193496,1,0,0:0:0:0:
192,192,193496,1,0,0:0:0:0:
320,192,193718,1,0,0:0:0:0:
448,192,193718,1,0,0:0:0:0:
64,192,193829,1,0,0:0:0:0:
192,192,193829,1,0,0:0:0:0:
64,192,193940,1,0,0:0:0:0:
320,192,193940,1,0,0:0:0:0:
448,192,193940,1,0,0:0:0:0:
64,192,194162,1,0,0:0:0:0:
448,192,194162,1,0,0:0:0:0:
320,192,194274,1,0,0:0:0:0:
192,192,194274,1,0,0:0:0:0:
64,192,194385,1,0,0:0:0:0:
192,192,194385,1,0,0:0:0:0:
448,192,194385,1,0,0:0:0:0:
320,192,194385,1,0,0:0:0:0:
64,192,194607,1,0,0:0:0:0:
320,192,194607,1,0,0:0:0:0:
192,192,194718,1,0,0:0:0:0:
448,192,194718,1,0,0:0:0:0:
64,192,194829,1,0,0:0:0:0:
320,192,194829,1,0,0:0:0:0:
448,192,194829,1,0,0:0:0:0:
320,192,195051,1,0,0:0:0:0:
192,192,195051,1,0,0:0:0:0:
64,192,195162,1,0,0:0:0:0:
448,192,195162,1,0,0:0:0:0:
192,192,195274,1,0,0:0:0:0:
320,192,195274,1,0,0:0:0:0:
448,192,195274,1,0,0:0:0:0:
64,192,195274,1,0,0:0:0:0:
320,192,195496,1,0,0:0:0:0:
64,192,195496,1,0,0:0:0:0:
192,192,195607,1,0,0:0:0:0:
448,192,195607,1,0,0:0:0:0:
64,192,195718,1,0,0:0:0:0:
320,192,195718,1,0,0:0:0:0:
448,192,195718,1,0,0:0:0:0:
448,192,195940,1,0,0:0:0:0:
320,192,195940,1,0,0:0:0:0:
64,192,196051,1,0,0:0:0:0:
192,192,196051,1,0,0:0:0:0:
64,192,196162,1,0,0:0:0:0:
192,192,196162,1,0,0:0:0:0:
320,192,196162,1,0,0:0:0:0:
448,192,196162,1,0,0:0:0:0:
64,192,196385,1,0,0:0:0:0:
448,192,196385,1,0,0:0:0:0:
192,192,196496,1,0,0:0:0:0:
320,192,196496,1,0,0:0:0:0:
64,192,196607,1,0,0:0:0:0:
192,192,196607,1,0,0:0:0:0:
448,192,196607,1,0,0:0:0:0:
64,192,196829,1,0,0:0:0:0:
320,192,196829,1,0,0:0:0:0:
192,192,196940,1,0,0:0:0:0:
448,192,196940,1,0,0:0:0:0:
320,192,197051,1,0,0:0:0:0:
448,192,197051,1,0,0:0:0:0:
192,192,197051,1,0,0:0:0:0:
64,192,197051,1,0,0:0:0:0:
320,192,197274,1,0,0:0:0:0:
448,192,197274,1,0,0:0:0:0:
64,192,197385,1,0,0:0:0:0:
192,192,197385,1,0,0:0:0:0:
64,192,197496,5,0,0:0:0:0:
320,192,197496,1,0,0:0:0:0:
448,192,197496,1,0,0:0:0:0:
64,192,197718,1,0,0:0:0:0:
192,192,197718,1,0,0:0:0:0:
320,192,197829,1,0,0:0:0:0:
448,192,197829,1,0,0:0:0:0:
448,192,197940,1,0,0:0:0:0:
320,192,197940,1,0,0:0:0:0:
192,192,197940,1,0,0:0:0:0:
64,192,197940,1,0,0:0:0:0:
320,192,198162,1,0,0:0:0:0:
448,192,198162,1,0,0:0:0:0:
64,192,198274,1,0,0:0:0:0:
192,192,198274,1,0,0:0:0:0:
64,192,198385,1,0,0:0:0:0:
192,192,198385,1,0,0:0:0:0:
320,192,198385,1,0,0:0:0:0:
448,192,198385,1,0,0:0:0:0:
320,192,198607,5,0,0:0:0:0:
448,192,198607,1,0,0:0:0:0:
192,192,198607,1,0,0:0:0:0:
64,192,198718,1,0,0:0:0:0:
320,192,198718,1,0,0:0:0:0:
64,192,198829,5,0,0:0:0:0:
192,192,198829,1,0,0:0:0:0:
320,192,198829,1,0,0:0:0:0:
448,192,198829,1,0,0:0:0:0:
448,192,198940,1,0,0:0:0:0:
192,192,198940,1,0,0:0:0:0:
64,192,199051,1,0,0:0:0:0:
192,192,199051,1,0,0:0:0:0:
320,192,199051,1,0,0:0:0:0:
64,192,199162,1,0,0:0:0:0:
320,192,199162,1,0,0:0:0:0:
64,192,199274,5,0,0:0:0:0:
192,192,199274,1,0,0:0:0:0:
448,192,199274,1,0,0:0:0:0:
320,192,199274,1,0,0:0:0:0:
